#TITLE:DRUM GO DUM;
#SUBTITLE:;
#ARTIST:K/DA ft. Aluna, Wolftyla, Bekuh BOOM;
#TITLETRANSLIT:;
#SUBTITLETRANSLIT:;
#ARTISTTRANSLIT:;
#GENRE:;
#CREDIT:darkanine;
#BANNER:DRUM GO DUM.png;
#BACKGROUND:DRUM GO DUM-bn.png;
#LYRICSPATH:;
#CDTITLE:;
#MUSIC:DRUM GO DUM.ogg;
#OFFSET:0.000000;
#SAMPLESTART:32.600636;
#SAMPLELENGTH:22.628571;
#SELECTABLE:YES;
#BPMS:0.000000=87.500000
,32.000000=175.000000
,60.000000=87.500000
,128.000000=175.000000
,192.000000=87.500000
;
#STOPS:
;
#BGCHANGES:;
#KEYSOUNDS:;
#ATTACKS:;

//---------------dance-single - ----------------
#NOTES:
     dance-single:
     :
     Hard:
     13:
     0.503377,0.610765,0.244306,0.112757,0.324175,375.000000,349.000000,26.000000,12.000000,0.000000,0.000000,0.503377,0.610765,0.244306,0.112757,0.324175,375.000000,349.000000,26.000000,12.000000,0.000000,0.000000:
// measure 0
0000
0000
0000
0000
,  // measure 1
0000
0000
0000
0000
,  // measure 2
0000
0000
0000
0000
,  // measure 3
0000
0000
0000
0000
,  // measure 4
1000
0000
1000
0000
1100
0000
0001
0000
0000
0100
0100
0000
0101
0000
0010
0000
,  // measure 5
0100
0000
0000
1000
1001
0000
0100
0000
0000
0100
0010
0000
0110
0000
1000
0000
,  // measure 6
0001
0000
0001
0000
0011
0000
0100
0000
0200
1000
1000
0000
0310
0000
0000
0000
,  // measure 7
0001
0000
0000
1000
1010
0000
0100
0000
0200
0000
0000
0000
0310
0000
0000
0000
,  // measure 8
1000
0100
1000
0000
0100
0010
0100
0000
,  // measure 9
0001
0000
0001
0000
0100
1000
0001
0000
,  // measure 10
1000
0000
1000
0010
0100
0000
0001
0010
,  // measure 11
0100
0000
0001
0000
0001
0100
1000
0000
,  // measure 12
0001
0100
0010
0100
0010
0100
0001
0000
,  // measure 13
1000
0100
0010
0100
0001
0100
1000
0000
,  // measure 14
0001
0010
0100
0010
1000
0010
0100
0000
,  // measure 15
0020
0000
0001
0000
0130
0000
0000
0000
1010
0000
0000
1000
0100
0000
0010
0000
,  // measure 16
0011
0000
0000
0001
0100
0000
0010
0000
0110
0000
0000
0001
0100
0000
0010
0000
,  // measure 17
1000
0001
1000
0001
1000
0000
0001
0000
0011
0000
0000
0100
1000
0000
0001
0000
,  // measure 18
0101
0000
0000
1000
0010
0000
0100
0000
0110
0000
0001
1000
0001
0000
0100
0000
,  // measure 19
0200
0000
0000
0000
0301
0000
0000
0000
1100
0000
0000
0010
0001
0000
0100
0000
,  // measure 20
0101
0000
0000
0010
1000
0000
0100
0000
1100
0000
0000
0010
0001
0000
0100
0000
,  // measure 21
0101
0000
1000
0001
1000
0000
0100
0000
1010
0000
0000
1000
0100
0000
0001
0000
,  // measure 22
0011
0000
0000
0001
0100
0000
1000
0000
1010
0000
0000
1000
0100
0000
0001
0000
,  // measure 23
0011
0000
1000
0001
1000
0000
0100
0000
0100
0000
0000
0000
0000
0000
1000
0100
,  // measure 24
0001
0000
0100
0000
0020
0000
0000
0000
0130
0000
0000
0000
0000
0000
1000
0001
,  // measure 25
1000
0000
0010
0000
0100
0000
0000
0100
0002
0000
0000
0000
0000
0000
1003
0010
,  // measure 26
0100
0000
0010
0002
0000
0000
0000
0000
0013
1000
0100
0000
0000
0000
1000
0001
,  // measure 27
1000
0000
0010
0000
0100
0000
0000
0100
0010
0000
0010
0000
1000
0001
1000
0000
,  // measure 28
0100
0000
0010
0000
0001
1000
0001
0000
1000
0010
1000
0000
0001
0100
0001
0000
,  // measure 29
1000
0000
0100
0000
0002
0000
0000
0103
1000
0000
0001
0100
0010
0001
0010
0000
,  // measure 30
1000
0010
0100
1000
0100
0001
1000
0000
0100
0010
0001
0010
0100
0010
0001
0010
,  // measure 31
0100
0000
0200
0000
0010
0000
1000
0000
0010
0000
0001
0000
0310
0001
1000
0000
,  // measure 32
0000
0000
0000
0000
,  // measure 33
0000
0000
0000
0000
,  // measure 34
1001
1000
0010
0100
0001
0001
1000
0100
,  // measure 35
0010
0010
0001
0010
0100
1000
0001
0100
,  // measure 36
0010
1000
1000
0100
0010
0001
0001
0100
,  // measure 37
0010
1000
1000
0001
0010
1000
0001
0100
,  // measure 38
1000
0100
0100
0001
1000
0010
0010
0001
,  // measure 39
1000
0000
0100
0010
1001
0000
0110
0000
,  // measure 40
1001
0000
0000
0001
0010
0000
0100
0000
1000
0000
0000
1000
0010
0000
0100
0000
,  // measure 41
0001
0000
0000
0001
0010
0000
0100
0000
1000
0000
0001
0000
1000
0000
0010
0000
,  // measure 42
0100
0000
0000
0100
0001
0000
0010
0000
0100
0000
0000
0100
1000
0000
0010
0000
,  // measure 43
0100
0000
0000
0100
0001
0000
0010
0000
0100
1000
0000
1000
0001
0000
0100
0000
,  // measure 44
0010
0000
0000
0010
0001
0000
1000
0000
0100
0000
0000
0100
0001
0000
1000
0000
,  // measure 45
0010
0000
0000
0010
0001
0000
1000
0000
0100
0000
0000
0100
0001
0000
1000
0000
,  // measure 46
0001
0000
0000
0001
0010
0000
1000
0000
0001
0000
0000
0001
0100
0000
1000
0000
,  // measure 47
0001
0000
0000
0001
0010
0000
0100
0000
0110
0000
1000
0000
1001
0000
0001
0000
,  // measure 48
0200
0000
0000
1000
0000
0000
1000
0000
0000
0000
0000
0001
0000
0000
0001
0000
0000
0000
0000
0000
0320
0000
0000
0000
0000
0000
1000
0000
0001
0000
0000
0000
,  // measure 49
0230
0000
0000
1000
0000
0000
1000
0000
0000
0000
0000
0010
0000
0000
0010
0000
0000
0000
0000
0000
0001
0000
0001
0000
0301
0000
0000
0000
0100
0000
0000
0000
,  // measure 50
1000
0000
0000
0000
;

//---------------dance-single - ----------------
#NOTES:
     dance-single:
     :
     Beginner:
     3:
     0.143630,0.187928,0.046982,0.056378,0.000000,107.000000,102.000000,5.000000,6.000000,0.000000,0.000000,0.143630,0.187928,0.046982,0.056378,0.000000,107.000000,102.000000,5.000000,6.000000,0.000000,0.000000:
0000
0000
0000
0000
,
0000
0000
0000
0000
,
0000
0000
0000
0000
,
0000
0000
0000
0000
,
0000
1000
0000
0001
,
0000
1000
0000
0001
,
0000
0010
0000
1001
,
0000
0100
0000
1001
,
0100
0000
0100
0000
,
0001
0001
0001
0000
,
0010
0000
0100
0000
,
1000
1000
1000
0000
,
0010
0010
0010
0000
,
0100
0100
0100
0000
,
0001
0000
0001
0000
,
0001
0000
1000
0100
,
1000
0100
1000
0100
,
1000
0000
0001
0100
,
0001
0100
0001
0100
,
0200
0300
0010
0100
,
0010
0100
0010
0100
,
0010
0000
1000
0001
,
1000
0001
1000
0001
,
0000
0100
0100
0000
,
0000
0000
0001
0000
,
0000
0000
2000
3000
,
0000
0000
0100
0000
,
0000
0000
0001
0001
,
0001
0000
1000
1000
,
0000
0020
0030
0000
,
0100
0100
0100
0000
,
2002
0000
0000
3003
,
0000
0000
0000
0000
,
0000
0000
0000
0000
,
1000
0000
0010
0000
,
0100
0000
1000
0000
,
0100
0000
0001
0000
,
1000
0000
0010
0000
,
0100
0000
0001
0000
,
0010
0000
1001
0000
,
0000
0010
0000
0010
,
0000
0010
0000
1001
,
0000
0100
0000
0100
,
0000
0100
0000
0000
,
1000
1000
1000
0000
,
0001
0001
0001
0000
,
0010
0000
0010
0000
,
0100
0000
0100
0100
,
0100
0000
0000
0000
,
0100
0000
0000
2000
,
3000
0000
0000
0000
;

//---------------dance-single - ----------------
#NOTES:
     dance-single:
     :
     Easy:
     6:
     0.249675,0.328873,0.197324,0.084567,0.000000,186.000000,165.000000,21.000000,9.000000,0.000000,0.000000,0.249675,0.328873,0.197324,0.084567,0.000000,186.000000,165.000000,21.000000,9.000000,0.000000,0.000000:
0000
0000
0000
0000
,
0000
0000
0000
0000
,
0000
0000
0000
0000
,
0000
0000
0000
0000
,
0001
0101
0010
1001
,
0000
1100
0001
0110
,
0000
0001
1000
1001
,
0010
1000
0100
0110
,
1000
1000
1000
0000
,
0100
0100
0100
0000
,
1000
1000
0001
0001
,
0100
0100
0100
0000
,
0010
0010
0010
0000
,
0100
0100
0100
0000
,
0001
0001
1000
1000
,
1001
0000
1000
0101
,
1000
0101
0010
0101
,
1000
0001
1000
0000
0001
0000
1100
0000
,
0001
1100
0001
1010
,
0200
0310
0001
0110
,
1000
0110
0001
0110
,
1000
0000
0010
0100
0010
0000
1001
0000
,
0100
1001
0010
1001
,
0100
0200
0310
0000
,
2000
3001
0000
0000
,
0020
0100
0130
0000
,
0002
0010
0103
0000
,
2000
0100
3001
0001
,
0100
0100
1000
1000
,
0100
0001
1000
1000
,
0010
0010
0001
0001
,
0100
0000
0100
0000
0100
0000
0100
0100
,
0100
0000
0000
0000
,
0000
0000
0000
0000
,
1000
0010
1000
0100
,
1000
0001
1000
0001
,
0010
0001
0100
0001
,
1000
0100
0001
0100
,
1000
0001
0100
0010
,
1000
0100
0010
0010
,
0001
0100
1000
0100
,
0001
0100
0010
0100
,
0010
1000
0010
0001
,
0010
1000
0001
1000
,
0100
0001
0100
1000
,
0100
0001
0100
1000
,
0010
0001
0010
1000
,
0001
0010
0110
1001
,
0200
0000
0000
0000
0000
0320
0000
0000
,
0032
0000
0000
0000
0000
0000
0013
0100
,
0100
0000
0000
0000
;

//---------------dance-single - ----------------
#NOTES:
     dance-single:
     :
     Medium:
     9:
     0.315450,0.422837,0.159738,0.065775,0.056378,235.000000,218.000000,17.000000,7.000000,0.000000,0.000000,0.315450,0.422837,0.159738,0.065775,0.056378,235.000000,218.000000,17.000000,7.000000,0.000000,0.000000:
0000
0000
0000
0000
,
0000
0000
0000
0000
,
0000
0000
0000
0000
,
0000
0000
0000
0000
,
1000
1000
1000
0000
0001
0000
1001
0000
,
0100
0100
0100
0000
0010
0000
1001
0000
,
0100
0100
1000
0000
0002
0000
0013
0000
,
0100
0100
0001
0000
2000
0000
3010
0000
,
0100
0100
0100
0100
,
0001
0001
0010
0010
,
0100
0100
0100
0100
,
1000
1000
0010
0010
,
0100
0100
0001
0001
,
1000
1000
0010
0010
,
0001
0010
1000
0100
,
1001
0000
0000
0000
0000
0000
0000
0000
1100
0000
0000
1000
0100
0000
1000
0000
,
0100
0000
0000
1000
0100
0000
1000
0000
0100
0000
0000
1000
0100
0000
1000
0000
,
0001
0000
0001
0000
1000
0000
0000
0000
0101
0000
0000
0001
0100
0000
0001
0000
,
0100
0000
0000
0001
0100
0000
0001
0000
0100
0000
0000
0001
0100
0000
0001
0000
,
2000
0000
0000
0000
3001
0000
0000
0000
0011
0000
0000
0001
0100
0000
0000
0000
,
1010
0000
0000
1000
0100
0000
0000
0000
0011
0000
0000
0001
0100
0000
0100
0000
,
0100
0000
0000
0000
0010
0000
0000
0000
0101
0000
0000
1000
0010
0000
0000
0000
,
1100
0000
0000
0001
0010
0000
0000
0000
0101
0000
0000
1000
0010
0000
0000
0000
,
0100
0100
0110
0000
0100
0000
0000
0000
,
0000
0001
0000
0000
0010
0000
0000
0000
,
0000
0000
0200
0300
,
0000
1000
0000
0000
0010
0000
0000
0000
,
0000
0000
0110
0001
,
0100
1000
0000
0100
,
0010
0010
0010
0000
1000
0100
1000
0000
,
0001
0010
0100
0000
1000
0001
1000
0001
,
1000
0000
0010
0010
0010
0010
0010
0000
,
0000
0000
0000
0000
,
0000
0000
0000
0000
,
1000
0001
0100
0000
0001
1000
0100
0000
,
1000
0001
0100
0000
0001
0000
0011
0000
,
0010
0001
0100
0000
0010
1000
0100
0000
,
0010
0001
0100
0000
0010
0000
1001
0000
,
0100
1000
0001
0000
0100
0001
1000
0000
,
0010
0000
0100
0010
0100
0000
0100
0000
,
1001
0000
1000
0001
0100
0000
0010
1000
,
0001
0000
0010
0100
1000
0001
1000
0000
,
0001
0100
0010
0000
1000
0100
0010
0000
,
0001
0000
1000
0000
0100
0010
0100
0000
,
1000
0001
1000
0001
1000
0000
0010
0000
,
0100
0010
0100
0010
0100
0000
0001
0000
,
1000
0010
1000
0010
0100
0001
0100
0000
,
0001
0000
1000
0001
0010
0000
0110
0000
,
0200
0000
0000
0000
0000
2300
0000
0000
,
3020
0000
0000
0000
0000
0000
0100
0100
,
0130
0000
0000
0000
;
