#TITLE:Cynic;
#SUBTITLE:;
#ARTIST:6yen;
#TITLETRANSLIT:;
#SUBTITLETRANSLIT:;
#ARTISTTRANSLIT:;
#GENRE:;
#CREDIT:;
#MUSIC:Cynic.mp3;
#BANNER:Cynic.png;
#BACKGROUND:Cynic-bg.png;
#CDTITLE:cdtitle.png;
#SAMPLESTART:34.943;
#SAMPLELENGTH:15.000;
#SELECTABLE:YES;
#OFFSET:0.009;
#BPMS:0.000=158.000;
#STOPS:100.500=0.190;
#ORIGIN:;
#PREVIEWVID:;
#JACKET:Cynic-jacket.png;
#CDIMAGE:;
#DISCIMAGE:;
#BGCHANGES:;
#FGCHANGES:;

//--------------- dance-single - ----------------
#NOTES:
     dance-single:
     :
     Hard:
     14:
     0,0,0,0,0:
0000
0000
0000
0000
0000
0000
0000
0000
1000
0001
0000
1000
0001
0000
1000
0001
,
0000
0000
0000
0000
0010
0100
0000
0010
0100
0000
0010
0100
0000
0000
0000
0000
,
1000
0100
0000
1000
0100
0000
1000
0100
0000
0000
0000
0000
0010
0001
0000
0010
,
0001
0000
0010
0001
0000
0000
0000
0000
0100
0001
0000
0100
0001
0000
0100
0001
,
0000
0000
0000
0000
1000
0010
0000
1000
0010
0000
1000
0010
0000
0000
0000
0000
,
1000
0001
0000
1000
0001
0000
1000
0001
0000
0000
0000
0000
0010
0100
0000
0100
,
1000
0000
1000
0001
0000
0001
0010
0000
0010
0100
0000
0100
1000
0001
1000
0001
,
1000
0000
0000
0000
1001
0000
0000
0000
0000
0000
0100
0000
0000
0100
0000
0000
,
0010
1000
0010
0100
0001
0010
0001
1000
,
0001
0000
0000
0000
1001
0000
0000
0000
0000
0000
0010
0000
0000
0010
0000
0000
,
0100
1000
0001
0010
0100
0010
0001
0100
,
0010
0000
0000
0000
0110
0000
0000
0000
0000
0000
0001
0000
0000
0001
0000
0000
,
1000
0001
1000
0010
1000
0100
1000
0001
,
0010
0000
0000
0000
0110
0000
0000
0000
0000
0000
1000
0000
0000
1000
0000
0000
,
0001
0000
0100
0000
0001
0000
1000
0000
0010
0000
0100
0001
0000
0000
0000
0000
,
0000
1000
0001
0000
0010
0000
0100
0000
1000
0000
0001
0000
0010
0000
0001
0000
,
1000
0010
0100
0010
1000
0001
0010
000M
,
0010
0100
0001
1000
0100
0010
0001
1000
,
0010
0100
0001
0100
0010
1000
0100
0010
,
0001
1000
0010
0000
0100
0001
1000
0100
,
1000
0001
0010
0100
1000
0010
0100
00M0
,
0100
0000
1000
0000
0010
0000
0100
0000
0001
0000
0010
0000
0100
0000
1000
0001
,
0000
0001
0100
0000
0100
0010
0000
0010
1000
0000
0000
0000
1000
0000
0001
1000
,
0001
0010
0000
0100
0010
0000
0001
1000
0000
0010
1000
0000
0010
0000
0001
0000
,
0010
1000
0100
0001
0100
1000
0010
0001
,
0010
MMMM
1000
0100
0001
0100
1000
0010
,
0001
0000
0010
0000
1000
0000
0001
0000
0010
0000
0001
0000
0100
0010
0100
0000
,
0100
0010
1000
0001
1000
0100
0001
1000
,
0010
0000
0001
0000
1000
0000
0100
0000
1000
0000
0001
0000
0010
0001
0000
0010
,
0001
0000
0010
0001
0000
0010
0001
0000
1000
0001
1000
0010
0000
1000
0010
0000
,
1000
0010
1000
0000
0010
0000
0100
0000
0001
0000
0010
0000
0100
0000
1000
0000
,
1000
0000
0000
0000
0010
0010
0000
0100
,
0100
0000
0000
0001
0001
0000
0000
0000
,
0010
0010
0000
0100
0100
0000
0000
1000
,
1000
0000
0000
0000
0001
0001
0000
0100
,
0100
0000
0000
0010
0010
0000
0000
0000
,
1000
0000
1000
0000
0000
0000
0100
0000
0100
0000
0000
0010
0000
0010
0001
0000
,
0100
0001
1000
0010
1000
0000
0001
1000
,
0100
1000
0001
0010
0100
1000
0000
0000
,
0100
0100
0010
0001
0000
1000
0010
1000
,
0010
0100
0001
0100
0001
0000
0010
0100
,
1000
0000
0001
0000
0100
0000
0010
0100
0000
0010
0100
0000
0010
0100
0000
0010
,
0100
0010
0100
0010
1000
0010
0100
0001
,
0000
0000
0001
0010
0000
0000
0001
0000
0000
0000
0001
1000
0000
0000
0001
0000
,
0001
0100
0000
0000
0001
0100
0000
0000
0000
0000
0001
0010
0001
0000
1000
0000
,
0000
0000
1000
0010
0000
0000
1000
0000
0000
0000
1000
0100
1000
0100
0000
0010
,
0100
0000
0000
0000
0001
0000
0000
0001
0000
0000
1000
0001
1000
0001
1000
0000
,
0001
0000
0010
0000
0001
0000
1000
0010
1000
0000
0001
0000
0001
0000
0100
0000
,
0100
0000
0010
0000
0010
0000
1000
0001
0000
0000
1000
0000
0100
0000
0010
0000
,
0001
0000
0010
0000
0001
0000
0100
0000
0010
0000
1000
0000
0100
0010
0100
0000
,
1000
0000
0010
0000
0100
0000
0001
0010
0000
0000
0100
1000
0100
1000
0100
0000
,
1000
0010
1000
0001
1001
0001
0100
0001
,
0010
0001
1000
1001
1000
0100
0010
0100
,
1000
0100
1000
0010
1001
0001
0100
0010
,
1000
0000
0010
0000
1001
0000
0100
0000
0010
0000
0100
0000
1000
0001
1000
0000
,
1000
0000
1000
0000
1000
0000
1000
0000
1000
0001
0100
0000
0100
0000
0100
0000
,
0100
0000
0100
0000
0100
0001
0010
0000
0010
0000
0010
0001
1000
0000
1000
0000
,
1000
0001
0010
0000
0010
0000
0010
0001
0100
0000
0100
0000
0100
0000
0100
0010
,
0000
0010
1000
0000
1000
0100
0000
0100
0010
0000
0010
0001
0010
0001
0000
0000
,
0001
1000
0000
0000
1000
0001
0000
0000
0001
0100
0000
0000
0100
0010
0000
0000
,
0010
1000
0000
0000
1000
0010
0000
0000
0010
0001
0000
0000
0001
0010
0000
0000
,
0010
0100
0000
0000
0100
1000
0000
0000
1000
0001
0000
0000
0001
0010
0000
0000
,
0010
0001
0000
0000
1000
0100
0000
0000
0100
0001
0000
0000
0100
0010
0000
0100
,
0010
0000
0010
0100
0000
0010
0100
0000
0001
1000
0000
0001
1000
0000
1000
0001
,
0000
1000
0001
0000
0010
0001
0000
0010
0001
0000
0001
0010
0000
0100
1000
0000
,
0010
0100
0000
0001
0100
0000
0001
0010
0000
0100
1000
0000
0001
0100
0000
0010
,
1000
0001
1000
0000
0000
0000
0000
0000
;

//--------------- dance-single - ----------------
#NOTES:
     dance-single:
     :
     Challenge:
     17:
     0.995933,0.979329,0.114444,0,1.730962,731,719,12,0,9,0,0,0,0,0.995933,0.979329,0.114444,0,1.730962,731,719,12,0,9,0,0,0,0:
0000
0000
0000
0000
0000
0000
0000
0000
1000
0001
0000
0001
0010
0000
0100
1000
,
0000
1000
0010
0001
0010
1000
0000
1000
0010
0000
0010
0100
0000
0001
0010
1000
,
0010
0001
0000
0001
1000
0000
0100
0010
0000
0001
0100
1000
0100
0001
0000
0001
,
0010
0000
0100
1000
0000
1000
0100
0001
0100
1000
0000
1000
0010
0000
0010
0100
,
0000
0001
0100
1000
0100
0001
0000
0010
0100
0000
0100
1000
0000
1000
0100
0001
,
0100
1000
0000
0001
0100
0000
0010
1000
0000
1000
0010
0001
0010
1000
0000
0001
,
0100
0000
1000
0100
0000
0001
0010
0000
0010
0100
0010
0001
0010
1000
0010
0001
,
0010
0000
0000
0001
1000
0000
0000
0000
0010
1000
0010
0000
1000
0010
0000
0000
,
1000
0001
0000
0000
0001
0000
1000
0100
1000
0000
0000
0000
0010
0000
0100
0010
,
0100
0000
0000
0001
0100
0000
0000
0000
0001
0010
0001
0000
0010
0001
0000
0000
,
1000
0001
0000
0000
0010
0000
0100
0010
0100
0000
0000
0000
0010
0000
1000
0001
,
1000
0000
0000
0001
0100
0000
0000
0000
0010
0100
0010
0000
0100
0010
0000
0000
,
1000
0001
0000
0000
0001
0000
0010
0001
0010
0000
0000
0000
0100
0000
1000
0001
,
1000
0000
0000
0010
0100
0000
0000
0000
0010
0001
0010
1000
0000
0100
0001
0000
,
0100
1000
0000
1001
0000
0000
0100
0000
0100
0000
0001
1000
0000
0000
0000
0000
,
0000
0100
0010
0100
0000
0000
0010
0001
0000
0001
1000
0001
1000
0100
0000
0100
,
0001
0100
0000
000M
0100
1000
0100
0001
0100
1000
0100
0000
0010
0000
0001
1000
,
0000
0010
0100
0010
0000
0000
0100
0001
0000
0001
1000
0001
1000
0010
0000
0010
,
0001
0010
0000
000M
0010
1000
0010
0001
0010
1000
0010
0000
0100
0001
0010
0001
,
0000
0010
0100
0010
0000
0000
0001
1000
0000
1000
0100
1000
0100
0010
0000
0010
,
1000
0010
0000
M000
0010
0001
0010
1000
0010
0001
0010
0000
0001
0000
0010
1000
,
0000
0001
1000
0001
0000
0000
0100
0010
0000
0010
0001
0010
0001
1000
0100
1000
,
0000
0010
0001
0000
0100
1000
0000
0010
1000
0000
0001
1000
0000
0000
0000
0000
,
0001
1000
0000
0100
0010
0000
0100
1000
0001
0000
0001
0100
1000
0100
0001
0010
,
0000
1000
0100
0000
0001
0010
0000
1000
0100
0001
0100
1000
0100
0001
0100
1000
,
0100
0001
MMM0
0000
0001
0010
1000
0010
0001
0010
1000
0010
0001
0010
0100
0000
,
1000
0000
0010
0001
0010
0000
1000
0000
0001
1000
0100
1000
0001
0100
1000
0100
,
0010
0001
0010
0000
1000
0001
0010
0100
0001
1000
0100
1000
0010
0001
1000
0000
,
1000
0010
0100
0000
0001
0010
0000
0100
1000
0000
0001
0010
0100
1000
0000
0010
,
0100
0000
0001
0010
0000
0100
0010
0000
0001
1000
0001
1000
0000
1000
0010
0000
,
0001
0010
1000
0000
0001
1000
0000
0100
1000
0000
0010
0100
0001
1000
0001
0000
,
1000
0001
0000
0000
0000
0000
0000
0000
0000
0000
0000
0000
0100
0010
0000
0000
,
0000
0000
0000
0000
1000
0100
0000
0000
1000
0100
0000
0000
0000
0000
0000
0000
,
0000
0000
0000
0000
0010
0001
0000
0000
0000
0000
0000
0000
0001
1000
0000
0000
,
0001
1000
0000
0000
0000
0000
0000
1000
0001
1000
0000
0000
0010
0100
0000
0000
,
0000
0000
0000
0000
0100
0010
0000
0000
1000
0001
0000
0000
0000
0000
0000
1000
,
0100
1000
0000
0000
0001
0010
0000
0000
0000
0000
0000
0000
0100
1000
0010
0000
,
0100
0000
0001
1000
0001
0000
1000
0100
0010
0000
0000
0100
1000
0100
0010
0000
,
0000
0000
0001
0000
0100
0010
0100
0000
0010
0000
1000
0010
1000
0000
1000
0000
,
0010
0000
0100
0000
0010
0100
0010
0000
1000
0000
0010
0100
0001
0010
0000
0000
,
0001
0000
0010
0100
1000
0000
0100
0000
0010
0001
0010
0000
0001
0010
0100
0000
,
1000
0000
0000
0001
1000
0010
0100
0001
0000
0100
0001
0000
1000
0010
0000
1000
,
0100
0000
0001
0100
1000
0000
0100
0000
0001
0000
0100
0000
1000
0000
0001
0000
,
0100
0010
1000
0100
0000
0010
0000
0001
0100
0010
1000
0010
1000
0010
M000
0010
,
0001
0010
1000
0010
0000
0001
0010
0100
0000
1000
0100
0001
0100
1000
0100
M000
,
0100
0001
0100
1000
0000
0100
0000
0001
0010
0100
1000
0001
1000
0001
0000
0010
,
0001
0010
0001
0010
0001
1000
0000
0001
1000
0000
0100
1000
0100
0010
0001
0000
,
0100
0010
0100
0010
0000
1000
0000
0001
0100
0010
1000
0100
0010
0001
0000
0001
,
0010
0001
0010
0100
1000
0010
0001
0010
000M
0010
1000
0010
0001
0010
0100
0000
,
1000
0001
1000
0001
0000
0001
0000
0010
0100
0000
1000
0001
1000
0100
0010
0000
,
0001
0010
0000
0100
1000
0000
0010
0100
0000
0001
0010
0001
1000
0001
0100
0010
,
1000
0001
0100
0010
1000
0001
0100
0000
1001
0000
0001
1000
0000
0001
1000
0001
,
0010
0001
1000
0001
0010
0000
0011
0000
0001
0010
0000
0001
0010
0001
0100
0001
,
1000
0001
0100
0001
0010
0001
0000
1001
0000
1000
0001
0000
1000
0001
1000
0100
,
1000
0001
1000
0000
1010
0000
1000
0100
1000
0010
1000
0100
0000
1100
0010
0100
,
0010
0100
0010
0100
0010
0100
0010
0100
0000
1001
0000
1000
0001
1000
0001
1000
,
0001
1000
0001
1000
0000
0101
0000
0001
0100
0001
0000
0011
0000
0010
0001
0010
,
0000
0110
0000
0010
0100
0010
0000
1010
0000
1000
0010
1000
0010
0000
1100
0000
,
0010
0001
0000
0100
0001
0000
1000
0001
0000
1000
0100
0000
1000
0010
0000
0001
,
0010
1000
0000
1000
0001
0010
0000
1000
0010
0001
0000
0001
1000
0010
0000
0001
,
0010
1000
0000
1000
0001
0010
0000
1000
0010
0001
0000
0001
1000
0100
0000
0001
,
0100
1000
0000
1000
0001
0100
0000
1000
0100
0001
0000
0001
1000
0100
0000
0001
,
0100
1000
0000
1000
0001
0100
0000
1000
0100
0001
0000
0001
1000
0001
0000
0001
,
0010
0000
0100
1000
0000
1000
0010
0001
0010
1000
0000
0010
0100
0000
0001
1000
,
0000
1000
0100
0001
0100
1000
0000
0010
0100
0000
0001
0010
0000
0100
1000
0000
,
0010
0100
0000
0100
0001
0000
1000
0100
0000
0010
0001
0000
0001
1000
0000
1000
,
0010
0001
0010
1000
0010
0000
0000
0000
0000
0000
0000
0000
0000
0000
0000
0000
;
