#TITLE:Cut the Rope;
#SUBTITLE:;
#ARTIST:Ninajirachi;
#TITLETRANSLIT:;
#SUBTITLETRANSLIT:;
#ARTISTTRANSLIT:;
#GENRE:Glitch Club;
#CREDIT:;
#BANNER:Cut the Rope-bn.png;
#BACKGROUND:Cut the Rope-bg.png;
#LYRICSPATH:;
#CDTITLE:cdtitle.png;
#MUSIC:Cut the Rope.ogg;
#OFFSET:-0.004000;
#SAMPLESTART:56.474998;
#SAMPLELENGTH:17.646999;
#SELECTABLE:YES;
#BPMS:0.000000=136.000000
;
#STOPS:
;
#BGCHANGES:;
#KEYSOUNDS:;
#ATTACKS:;

//---------------dance-single - ----------------
#NOTES:
     dance-single:
     :
     Hard:
     14:
     0.560627,0.668133,0.152665,0.197566,0.296349,437.000000,420.000000,17.000000,22.000000,0.000000,0.000000,0.560627,0.668133,0.152665,0.197566,0.296349,437.000000,420.000000,17.000000,22.000000,0.000000,0.000000:
// measure 0
0000
0000
0000
0000
,  // measure 1
0000
0000
0000
0000
,  // measure 2
0000
0000
0000
0000
,  // measure 3
0000
0000
0000
0000
,  // measure 4
0000
0000
0000
0000
,  // measure 5
0000
0000
0000
0000
,  // measure 6
0000
0000
0000
0000
,  // measure 7
0000
0000
0000
0000
,  // measure 8
1000
0000
0001
0000
0100
0000
0010
0000
1000
0010
1000
0000
0001
0010
0001
0000
,  // measure 9
1000
0000
0100
0000
1000
0000
0001
0000
0010
0100
0010
0000
0001
0010
0001
0000
,  // measure 10
0100
0000
0010
0000
1000
0000
0001
0000
1000
0100
1000
0000
0001
1000
0001
0000
,  // measure 11
0100
0000
0010
0000
0001
0000
0010
0100
0010
0000
1000
0010
1000
0000
0100
0000
,  // measure 12
0010
0000
0100
0000
1000
0000
0001
0000
0010
0001
0010
0000
0100
1000
0100
0000
,  // measure 13
0010
0000
0001
0000
1000
0000
0010
0000
0100
0001
0100
0000
0001
1000
0001
0000
,  // measure 14
0100
0000
0001
0000
1000
0000
0100
0000
0010
0100
0010
0000
0001
1000
0001
0000
,  // measure 15
1000
0000
0001
0000
0100
0000
0010
0100
0010
0000
1000
0100
1000
0000
0001
0000
,  // measure 16
0010
0100
2000
0000
3001
0100
0000
0020
,  // measure 17
0000
0000
1030
0200
0000
0300
0000
0000
,  // measure 18
0010
0000
0100
0010
0000
0000
0002
0000
0000
0000
0000
0000
0013
0000
0000
0000
,  // measure 19
0100
1000
0000
0002
0000
0003
0100
0001
,  // measure 20
1000
0010
0000
0200
0000
0000
0302
0000
,  // measure 21
1003
0000
0001
0010
0000
0000
0200
0000
0000
0000
0300
0000
0000
0000
0000
0000
,  // measure 22
1000
0000
0100
0020
0000
0000
0030
0000
0100
0000
0000
2000
0000
0000
3000
0000
,  // measure 23
0001
0000
0100
0001
0000
0000
0020
0000
0000
0000
0030
0000
0000
0000
0000
0000
,  // measure 24
0100
1000
0001
0000
1000
0100
1000
0002
,  // measure 25
1000
0000
0013
0100
0110
0000
1001
0000
,  // measure 26
0110
0000
0100
0001
0000
0000
2000
0000
0100
0000
0000
0000
3002
0000
0000
0000
,  // measure 27
0013
0100
1000
0020
0100
0030
0100
0010
,  // measure 28
1000
0001
0100
0001
1000
0001
0100
0001
,  // measure 29
1000
0100
0001
0100
1000
0100
0001
0100
,  // measure 30
1000
0000
0100
0020
0000
0000
0030
0000
0001
0000
0000
0020
0000
0000
0030
0000
,  // measure 31
0100
0000
1000
0100
0000
0000
2000
0000
3000
0000
0002
0000
0003
0000
0000
0000
,  // measure 32
1001
0100
1000
0001
0100
0001
1000
0010
,  // measure 33
4000
0000
3400
0000
0304
0000
0403
0000
0340
0000
0031
0010
0001
0000
1000
0000
,  // measure 34
1001
0000
1000
0100
1000
0000
0010
0000
0001
0000
1000
0000
0100
0000
0001
0000
,  // measure 35
1000
0000
0000
0100
1000
0000
0001
0000
0100
0000
0001
0010
0100
0000
0010
0000
,  // measure 36
0011
0000
0001
1000
0001
0000
0010
0000
0100
0000
0010
0001
0010
0000
0100
0000
,  // measure 37
1100
0000
0000
1000
0010
0000
1000
0000
0001
0000
1000
0100
0010
0000
0010
0000
,  // measure 38
0101
0000
0100
0001
0100
0000
0001
0000
0100
0000
0010
0000
0100
0000
0001
0000
,  // measure 39
1000
0000
0000
0010
0100
0000
0010
0000
0001
0000
0010
0100
0010
0000
1000
0000
,  // measure 40
1100
1000
0001
0100
1000
0100
0001
1000
,  // measure 41
1001
0000
0004
0003
0100
0000
0010
0000
0100
0000
0001
0010
0100
0000
1000
0000
,  // measure 42
1100
0000
0100
1000
0001
0000
0010
0000
1000
0000
0001
0000
0100
0000
1000
0000
,  // measure 43
0001
0000
0100
0010
0100
0000
0001
0000
1000
0000
0100
0010
0001
0000
1000
0000
,  // measure 44
1001
0000
0001
0000
0011
0000
0010
0000
0110
0000
0100
0010
0001
0000
0100
0000
,  // measure 45
0101
0000
0100
0001
0000
0000
1000
0000
0000
0000
0010
0100
0010
0000
0100
0000
,  // measure 46
0110
0000
0010
0100
0001
0000
1000
0000
0001
0000
0100
0010
1000
0000
0001
0000
,  // measure 47
1000
0000
0100
0000
0001
0000
0100
0000
1000
0000
0010
0100
0010
0000
1000
0000
,  // measure 48
0001
0000
0100
0010
1000
0000
0001
0000
0010
0000
0001
1000
0100
0000
1000
0000
,  // measure 49
0010
0000
1000
0000
0100
0000
0010
0000
0001
0000
1000
0100
1000
0000
0010
0000
,  // measure 50
0100
0000
0001
1000
0100
0000
0010
0000
0100
0000
1000
0001
0010
0000
0001
1000
,  // measure 51
0000
0100
0010
0000
0100
1000
0000
0001
0100
0000
0010
0000
0100
0000
0001
0000
,  // measure 52
1000
0000
0001
1000
0010
0000
1000
0000
0010
0000
1000
0001
0010
0000
0100
0000
,  // measure 53
0010
0000
0001
1000
0000
0000
0010
0000
1020
0000
0000
0000
0000
0000
0000
0000
,  // measure 54
1030
0000
0010
0000
1000
0001
0010
0001
,  // measure 55
1000
0000
0100
0000
0010
0100
1000
0010
,  // measure 56
0100
0000
0001
0000
1000
0010
0001
0010
,  // measure 57
0100
0000
0000
0000
0001
0000
1000
0010
1000
0000
0001
0010
0001
0000
1000
0000
,  // measure 58
0100
0000
0000
0000
1000
0100
0000
0100
0010
0000
0100
0000
1000
0000
0001
0000
,  // measure 59
0100
0000
0000
0000
0001
0100
0000
0100
0010
0000
1000
0000
0001
0000
1000
0000
,  // measure 60
0010
0000
0000
0000
0100
0000
0000
0010
0100
0000
0010
0000
1000
0000
0001
0000
,  // measure 61
0010
0000
0000
0000
0100
0000
0000
0100
1000
0000
0002
0000
0200
0000
0000
0000
,  // measure 62
0303
0000
0000
0000
;

//---------------dance-single - DANCERUSH Special----------------
#NOTES:
     dance-single:
     :
     Challenge:
     15:
     0.500330,0.695972,0.242468,0.332271,0.237978,390.000000,363.000000,27.000000,37.000000,81.000000,0.000000,0.500330,0.695972,0.242468,0.332271,0.237978,390.000000,363.000000,27.000000,37.000000,81.000000,0.000000:
// measure 0
0000
0000
0000
0000
,  // measure 1
0000
0000
0000
0000
,  // measure 2
0000
0000
0000
0000
,  // measure 3
0000
0000
0000
0000
,  // measure 4
0000
0000
0000
0000
,  // measure 5
0000
0000
0000
0000
,  // measure 6
0000
0000
0000
0000
,  // measure 7
0000
0000
0000
0000
,  // measure 8
2000
0000
3000
L002
0000
0003
020L
0000
,  // measure 9
0001
0000
1000
0000
0010
0000
0001
0010
,  // measure 10
0001
0000
0300
0L02
0000
0003
002L
0000
,  // measure 11
0100
0000
0001
0000
1000
0000
1030
0010
,  // measure 12
0002
0000
0003
002L
0000
0030
02L0
0000
,  // measure 13
0001
0000
1000
0000
0010
0000
1000
0010
,  // measure 14
1000
0000
0300
2L00
0000
3000
L002
0000
,  // measure 15
0010
0100
1000
0100
,  // measure 16
0013
0001
0010
0000
0100
2000
3000
0002
,  // measure 17
0000
0000
1003
0200
0000
0300
0M00
0000
,  // measure 18
0001
0000
0100
0010
0000
0000
0200
0000
0000
0000
0000
0000
0320
0000
0000
0000
,  // measure 19
1030
0200
0300
2000
0000
3000
0010
1000
,  // measure 20
0001
0020
0030
0002
0000
0000
2003
0000
,  // measure 21
3001
0000
0010
0100
0000
0000
0020
0000
0000
0000
0030
0000
00M0
0000
0000
0000
,  // measure 22
1000
0000
0100
0020
0000
0000
0030
0000
0100
0000
0000
2000
0000
0000
3000
0000
,  // measure 23
0001
0000
0010
0001
0000
0000
0200
0000
0000
0000
0300
0000
0M00
0000
0000
0000
,  // measure 24
1000
0010
1000
0000
0001
0200
0000
0320
,  // measure 25
0000
0000
1030
0001
1001
0000
0110
0000
,  // measure 26
1001
0000
1000
0100
0000
0000
2000
0000
0100
0000
0000
0000
3002
0000
0000
0000
,  // measure 27
0013
0200
0000
2300
0010
3000
0001
0010
,  // measure 28
0100
1000
0100
0001
0100
0010
0001
0100
,  // measure 29
0010
0001
0010
0100
0001
1000
0010
1000
,  // measure 30
0001
1000
0001
1000
0001
1000
0001
1000
0001
1000
0001
1000
0001
1000
0001
1000
,  // measure 31
0001
0000
1000
0100
0000
0000
2000
0000
3000
0000
0020
0000
0030
0000
MMMM
0000
,  // measure 32
1000
MMMM
1000
MMMM
1000
MMMM
1000
MMMM
,  // measure 33
1000
0000
0100
0000
1000
0010
1000
0000
0004
0000
0013
0000
0001
0000
0100
0000
,  // measure 34
0101
1000
0001
MMMM
0001
MMMM
0001
0010
,  // measure 35
0100
0000
0000
1000
0100
0000
1000
0000
0001
0000
0010
0001
0010
0000
0100
0000
,  // measure 36
0110
0000
1000
0000
1001
0000
0001
0000
0101
0000
0000
0100
0001
0000
1000
0000
,  // measure 37
1100
0000
0000
1000
0010
0000
1000
0000
MMMM
0000
1000
0000
MMMM
0000
1000
0000
,  // measure 38
0100
0010
0001
MMMM
0001
MMMM
0001
1000
,  // measure 39
0001
0000
0000
0010
0100
0000
0010
0000
0001
0000
0010
0100
1000
0000
0001
0000
,  // measure 40
0010
0001
0100
MMMM
0100
1000
0010
MMMM
,  // measure 41
0011
0000
0000
0000
1000
0000
0100
0000
0010
0000
0001
0100
0001
0000
1000
0000
,  // measure 42
1001
0001
1000
MMMM
1000
MMMM
1000
0100
,  // measure 43
0010
0000
0000
0100
0010
0000
0001
0000
1000
0000
0001
0100
0001
0000
1000
0000
,  // measure 44
1100
0000
1000
0000
1001
0000
0001
0000
0101
0000
0000
0001
1000
0000
0001
0000
,  // measure 45
0012
0000
0100
0100
0000
1000
1003
L00L
,  // measure 46
1001
1000
0100
0010
MMMM
1000
0100
0010
,  // measure 47
0001
1000
0010
0001
0010
0100
0010
1000
,  // measure 48
1001
1000
0100
0010
MMMM
1000
0100
0010
,  // measure 49
1000
0010
0001
1000
0010
0001
0010
1000
,  // measure 50
1100
0000
0001
0000
1000
0000
0010
0000
MMMM
0000
0001
0000
1000
0000
0010
1000
,  // measure 51
0000
0100
0010
0000
0001
1000
0000
0010
1000
0000
0001
1000
0001
0000
0010
0000
,  // measure 52
0100
1000
0001
0010
MMMM
1000
0001
0010
,  // measure 53
0001
0000
1000
0100
0000
0000
2000
0000
3004
0000
0000
0000
0000
0000
2003
0000
,  // measure 54
3001
0000
0010
0000
0100
0000
1000
0001
0010
0001
1000
0001
0010
0001
1000
0000
,  // measure 55
0100
0000
0010
0000
0001
0000
1000
0100
0010
0100
1000
0100
0010
0100
1000
0000
,  // measure 56
0001
0000
0010
0000
0100
0000
1000
0010
0100
0010
1000
0010
0100
0010
1000
0000
,  // measure 57
0001
0000
0100
0000
0001
0000
0010
0100
1000
0000
0100
0010
0100
0010
0100
0000
,  // measure 58
1000
0000
0000
0000
0001
0100
00M0
0100
1000
0000
0001
0000
0010
0000
0001
0000
,  // measure 59
1000
0000
0000
0000
0001
0010
0M00
0010
1000
0000
0010
0000
0001
0000
0010
0000
,  // measure 60
1000
0000
0000
0000
0001
0000
0000
0100
0001
0000
1000
0000
0010
0000
0100
0000
,  // measure 61
0001
0000
0000
0000
1000
0000
0000
0100
1000
0000
0002
0000
2000
0000
3003
0000
,  // measure 62
L00L
0000
0000
0000
;

//---------------dance-single - ----------------
#NOTES:
     dance-single:
     :
     Medium:
     10:
     0.363060,0.501100,0.134704,0.224507,0.040411,283.000000,268.000000,15.000000,25.000000,0.000000,0.000000,0.363060,0.501100,0.134704,0.224507,0.040411,283.000000,268.000000,15.000000,25.000000,0.000000,0.000000:
// measure 0
0000
0000
0000
0000
,  // measure 1
0000
0000
0000
0000
,  // measure 2
0000
0000
0000
0000
,  // measure 3
0000
0000
0000
0000
,  // measure 4
0000
0000
0000
0000
,  // measure 5
0000
0000
0000
0000
,  // measure 6
0000
0000
0000
0000
,  // measure 7
0000
0000
0000
0000
,  // measure 8
1000
0000
0010
0000
1000
0001
0100
0001
,  // measure 9
1000
0000
0001
0000
0010
0100
1000
0100
,  // measure 10
0010
0000
0001
0000
1000
0010
0100
0010
,  // measure 11
1000
0000
0100
0000
0010
0000
0001
0010
,  // measure 12
0100
0000
1000
0000
0001
0100
1000
0100
,  // measure 13
0001
0000
0010
0000
0100
1000
0001
1000
,  // measure 14
0100
0000
0010
0000
0001
1000
0010
1000
,  // measure 15
0002
0100
0010
0100
,  // measure 16
1003
0000
0010
0000
1000
0001
0000
0010
,  // measure 17
0000
0000
0100
1000
0000
0000
0000
0000
,  // measure 18
0001
0000
0000
0010
0000
0000
2000
0000
0000
0000
0000
0000
3020
0000
0000
0000
,  // measure 19
0031
0200
0000
0302
0000
0003
0000
0000
,  // measure 20
0010
0200
0000
2300
0000
0000
3002
0000
,  // measure 21
0103
0000
0000
0001
0000
0000
2000
0000
0000
0000
3000
0000
0000
0000
0000
0000
,  // measure 22
0010
0000
0000
1000
0000
0000
0000
0000
0100
0000
0000
0010
0000
0000
0000
0000
,  // measure 23
0001
0000
0000
0010
0000
0000
0200
0000
0000
0000
0300
0000
0000
0000
0000
0000
,  // measure 24
1000
0100
0010
0001
,  // measure 25
0100
0010
0100
0001
,  // measure 26
0010
0100
0010
0001
,  // measure 27
1000
0010
1000
0001
,  // measure 28
0100
0001
1000
0001
0100
0001
1000
0001
,  // measure 29
0100
0001
0010
0001
0100
0001
0010
0001
,  // measure 30
0200
1000
0010
0001
,  // measure 31
0301
0000
0000
0020
0000
0200
0330
0000
,  // measure 32
1001
1000
0001
1000
,  // measure 33
0100
0010
0001
0000
2000
3000
0010
1000
,  // measure 34
1010
0000
1000
0010
1000
0000
0001
0100
,  // measure 35
0001
0000
0010
0000
0100
0000
1000
0100
,  // measure 36
1100
0000
0101
0000
1100
0000
0101
0001
,  // measure 37
1000
0000
1000
0000
0010
1000
0001
1000
,  // measure 38
0010
0000
0100
0010
0100
0000
0001
0010
,  // measure 39
0001
0000
1000
0000
0100
0000
0010
0100
,  // measure 40
0110
0000
0101
0000
0001
1000
0001
0000
,  // measure 41
1001
0000
0000
0000
1100
0000
0000
0000
0100
0000
0010
0100
0010
0000
0001
0000
,  // measure 42
0101
0000
0100
0010
0100
0000
0001
0010
,  // measure 43
0001
0000
1000
0000
0010
0000
1000
0010
,  // measure 44
1010
0000
0011
0000
1010
0000
0011
0001
,  // measure 45
2000
0001
0000
0001
,  // measure 46
3010
1000
0001
1000
0000
1000
0001
1000
,  // measure 47
0100
0000
0010
0000
0001
0000
0100
0010
,  // measure 48
0100
0001
0010
0001
0000
0001
0010
0001
,  // measure 49
1000
0000
0010
0000
1000
0000
0100
0010
,  // measure 50
0001
1000
0010
1000
0000
1000
0010
1000
,  // measure 51
0001
0000
0000
0001
0000
0000
0001
0000
0100
0000
0010
0000
1000
0000
0001
0000
,  // measure 52
0010
0100
1000
0100
0000
0100
1000
0100
,  // measure 53
0010
0002
0100
0000
,  // measure 54
2003
0000
0000
3002
0000
0000
0023
0000
,  // measure 55
0100
1000
0100
0001
,  // measure 56
0230
0000
0000
0320
0000
0000
0032
0000
,  // measure 57
0010
0000
0100
0000
0010
0000
1003
0001
,  // measure 58
2000
0000
0000
3020
0000
0000
0230
0000
,  // measure 59
0001
0000
0000
0000
0010
0000
0000
0010
0000
0000
0000
0000
0001
0000
0000
0000
,  // measure 60
0301
0000
0000
0000
0100
0000
0000
0100
0000
0000
0010
0000
0100
0000
0001
0000
,  // measure 61
1000
0000
0001
0000
0100
0001
1000
0000
,  // measure 62
0001
0000
0000
0000
;

//---------------dance-single - ----------------
#NOTES:
     dance-single:
     :
     Easy:
     6:
     0.248882,0.334067,0.035921,0.044901,0.000000,194.000000,190.000000,4.000000,5.000000,0.000000,0.000000,0.248882,0.334067,0.035921,0.044901,0.000000,194.000000,190.000000,4.000000,5.000000,0.000000,0.000000:
// measure 0
0000
0000
0000
0000
,  // measure 1
0000
0000
0000
0000
,  // measure 2
0000
0000
0000
0000
,  // measure 3
0000
0000
0000
0000
,  // measure 4
0000
0000
0000
0000
,  // measure 5
0000
0000
0000
0000
,  // measure 6
0000
0000
0000
0000
,  // measure 7
0000
0000
0000
0000
,  // measure 8
0001
0000
0000
0010
0000
0000
0100
0000
,  // measure 9
0000
0000
0000
0000
,  // measure 10
1000
0000
0000
0001
0000
0000
0100
0000
,  // measure 11
0000
0000
0000
0000
0000
0000
0001
0100
,  // measure 12
0001
0000
0000
0010
0000
0000
0100
0000
,  // measure 13
0000
0000
0000
0000
,  // measure 14
1000
0000
0000
0010
0000
0000
1000
0000
,  // measure 15
0000
0000
0000
0000
,  // measure 16
0001
0000
0000
0000
0010
0100
0000
0010
,  // measure 17
0000
0000
0001
1000
0000
0000
0000
0000
,  // measure 18
0010
0000
0000
1000
0000
0000
0001
0000
,  // measure 19
0100
0001
0000
1000
0000
0000
0010
0100
,  // measure 20
0010
0000
0000
1000
0000
0000
0100
0000
,  // measure 21
0000
0010
0000
0001
0000
0000
0000
0000
,  // measure 22
1000
0000
0001
0000
,  // measure 23
1000
0000
0000
0010
0000
0000
0000
0000
,  // measure 24
1000
0010
0100
0001
,  // measure 25
1000
0010
0100
0001
,  // measure 26
0010
0100
1000
0001
,  // measure 27
0010
0000
0100
0000
1000
0000
0001
0100
,  // measure 28
0001
0000
1000
0000
0100
0000
0010
0100
,  // measure 29
1000
0000
0001
0000
0100
0000
0010
0100
,  // measure 30
0002
0000
0000
0023
0000
0000
0230
0000
,  // measure 31
1300
0000
0000
0002
0003
2000
3000
0000
,  // measure 32
1001
0000
1000
0000
,  // measure 33
0001
0000
1000
0010
,  // measure 34
1010
1000
0010
1000
,  // measure 35
0001
0000
0100
0000
0001
0000
0010
0100
,  // measure 36
0000
0010
0001
0000
1000
0000
0001
0100
,  // measure 37
0001
0000
0010
0100
0000
0100
0000
0100
,  // measure 38
1000
0001
0100
0001
,  // measure 39
1000
0000
0010
0000
0100
0000
0001
0010
,  // measure 40
0000
0001
1000
0000
0100
0010
0100
0000
,  // measure 41
1000
0000
0010
0100
0010
0000
1000
0000
,  // measure 42
1001
0001
0100
0001
,  // measure 43
0010
0000
0100
0000
1000
0000
0001
0100
,  // measure 44
0000
0001
1000
0000
0100
0000
0010
0001
,  // measure 45
0010
0000
0100
1000
0000
1000
0000
1000
,  // measure 46
0000
0001
0100
0001
0000
1000
0010
1000
,  // measure 47
0000
0001
0000
0100
0000
0001
0010
0100
,  // measure 48
0000
1000
0100
1000
0000
0001
0010
0001
,  // measure 49
0000
1000
0000
0010
0000
1000
0001
0100
,  // measure 50
0000
0001
0100
0001
0000
0100
0010
0100
,  // measure 51
0000
0001
0000
0010
0000
0001
1000
0100
,  // measure 52
0000
0010
0100
0010
0000
0001
0010
0001
,  // measure 53
0000
1000
0000
0001
0000
0001
0000
0001
,  // measure 54
0010
0000
0000
0100
0000
0000
1000
0000
,  // measure 55
0000
0000
0000
0000
,  // measure 56
0001
0000
0000
1000
0000
0000
0100
0000
,  // measure 57
0000
0000
0000
0000
0000
0000
0010
0100
,  // measure 58
0010
0000
0000
0001
0000
0000
1000
0000
,  // measure 59
0000
0000
0000
0000
,  // measure 60
0010
0000
0000
1000
0000
0000
0001
0000
,  // measure 61
0000
0000
0000
0000
,  // measure 62
1001
0000
0000
0000
;

//---------------dance-single - ----------------
#NOTES:
     dance-single:
     :
     Beginner:
     2:
     0.098783,0.167033,0.026941,0.000000,0.000000,77.000000,74.000000,3.000000,0.000000,0.000000,0.000000,0.098783,0.167033,0.026941,0.000000,0.000000,77.000000,74.000000,3.000000,0.000000,0.000000,0.000000:
0000
0000
0000
0000
,
0000
0000
0000
0000
,
0000
0000
0000
0000
,
0000
0000
0000
0000
,
0000
0000
0000
0000
,
0000
0000
0000
0000
,
0000
0000
0000
0000
,
0000
0000
0000
0000
,
1000
0000
0000
0000
,
0000
0000
0000
0000
,
0001
0000
0000
0000
,
0000
0000
0000
0000
,
1000
0000
0000
0000
,
0000
0000
0000
0000
,
0000
0000
0000
0000
,
0001
0000
0000
0000
,
1000
0000
0000
0000
,
0100
0000
0000
0000
,
1000
0000
0000
0000
,
0001
0000
0000
0000
,
0100
0000
0000
0000
,
0010
0000
0000
0000
,
1000
0000
0000
0000
,
0001
0000
0000
0000
,
0100
0000
0001
0000
,
1000
0000
0001
0000
,
0100
0000
0010
0000
,
1000
0000
0001
0000
,
0010
0000
0100
0000
,
1000
0000
0010
0000
,
0100
0000
0001
0000
,
1000
0000
0000
0000
,
1001
0000
0000
0000
,
0000
0000
0000
0000
,
0110
0000
0100
0000
,
0010
0000
1000
0000
,
0001
0000
0010
0000
,
0100
0000
0010
0000
,
0001
0000
1000
0000
,
0001
0000
0100
0000
,
0010
0000
1000
0000
,
0001
0000
1000
0000
,
0010
0000
1000
0000
,
0001
0000
0010
0000
,
0001
0000
1000
0000
,
0100
0000
0000
0000
,
1001
0000
0001
0000
,
0100
0000
0001
0000
,
1000
0000
0001
0000
,
0100
0000
0001
0000
,
0010
0000
0100
0000
,
1000
0000
0001
0000
,
1000
0000
0100
0000
,
0010
0000
0100
0000
,
1000
0000
0000
0000
,
0001
0000
0000
0000
,
0100
0000
0000
0000
,
0001
0000
0000
0000
,
1000
0000
0000
0000
,
0000
0000
0000
0000
,
0001
0000
0000
0000
,
0000
0000
0000
0000
,
1000
0000
0000
0000
;
