#TITLE:Cruising Boy;
#SUBTITLE:;
#ARTIST:Katsumi Horii Project;
#TITLETRANSLIT:;
#SUBTITLETRANSLIT:;
#ARTISTTRANSLIT:;
#GENRE:FUSION JAZZ;
#CREDIT:;
#BANNER:cruisingboy-bn.png;
#BACKGROUND:cruisingboy-bg.png;
#LYRICSPATH:;
#CDTITLE:cdtitle.png;
#MUSIC:cruisingboy.ogg;
#OFFSET:-1.083470;
#SAMPLESTART:33.659000;
#SAMPLELENGTH:11.990000;
#SELECTABLE:YES;
#DISPLAYBPM:160.000000;
#BPMS:0.000000=160.244003
,88.000000=160.134003
,152.000000=160.007996
,208.000000=160.449005
,216.000000=160.406006
;
#STOPS:
;
#BGCHANGES:;
#KEYSOUNDS:;
#ATTACKS:;

//---------------dance-single - ----------------
#NOTES:
     dance-single:
     :
     Hard:
     9:
     0.367050,0.511165,0.207351,0.378641,0.000000,285.000000,262.000000,23.000000,42.000000,4.000000,0.000000,0.367050,0.511165,0.207351,0.378641,0.000000,285.000000,262.000000,23.000000,42.000000,4.000000,0.000000:
// measure 0
0000
0000
0000
0000
,  // measure 1
0000
0000
0000
0000
,  // measure 2
0000
0000
0000
0000
,  // measure 3
0000
0000
0000
0000
,  // measure 4
2000
0000
0010
0000
,  // measure 5
3002
0000
0000
0013
0000
0000
0100
0000
,  // measure 6
2000
0000
0000
3200
0000
0000
0301
0000
,  // measure 7
2000
0000
0000
3020
0000
0000
0031
0000
,  // measure 8
2000
0000
0000
3010
0000
0000
0100
0000
,  // measure 9
0002
0000
0000
0000
,  // measure 10
0023
0000
0000
0000
,  // measure 11
0000
0000
0000
0030
,  // measure 12
0001
0100
1000
0010
0000
0001
0010
1000
,  // measure 13
0001
0100
1000
0001
0010
0100
1000
0000
,  // measure 14
1100
0000
1000
010M
0000
M100
0001
0000
,  // measure 15
1000
0010
0100
0000
0001
0000
0100
0000
,  // measure 16
0101
0000
0001
M100
0000
010M
1000
0000
,  // measure 17
0001
0010
0100
0000
1000
0000
0100
0000
,  // measure 18
1100
0000
1000
0001
0100
0010
0000
0220
,  // measure 19
0000
0000
0000
0330
,  // measure 20
0000
1000
0010
0001
1000
0100
0001
0020
,  // measure 21
0000
0000
0000
0030
,  // measure 22
0101
0000
0000
0100
0010
0100
0000
0000
,  // measure 23
0001
0000
0100
1000
0000
0100
0001
0000
,  // measure 24
2000
0000
0000
3100
0010
0100
0000
0000
,  // measure 25
1000
0000
0100
0001
0000
0100
1000
0000
,  // measure 26
0002
0000
0103
0010
0000
0010
0000
0000
,  // measure 27
2000
0000
0000
0000
3100
0000
0000
0010
,  // measure 28
0000
0001
0010
1000
0001
0100
1000
0010
,  // measure 29
0000
0202
0000
0000
0000
0000
0303
0000
,  // measure 30
1001
0000
0000
1000
0100
1000
0000
0000
,  // measure 31
0010
0000
0100
1000
0000
0100
0001
0000
,  // measure 32
0020
0000
0030
0001
0100
0001
0000
0000
,  // measure 33
0010
0000
0100
0001
0000
0100
1000
0000
,  // measure 34
0002
0000
0103
0010
0000
0010
0000
0000
,  // measure 35
2000
0000
3100
0000
,  // measure 36
1010
0000
0000
0101
0000
0000
1001
0000
,  // measure 37
0011
0000
0000
1100
0000
0000
1001
0000
,  // measure 38
2000
0000
0000
3010
0000
0001
0010
1000
,  // measure 39
0001
0000
0010
0200
0000
0000
1300
0000
,  // measure 40
0002
0000
0000
0013
0000
1000
0010
0001
,  // measure 41
1000
0000
0010
0200
0000
0000
0301
0000
,  // measure 42
2000
0000
0000
3100
0000
0010
0001
1000
,  // measure 43
0010
0000
0100
0002
0000
0000
0013
0000
,  // measure 44
0011
0000
0000
1100
0000
0000
1001
0000
,  // measure 45
1010
0000
0000
0101
0000
0000
1001
0000
,  // measure 46
2000
0000
0000
3100
0000
0001
0100
1000
,  // measure 47
0010
0000
0100
2000
0000
0000
3100
0000
,  // measure 48
0002
0000
0000
0103
0000
1000
0100
0001
,  // measure 49
0010
0000
0100
0002
0000
0000
0103
0000
,  // measure 50
2000
0000
0000
0010
0000
3000
0010
0000
,  // measure 51
0200
0000
0301
0000
,  // measure 52
0010
0020
0000
0000
0000
0000
0000
0030
,  // measure 53
0000
1001
0000
1000
0010
0000
0100
0000
,  // measure 54
0001
0100
1000
0100
0001
0100
0010
2000
,  // measure 55
0000
0000
3001
0000
0010
0100
0000
0000
,  // measure 56
0001
0000
0100
2000
0000
0000
0000
0000
,  // measure 57
0010
0001
3010
0000
,  // measure 58
1000
0001
1000
0010
1000
0001
0010
0200
,  // measure 59
0000
0000
1300
0000
0001
0000
0100
0020
,  // measure 60
0000
0000
0001
1000
,  // measure 61
0001
1000
0130
0000
,  // measure 62
0001
0010
1000
0010
0001
0010
0100
2000
,  // measure 63
0000
0000
3001
0000
0100
0010
0000
0000
,  // measure 64
0001
0000
0010
2000
0000
0000
0000
0000
,  // measure 65
0100
0001
3100
0000
,  // measure 66
1000
0001
1000
0100
1000
0001
0100
0020
,  // measure 67
0000
0000
1030
0000
0001
0010
0000
1100
,  // measure 68
0000
0100
0010
0100
1000
0010
0100
0001
,  // measure 69
0000
2002
0000
0000
0000
0000
0000
0000
,  // measure 70
0000
0000
3003
0000
0110
0000
0001
1000
;

//---------------dance-single - ----------------
#NOTES:
     dance-single:
     :
     Medium:
     7:
     0.298792,0.415322,0.234397,0.225382,0.000000,232.000000,206.000000,26.000000,25.000000,0.000000,0.000000,0.298792,0.415322,0.234397,0.225382,0.000000,232.000000,206.000000,26.000000,25.000000,0.000000,0.000000:
0000
0000
0000
0000
,
0000
0000
0000
0000
,
0000
0000
0000
0000
,
0000
0000
0000
0000
,
2000
0000
0010
0000
,
3002
0000
0000
0013
0000
0000
0100
0000
,
2000
0000
0000
3002
0000
0000
0103
0000
,
0020
0000
0000
2030
0000
0000
3001
0000
,
0020
0000
0000
0130
0000
0000
1000
0000
,
0002
0000
0000
0000
,
0023
0000
0000
0000
,
0000
0000
0000
0030
,
0001
0100
1000
0010
0000
0000
0001
0000
,
0010
1000
0010
0001
,
1100
0000
1000
0001
0000
0001
0100
0000
,
0101
0000
0010
1000
,
1010
0000
1000
0001
0000
0001
0010
0000
,
0011
0000
0100
1000
,
1100
0000
0000
0000
1000
0001
0100
0020
,
0000
0000
0000
0000
0000
0000
0000
0030
,
0000
0100
0010
0100
0001
0010
0100
2000
,
0000
0000
0000
3000
,
0101
0000
0000
0100
0010
0100
0000
0000
,
1000
0100
0001
0000
,
1100
0000
0000
0100
0010
0100
0000
0000
,
0001
0100
1000
0000
,
0001
0100
0010
1000
,
0002
0000
0000
0000
2003
0000
0000
3010
,
0000
0100
0010
0100
0001
0010
0100
1000
,
0000
2002
0000
0000
0000
0000
3003
0000
,
1010
0000
0000
0010
0100
1000
0000
0000
,
0100
0001
1000
0000
,
0011
0000
0000
0010
0100
0001
0000
0000
,
0100
1000
0001
0000
,
0100
0010
0001
0010
,
2000
0000
3001
0000
,
0011
0000
0000
1001
0000
0000
0000
0000
,
1010
0000
0000
1001
0000
0000
0000
0000
,
0002
0000
0000
0003
0000
0000
1000
0010
,
0100
0000
0000
0101
0000
0000
0000
0000
,
2000
0000
0000
3000
0000
0000
0001
0010
,
0100
0000
0000
1100
0000
0000
0000
0000
,
0200
0000
0000
0300
0000
0000
0010
0001
,
1000
0000
0000
1001
0000
0000
0000
0000
,
1010
0000
0000
0101
0000
0000
0000
0000
,
0011
0000
0000
1100
0000
0000
0000
0000
,
2000
0000
0000
3000
0000
0000
1000
0100
,
0001
0000
0000
1100
0000
0000
0000
0000
,
0002
0000
0000
0003
0000
0000
0001
0100
,
1000
0000
0000
0101
0000
0000
0000
0000
,
0100
0000
0000
0010
0000
0000
1000
0000
,
0001
0000
0010
0100
,
1000
0002
0000
0000
0000
0000
0003
0000
,
0000
1001
0000
0000
0001
0000
0010
0000
,
0100
0000
1000
0000
0001
0100
0000
0000
,
0010
0001
0010
1000
,
0001
0000
0010
0200
0000
0000
0000
0000
,
0001
0000
1300
0010
,
0100
0000
0001
0000
1000
0100
0000
0000
,
0010
0000
1000
0000
0010
0000
0001
2000
,
0000
0000
0010
0000
,
0100
0000
3010
0100
,
0001
0000
1000
0000
0100
0010
0000
0000
,
1000
0010
0001
0010
,
0100
0000
1000
0002
0000
0000
0000
0000
,
0100
0000
0013
0100
,
1000
0000
0001
0000
0100
0010
0000
0000
,
0001
0000
0010
0000
1000
0000
0000
0011
,
0000
1000
0001
1000
0010
0100
0001
0100
,
0000
0101
0000
0000
0000
0000
0000
0000
,
0000
0000
0000
0000
1000
0000
0001
0010
;

//---------------dance-single - ----------------
#NOTES:
     dance-single:
     :
     Easy:
     5:
     0.256291,0.415322,0.234397,0.207351,0.000000,199.000000,173.000000,26.000000,23.000000,0.000000,0.000000,0.256291,0.415322,0.234397,0.207351,0.000000,199.000000,173.000000,26.000000,23.000000,0.000000,0.000000:
0000
0000
0000
0000
,
0000
0000
0000
0000
,
0000
0000
0000
0000
,
0000
0000
0000
0000
,
2000
0000
0000
3000
,
0002
0000
0000
0003
,
0010
0000
0000
0100
0000
0000
1000
0000
,
0001
0000
0000
0100
0000
0000
0010
0000
,
2000
0000
0000
3000
,
0002
0000
0000
0003
,
0020
0000
0000
0000
,
0000
0000
0000
0030
,
0001
1000
0001
1000
0000
0000
0000
0000
,
0000
0000
0000
0000
,
0101
0000
0001
1000
,
1100
0000
0100
0010
,
0011
0000
0001
1000
,
0010
0000
0100
0000
,
0101
0000
0000
0000
0001
1000
0000
0020
,
0000
0000
0000
0030
,
0000
0100
0010
0100
0010
0100
0010
0100
,
0000
0000
0000
0000
,
0101
0000
1000
0100
,
0001
0100
1000
0000
,
1100
0000
0001
0100
,
1000
0100
0001
0000
,
1000
0100
0010
0001
,
2000
0000
3002
0000
,
0003
0100
0010
0100
0010
0100
0010
0100
,
0000
2002
0000
0000
0000
0000
3003
0000
,
1010
0000
0010
0100
,
1000
0100
0001
0000
,
0011
0000
0010
0100
,
0001
0100
1000
0000
,
0001
0100
0010
1000
,
0002
0000
2003
0000
,
3010
0000
0000
0101
0000
0000
0000
0000
,
0011
0000
0000
1100
0000
0000
0000
0000
,
0002
0000
0000
0003
0000
0000
0100
0000
,
1000
0000
0000
0101
0000
0000
0000
0000
,
2000
0000
0000
3000
0000
0000
0100
0000
,
0001
0000
0000
1100
0000
0000
0000
0000
,
0200
0000
0000
0300
0000
0000
0010
0000
,
0001
0000
0000
1001
0000
0000
0000
0000
,
0101
0000
0000
1100
0000
0000
0000
0000
,
0011
0000
0000
1010
0000
0000
0000
0000
,
0002
0000
0000
0003
0000
0000
1000
0000
,
0010
0000
0000
0101
0000
0000
0000
0000
,
2000
0000
0000
3000
0000
0000
0001
0000
,
0010
0000
0000
1100
0000
0000
0000
0000
,
0001
0000
0000
1000
0000
0000
0010
0000
,
0100
0000
0001
1000
,
0200
0000
0000
0300
,
0000
0110
0000
0000
0001
0000
1000
0000
,
0010
0001
0010
1000
,
0001
0010
0100
1000
,
0001
0000
0000
0200
0000
0000
0000
0000
,
1000
0000
0301
0000
,
0100
1000
0100
0001
,
1000
0000
0100
0000
0010
0000
0001
2000
,
0000
0000
0010
0000
,
0001
0000
3010
0000
,
0100
1000
0100
0001
,
1000
0100
0010
0001
,
1000
0000
0000
0020
0000
0000
0000
0000
,
0001
0000
1030
0000
,
0010
0001
0010
1000
,
0001
0000
0010
0000
0100
0000
0000
1001
,
0000
1000
0001
1000
0001
1000
0001
1000
,
0000
0220
0000
0000
0000
0000
0000
0000
,
0330
0000
0000
0000
0110
0000
0000
1001
;

//---------------dance-single - ----------------
#NOTES:
     dance-single:
     :
     Beginner:
     3:
     0.142956,0.223635,0.081137,0.171290,0.000000,111.000000,102.000000,9.000000,19.000000,0.000000,0.000000,0.142956,0.223635,0.081137,0.171290,0.000000,111.000000,102.000000,9.000000,19.000000,0.000000,0.000000:
0000
0000
0000
0000
,
0000
0000
0000
0000
,
0000
0000
0000
0000
,
0000
0000
0000
0000
,
2000
0000
3000
0000
,
0002
0000
0003
0000
,
0200
0000
0300
0000
,
0020
0000
0030
0000
,
2000
0000
3000
0000
,
0002
0000
0003
0000
,
0020
0000
0000
0000
,
0000
0000
0030
0000
,
0100
0100
0000
0000
,
0000
0000
0000
0000
,
1000
0000
0010
0000
,
0100
0000
0001
0000
,
0010
0000
0100
0000
,
0010
0000
0001
0000
,
1000
0000
0010
0000
,
0200
0000
0000
0300
,
0000
0010
0010
0010
,
0000
0000
0000
0000
,
1001
0000
0000
0000
,
1000
0000
0001
0000
,
0110
0000
0000
0000
,
0001
0000
1000
0000
,
0100
0000
0010
0000
,
0100
0000
1000
0000
,
0000
0010
0010
0010
,
0000
1001
0000
0000
0000
0000
0000
0000
,
0110
0000
0000
0000
,
0001
0000
1000
0000
,
0110
0000
0000
0000
,
1000
0000
0001
0000
,
0100
0000
0010
0000
,
0100
0000
0001
0000
,
2000
0000
0000
3000
0000
0000
0000
0000
,
0002
0000
0000
0003
0000
0000
0000
0000
,
0020
0000
0000
0030
,
0010
0000
0010
0000
,
0200
0000
0000
0300
,
0100
0000
0100
0000
,
2000
0000
0000
3000
,
1000
0000
0001
0000
,
0100
0000
0000
0100
0000
0000
0000
0000
,
0010
0000
0000
0010
0000
0000
0000
0000
,
2000
0000
0000
3000
,
1000
0000
1000
0000
,
0002
0000
0000
0003
,
0001
0000
0001
0000
,
0200
0000
0000
0300
,
0100
0000
0010
0000
,
1001
0000
0000
0000
,
0000
0110
0000
0000
1000
0000
0000
0000
,
0100
0000
0001
0000
,
0100
0000
1000
0000
,
0001
0000
0200
0000
,
0000
0000
0300
0000
,
0010
0000
0001
0000
,
0010
0000
1000
0000
,
0002
0000
0000
0000
,
0003
0000
0001
0000
,
0100
0000
1000
0000
,
0100
0000
0001
0000
,
1000
0000
0200
0000
,
0000
0000
0300
0000
,
0010
0000
1000
0000
,
0010
0000
0001
0000
,
1000
0000
0000
0000
0001
0000
0000
0100
,
0000
0100
0000
0000
0000
0000
0000
0000
,
0000
0000
0000
0000
0110
0000
0000
1001
;
