#VERSION:0.83;
#TITLE:Cool Cat;
#SUBTITLE:;
#ARTIST:Garfield;
#TITLETRANSLIT:;
#SUBTITLETRANSLIT:;
#ARTISTTRANSLIT:;
#GENRE:EURODANCE;
#ORIGIN:;
#CREDIT:;
#BANNER:coolcat-bn.png;
#BACKGROUND:coolcat-bg.png;
#PREVIEWVID:;
#JACKET:coolcat-jacket.png;
#CDIMAGE:;
#DISCIMAGE:;
#LYRICSPATH:;
#CDTITLE:cdtitle.png;
#MUSIC:coolcat.ogg;
#OFFSET:-1.893604;
#SAMPLESTART:75.337006;
#SAMPLELENGTH:13.000000;
#SELECTABLE:YES;
#BPMS:0.000=142.882;
#STOPS:;
#DELAYS:;
#WARPS:;
#TIMESIGNATURES:0.000=4=4;
#TICKCOUNTS:0.000=4;
#COMBOS:0.000=1;
#SPEEDS:0.000=1.000=0.000=0;
#SCROLLS:0.000=1.000;
#FAKES:;
#LABELS:0.000=Song Start;
#BGCHANGES:;
#KEYSOUNDS:;
#ATTACKS:
;

//---------------dance-single - ----------------
#NOTEDATA:;
#CHARTNAME:;
#STEPSTYPE:dance-single;
#DESCRIPTION:;
#CHARTSTYLE:;
#DIFFICULTY:Hard;
#METER:11;
#RADARVALUES:0.484133,0.522402,0.091841,0.000000,0.192866,369.000000,359.000000,10.000000,0.000000,0.000000,0.000000,0.000000,0.000000,0.000000,0.484133,0.522402,0.091841,0.000000,0.192866,369.000000,359.000000,10.000000,0.000000,0.000000,0.000000,0.000000,0.000000,0.000000;
#CREDIT:TonyAkita;
#NOTES:
0000
0000
0000
0000
,
0000
0000
0000
0000
,
0000
0000
0000
0000
,
0000
0000
0000
0000
,
1000
0000
0000
0010
0000
0000
1000
0000
0000
0000
0010
0000
0100
0000
0010
0000
,
0100
0000
0000
0001
0000
0000
0100
0000
0000
0000
0001
0000
1000
0000
0100
0000
,
0010
0000
0000
0001
0000
0000
0010
0000
0000
0000
0100
0000
0010
0000
0100
0000
,
1000
0000
0000
0100
0000
0000
1000
0000
0000
0000
0001
0000
0100
0000
0010
0000
,
1000
0001
0010
0001
1000
0001
0100
0000
,
0010
1000
0001
0010
0000
0100
1000
0001
,
0100
0001
1000
0001
0010
0001
1000
0000
,
0010
0100
0001
1000
0000
0100
0010
0100
,
1000
0100
0010
0100
0001
0100
0010
0000
,
0001
0010
0100
1000
0000
0010
0100
0010
,
1000
0010
0100
0010
0001
0010
0100
0000
,
0001
0100
0010
1000
0000
0001
1000
0001
,
1000
0000
0000
0010
0000
0000
1000
0000
0000
0000
0010
0000
0100
0000
0010
0000
,
0100
0000
0000
0001
0000
0000
0100
0000
0000
0000
0001
0000
1000
0000
0100
0000
,
0010
0000
0000
0001
0000
0000
0010
0000
0000
0000
0100
0000
0010
0000
0100
0000
,
1000
0000
0000
0100
0000
0000
1000
0000
0000
0000
0001
0000
0100
0000
0010
0000
,
1000
0000
0001
0010
1000
0000
0010
0000
,
0001
0000
0010
0100
1000
0000
0001
0100
,
0010
0000
0001
0100
0010
0000
0100
0000
,
0101
0000
1001
0000
0000
1000
0100
0010
,
0001
0000
1000
0010
0001
0000
0010
0000
,
1000
0000
0010
0100
0001
0000
1000
0100
,
0010
0000
1000
0100
0010
0000
0100
0000
,
1100
1001
0000
0000
,
1000
0000
0000
1000
0000
0000
1000
0000
0010
0000
0000
0010
0000
0000
0010
0000
,
0100
0000
0000
0100
0000
0000
0100
0000
0000
0000
1000
0000
0100
0000
0001
0000
,
0100
0000
0000
0100
0000
0000
0100
0000
0001
0000
0000
0001
0000
0000
0001
0000
,
0010
0000
0000
0010
0000
0000
0010
0000
0000
0000
0100
0000
1000
0000
0001
0000
,
0100
0000
0000
0010
0000
0000
0100
0000
0000
0000
0001
0000
0100
0000
0010
0000
,
1000
0000
0000
0001
0000
0000
1000
0000
0000
0000
0100
0000
0010
0000
0001
0000
,
0010
0000
0000
0100
0000
0000
0010
0000
0000
0000
0001
0000
0010
0000
0100
0000
,
1000
0000
0000
0001
0000
0000
1000
0000
0000
0000
0010
0000
0100
0000
0001
0000
,
1000
0100
0000
0010
0100
0000
1000
0100
0000
0000
0010
0000
0010
0000
0010
0000
,
0001
1000
0000
0001
0010
0000
0001
1000
0000
0000
0010
0000
0010
0000
0010
0000
,
0100
0001
0000
0100
0010
0000
0100
0001
0000
0000
1000
0000
1000
0000
1000
0000
,
0100
1000
0000
0100
0010
0000
0100
1000
0000
0000
0001
0000
0001
0000
0001
0000
,
1000
0010
0000
0100
0010
0000
1000
0010
0000
0000
0100
0000
0100
0000
0100
0000
,
0001
1000
0000
0001
0010
0000
0001
1000
0000
0000
0100
0000
0100
0000
0100
0000
,
0010
0001
0000
0010
0100
0000
0010
0001
0000
0000
1000
0000
1000
0000
1000
0000
,
0001
1000
0000
0001
1000
0000
0001
1000
0000
0000
0001
0000
0100
0000
0010
0000
,
1000
0000
0001
0010
1000
0000
0010
0000
,
0001
0000
0010
0100
1000
0000
0001
0100
,
0010
0000
0001
0100
0010
0000
0100
0000
,
0101
0000
1001
0000
0000
1000
0100
0010
,
0001
0000
1000
0010
0001
0000
0010
0000
,
1000
0000
0010
0100
0001
0000
1000
0100
,
0010
0000
1000
0100
0010
0000
0100
0000
,
1100
0000
1001
0000
0000
0000
1000
0001
,
1000
0100
0010
0100
0001
0100
0010
0000
,
0001
0010
0100
1000
0000
0010
0100
0010
,
1000
0010
0100
0010
0001
0010
0100
0000
,
0001
0100
0010
1000
0000
0001
1000
0001
,
0010
0001
1000
0001
0100
0001
1000
0000
,
0100
0010
0001
1000
0000
0010
1000
0001
,
0010
0001
1000
0001
0100
0001
1000
0000
,
0010
0100
0001
1000
0000
1001
0000
0110
;

//---------------dance-single - ----------------
#NOTEDATA:;
#CHARTNAME:;
#STEPSTYPE:dance-single;
#DESCRIPTION:;
#CHARTSTYLE:;
#DIFFICULTY:Medium;
#METER:9;
#RADARVALUES:0.375235,0.385732,0.082657,0.000000,0.082657,286.000000,277.000000,9.000000,0.000000,0.000000,0.000000,0.000000,0.000000,0.000000,0.375235,0.385732,0.082657,0.000000,0.082657,286.000000,277.000000,9.000000,0.000000,0.000000,0.000000,0.000000,0.000000,0.000000;
#CREDIT:TonyAkita;
#NOTES:
// measure 0
0000
0000
0000
0000
,  // measure 1
0000
0000
0000
0000
,  // measure 2
0000
0000
0000
0000
,  // measure 3
0000
0000
0000
0000
,  // measure 4
1000
0000
0000
0010
0000
0000
1000
0000
0000
0000
0010
0000
0100
0000
0000
0000
,  // measure 5
0001
0000
0000
0100
0000
0000
0001
0000
0000
0000
1000
0000
0100
0000
0000
0000
,  // measure 6
0010
0000
0000
0001
0000
0000
0010
0000
0000
0000
0100
0000
1000
0000
0000
0000
,  // measure 7
0001
0000
0000
0100
0000
0000
0001
0000
0000
0000
0100
0000
0010
0000
1000
0000
,  // measure 8
0001
0010
1000
0010
,  // measure 9
0001
0010
0100
1000
0000
0000
0001
0000
,  // measure 10
1000
0010
0001
0010
,  // measure 11
1000
0010
0100
0001
0000
0000
1000
0000
,  // measure 12
0001
0100
1000
0100
,  // measure 13
0001
0100
0010
1000
0000
0000
0001
0000
,  // measure 14
1000
0100
0001
0100
,  // measure 15
1000
0100
0010
0001
0000
0000
1000
0000
,  // measure 16
0001
0000
0000
0010
0000
0000
0001
0000
0000
0000
0010
0000
0100
0000
0000
0000
,  // measure 17
1000
0000
0000
0100
0000
0000
1000
0000
0000
0000
0001
0000
0100
0000
0000
0000
,  // measure 18
0010
0000
0000
1000
0000
0000
0010
0000
0000
0000
0100
0000
0001
0000
0000
0000
,  // measure 19
1000
0000
0000
0100
0000
0000
1000
0000
0000
0000
0100
0000
0010
0000
0001
0000
,  // measure 20
1000
0000
0010
0100
0010
0000
0001
0000
,  // measure 21
0010
0000
1000
0010
0100
0000
0001
0010
,  // measure 22
0001
0000
0001
0010
0001
0000
0010
0000
,  // measure 23
1100
1001
0000
1000
,  // measure 24
0001
0000
0010
0100
0010
0000
1000
0000
,  // measure 25
0010
0000
0001
0010
0100
0000
1000
0010
,  // measure 26
1000
0000
1000
0010
1000
0000
0010
0000
,  // measure 27
0101
1001
0000
0000
,  // measure 28
1000
0000
0000
1000
0000
0000
1000
0000
0001
0000
0000
0001
0000
0000
0001
0000
,  // measure 29
0010
0000
0000
0010
0000
0000
0010
0000
0000
0000
0100
0000
0010
0000
0100
0000
,  // measure 30
1000
0000
0000
1000
0000
0000
1000
0000
0001
0000
0000
0001
0000
0000
0001
0000
,  // measure 31
0100
0000
0000
0100
0000
0000
0100
0000
0000
0000
0010
0000
1000
0000
0000
0000
,  // measure 32
0001
0000
0000
1000
0000
0000
0001
0000
0000
0000
1000
0000
0100
0000
0000
0000
,  // measure 33
0010
0000
0000
0100
0000
0000
0010
0000
0000
0000
0001
0000
1000
0000
0000
0000
,  // measure 34
0001
0000
0000
1000
0000
0000
0001
0000
0000
0000
1000
0000
0010
0000
0000
0000
,  // measure 35
0100
0000
0000
0010
0000
0000
0100
0000
0000
0000
0001
0000
1000
0000
0000
0000
,  // measure 36
0001
0000
0010
0000
0001
0100
0010
1000
,  // measure 37
0001
0000
0010
0000
0001
1000
0010
0100
,  // measure 38
0010
0000
1000
0000
0100
0010
0001
1000
,  // measure 39
0010
0000
1000
0000
0001
0010
0100
1000
,  // measure 40
0100
0000
0010
0000
0100
1000
0001
0100
,  // measure 41
0010
0000
0100
0000
0001
0100
0010
1000
,  // measure 42
0010
0000
0100
0000
0010
1000
0001
0010
,  // measure 43
0100
1000
0001
1000
,  // measure 44
0001
0000
0010
0100
0010
0000
1000
0000
,  // measure 45
0010
0000
0001
0010
0100
0000
1000
0010
,  // measure 46
1000
0000
1000
0010
1000
0000
0010
0000
,  // measure 47
0101
1001
0000
0001
,  // measure 48
1000
0000
0010
0100
0010
0000
0001
0000
,  // measure 49
0010
0000
1000
0010
0100
0000
0001
0010
,  // measure 50
0001
0000
0001
0010
0001
0000
0010
0000
,  // measure 51
1100
1001
0000
0000
,  // measure 52
0001
0100
1000
0100
,  // measure 53
0001
0100
0010
1000
0000
0000
0001
0000
,  // measure 54
1000
0100
0001
0100
,  // measure 55
1000
0100
0010
0001
0000
0000
1000
0000
,  // measure 56
0001
0010
1000
0010
,  // measure 57
0001
0010
0100
1000
0000
0000
0001
0000
,  // measure 58
1000
0010
0001
0010
,  // measure 59
1000
0100
0010
0001
,  // measure 60
1001
0000
0000
0000
;

//---------------dance-single - ----------------
#NOTEDATA:;
#CHARTNAME:;
#STEPSTYPE:dance-single;
#DESCRIPTION:;
#CHARTSTYLE:;
#DIFFICULTY:Easy;
#METER:7;
#RADARVALUES:0.293891,0.358179,0.091841,0.000000,0.055105,224.000000,214.000000,10.000000,0.000000,0.000000,0.000000,0.000000,0.000000,0.000000,0.293891,0.358179,0.091841,0.000000,0.055105,224.000000,214.000000,10.000000,0.000000,0.000000,0.000000,0.000000,0.000000,0.000000;
#CREDIT:TonyAkita;
#NOTES:
0000
0000
0000
0000
,
0000
0000
0000
0000
,
0000
0000
0000
0000
,
0000
0000
0000
0000
,
1000
0000
0000
1000
0000
0000
1000
0000
0000
0000
0000
0000
0001
0000
0000
0000
,
0010
0000
0000
0010
0000
0000
0010
0000
0000
0000
0000
0000
0001
0000
0000
0000
,
0100
0000
0000
0100
0000
0000
0100
0000
0000
0000
0000
0000
0010
0000
0000
0000
,
1000
0000
0000
1000
0000
0000
1000
0000
0000
0000
0000
0000
0001
0000
0000
0000
,
0010
0001
1000
0001
,
0100
0010
1000
0000
,
0010
1000
0001
1000
,
0100
0010
0001
0000
,
0100
0010
0100
1000
,
0100
0001
0010
0000
,
0100
0010
0100
0001
,
0100
1000
0010
0100
,
0001
0000
0000
0001
0000
0000
0001
0000
0000
0000
0000
0000
1000
0000
0000
0000
,
0010
0000
0000
0010
0000
0000
0010
0000
0000
0000
0000
0000
1000
0000
0000
0000
,
0100
0000
0000
0100
0000
0000
0100
0000
0000
0000
0000
0000
0010
0000
0000
0000
,
0001
0000
0000
0001
0000
0000
0001
0000
0000
0000
0000
0000
1000
0000
0000
0000
,
0010
0001
0010
1000
,
0010
0000
0100
0000
0001
0000
1000
1000
,
1000
0000
0001
0001
0001
0000
1000
0000
,
0101
1001
0000
0001
,
0010
1000
0010
0001
,
0010
0000
0100
0000
1000
0000
0001
0001
,
0001
0000
1000
1000
1000
0000
0001
0000
,
1100
1001
0000
0000
,
1000
0000
0010
0000
,
0001
0000
0100
1000
,
0001
0000
0100
0000
,
1000
0000
0010
0001
,
1000
0000
0000
1000
0000
0000
1000
0000
0000
0000
0000
0000
0010
0000
0000
0000
,
0100
0000
0000
0100
0000
0000
0100
0000
0000
0000
0000
0000
0001
0000
0000
0000
,
0010
0000
0000
0010
0000
0000
0010
0000
0000
0000
0000
0000
0001
0000
0000
0000
,
1000
0000
0000
1000
0000
0000
1000
0000
0000
0000
0000
0000
0010
0000
0000
0000
,
0100
0010
1000
0010
,
0100
0001
1000
0100
,
0010
0100
0010
0001
,
1000
0010
0100
0001
,
1000
0100
0010
0100
,
1000
0001
0100
0010
,
0100
0001
0100
0010
,
1001
0000
0000
1000
,
0010
0001
0010
1000
,
0010
0000
0100
0000
0001
0000
1000
1000
,
1000
0000
0001
0001
0001
0000
1000
0000
,
0101
1001
0000
0001
,
0010
1000
0010
0001
,
0010
0000
0100
0000
1000
0000
0001
0001
,
0001
0000
1000
1000
1000
0000
0001
0000
,
1100
1001
0000
1000
,
0001
0010
0001
1000
,
0001
0100
0010
0000
,
1000
0010
1000
0001
,
1000
0100
0010
0000
,
0100
0001
0100
0010
,
0100
1000
0010
0000
,
0100
1000
0100
0010
,
0100
0001
0010
0100
,
1001
0000
0000
0000
;

//---------------dance-single - ----------------
#NOTEDATA:;
#CHARTNAME:;
#STEPSTYPE:dance-single;
#DESCRIPTION:;
#CHARTSTYLE:;
#DIFFICULTY:Beginner;
#METER:3;
#RADARVALUES:0.150881,0.192866,0.055105,0.000000,0.000000,115.000000,109.000000,6.000000,0.000000,0.000000,0.000000,0.000000,0.000000,0.000000,0.150881,0.192866,0.055105,0.000000,0.000000,115.000000,109.000000,6.000000,0.000000,0.000000,0.000000,0.000000,0.000000,0.000000;
#CREDIT:TonyAkita;
#NOTES:
0000
0000
0000
0000
,
0000
0000
0000
0000
,
0000
0000
0000
0000
,
0000
0000
0000
0000
,
1000
1000
1000
0000
,
0001
0001
0001
0000
,
0010
0010
0010
0000
,
0100
0100
0100
0000
,
1000
0000
0010
0000
,
1000
0000
0000
0000
,
0001
0000
0010
0000
,
0001
0000
0000
0000
,
1000
0000
0100
0000
,
1000
0000
0000
0000
,
0001
0000
0100
0000
,
0001
0000
0000
0000
,
1000
1000
1000
0000
,
0001
0001
0001
0000
,
0010
0010
0010
0000
,
0100
0100
0100
0000
,
1000
0000
0010
0000
,
1000
0000
0100
0000
,
0010
0000
0010
0000
,
1001
0000
0000
0000
,
0001
0000
0010
0000
,
0001
0000
0100
0000
,
0010
0000
0010
0000
,
1001
0000
0000
0000
,
1000
0000
0000
0000
,
0001
0000
0000
0000
,
0010
0000
0000
0000
,
0100
0000
0000
0000
,
1000
1000
1000
0000
,
0001
0001
0001
0000
,
0010
0010
0010
0000
,
0100
0100
0100
0000
,
1000
0000
0010
0000
,
1000
0000
0100
0000
,
0010
0000
0001
0000
,
0100
0000
0001
0000
,
1000
0000
0100
0000
,
1000
0000
0010
0000
,
0100
0000
0001
0000
,
1001
0000
0000
0000
,
0001
0000
0010
0000
,
0001
0000
0100
0000
,
0010
0000
0010
0000
,
1001
0000
0000
0000
,
1000
0000
0010
0000
,
1000
0000
0100
0000
,
0010
0000
0010
0000
,
1001
0000
0000
0000
,
0001
0000
0010
0000
,
0001
0000
0000
0000
,
1000
0000
0010
0000
,
1000
0000
0000
0000
,
0001
0000
0100
0000
,
0001
0000
0000
0000
,
1000
0000
0100
0000
,
1000
0000
0001
0000
,
1001
0000
0000
0000
;
