#VERSION:0.83;
#TITLE:Cold Pulse;
#SUBTITLE:;
#ARTIST:Quadra with DJ FX;
#TITLETRANSLIT:;
#SUBTITLETRANSLIT:;
#ARTISTTRANSLIT:;
#GENRE:;
#ORIGIN:;
#CREDIT:;
#BANNER:banner.png;
#BACKGROUND:Cold Pulse-bg.png;
#PREVIEWVID:;
#JACKET:jacket.png.jpeg;
#CDIMAGE:;
#DISCIMAGE:;
#LYRICSPATH:;
#CDTITLE:;
#MUSIC:Cold Pulse.ogg;
#OFFSET:1.364250;
#SAMPLESTART:53.999966;
#SAMPLELENGTH:12.000000;
#SELECTABLE:YES;
#BPMS:0.000=143.000;
#STOPS:;
#DELAYS:;
#WARPS:;
#TIMESIGNATURES:0.000=4=4;
#TICKCOUNTS:0.000=4;
#COMBOS:0.000=1;
#SPEEDS:0.000=1.000=0.000=0;
#SCROLLS:0.000=1.000;
#FAKES:;
#LABELS:0.000=Song Start;
#BGCHANGES:;
#KEYSOUNDS:;
#ATTACKS:
;

//---------------dance-single - ----------------
#NOTEDATA:;
#CHARTNAME:;
#STEPSTYPE:dance-single;
#DESCRIPTION:;
#CHARTSTYLE:;
#DIFFICULTY:Beginner;
#METER:3;
#RADARVALUES:0.113062,0.169170,0.000000,0.118715,0.000000,80.000000,80.000000,0.000000,12.000000,0.000000,0.000000,0.000000,0.000000,0.000000,0.113062,0.169170,0.000000,0.118715,0.000000,80.000000,80.000000,0.000000,12.000000,0.000000,0.000000,0.000000,0.000000,0.000000;
#CREDIT:Venom;
#NOTES:
0000
0000
0000
0000
,
0000
0000
0000
0000
,
0000
0000
0000
0000
,
0000
0000
0000
0000
,
0000
0000
0000
0000
,
0000
0000
0000
0000
,
0000
0000
0000
0000
,
0000
0000
0000
0000
,
0000
0000
0000
0000
,
1000
0000
0000
0000
,
0100
0000
0000
0000
,
0010
0000
0000
0000
,
0001
0000
0000
0000
,
1000
0000
0000
0000
,
0010
0000
0000
0000
,
0100
0000
0000
0000
,
0001
0000
0000
0000
,
0000
1000
0000
1000
,
0000
0100
0000
0100
,
0000
0010
0000
0010
,
0000
0001
0000
0001
,
0000
0100
0000
0100
,
0000
0010
0000
0010
,
0000
1000
0000
1000
,
0000
0001
0000
0001
,
0000
0010
0000
0010
,
0000
0100
0000
0100
,
0000
1000
0000
1000
,
0000
0001
0000
0001
,
0000
0100
0000
0100
,
0000
0010
0000
0010
,
0000
1000
0000
1000
,
0000
0001
0000
0001
,
0001
0001
0000
0000
,
1000
1000
0000
0000
,
0010
0010
0000
0000
,
0100
0100
0000
0000
,
0001
0001
0000
0000
,
0010
0010
0000
0000
,
0100
0100
0000
0000
,
1000
1000
0000
0000
,
0002
0000
0000
0003
,
0020
0000
0000
0030
,
0200
0000
0000
0300
,
2000
0000
0000
3000
,
0010
0010
0010
0000
,
0010
0010
0010
0000
,
0000
0010
0010
0000
,
0010
0010
0010
0000
,
0020
0000
0000
0030
,
2000
0000
0000
3000
,
0002
0000
0000
0003
,
0020
0000
0000
0030
,
0200
0000
0000
0300
,
2000
0000
0000
3000
,
0002
0000
0000
0003
,
0200
0000
0000
0300
,
0010
0000
0000
0000
;

//---------------dance-single - ----------------
#NOTEDATA:;
#CHARTNAME:;
#STEPSTYPE:dance-single;
#DESCRIPTION:;
#CHARTSTYLE:;
#DIFFICULTY:Easy;
#METER:6;
#RADARVALUES:0.289722,0.408579,0.207752,0.425397,0.000000,205.000000,184.000000,21.000000,43.000000,0.000000,0.000000,0.000000,0.000000,0.000000,0.289722,0.408579,0.207752,0.425397,0.000000,205.000000,184.000000,21.000000,43.000000,0.000000,0.000000,0.000000,0.000000,0.000000;
#CREDIT:Venom;
#NOTES:
0000
0000
0000
0000
,
0000
0000
0000
0000
,
0000
0000
0000
0000
,
0000
0000
0000
0000
,
0000
0000
0000
0000
,
0000
0000
0000
0000
,
0000
0000
0000
0000
,
1000
0001
1000
0001
,
1000
1000
0001
0001
,
2000
0010
3010
0000
,
0020
0100
0130
0000
,
0200
0001
0301
0000
,
0002
1000
1003
0000
,
2000
0000
0000
0100
3000
0000
0000
0000
,
0200
0000
0000
0010
0300
0000
0000
0000
,
0020
0000
0000
0001
0030
0000
0000
0000
,
0002
1000
1000
1003
,
2000
3020
2030
3010
,
0200
0302
0203
0301
,
0002
0023
0032
0013
,
0200
2300
3200
1300
,
2000
0010
0001
0100
,
0001
0010
0001
0100
,
3002
0010
1000
0100
,
1000
0010
1000
0103
,
1200
1300
0010
0100
,
0201
0301
0010
0100
,
2010
3010
0100
0001
,
0012
0013
0100
1000
,
0210
1000
0001
0010
,
0301
0010
0100
1000
,
1000
0010
0100
0001
,
0100
0000
0000
0100
0000
0100
0000
0100
,
0010
2000
0100
3100
,
0010
0002
0100
0103
,
0001
2000
0100
3100
,
1000
0002
0100
0103
,
0001
2000
0010
3100
,
1000
0002
0010
0103
,
0001
0020
1000
0031
,
0100
0200
0001
1000
,
0310
1010
0001
0001
,
0000
0011
1000
1000
,
0000
0101
1000
1000
,
0000
1100
0001
0001
,
0200
0010
0010
0010
,
0010
0010
0010
0010
,
0000
0010
0010
0000
,
0010
0010
0320
0000
,
0130
1001
0010
1001
,
1000
0110
0001
0110
,
1000
0101
0001
1100
,
1000
0011
0001
1010
,
2000
0010
3100
1001
,
0002
0010
0103
1001
,
0200
1000
0301
0110
,
0020
0001
1030
0220
,
0000
0000
0000
0000
,
0000
0000
0000
0000
,
0330
0000
0000
0000
;

//---------------dance-single - ----------------
#NOTEDATA:;
#CHARTNAME:;
#STEPSTYPE:dance-single;
#DESCRIPTION:;
#CHARTSTYLE:;
#DIFFICULTY:Medium;
#METER:11;
#RADARVALUES:0.380172,0.466948,0.039572,0.741972,0.138501,269.000000,265.000000,4.000000,75.000000,0.000000,0.000000,0.000000,0.000000,0.000000,0.380172,0.466948,0.039572,0.741972,0.138501,269.000000,265.000000,4.000000,75.000000,0.000000,0.000000,0.000000,0.000000,0.000000;
#CREDIT:Venom;
#NOTES:
0000
0000
0000
0000
,
0000
0000
0000
0000
,
0000
0000
0000
0000
,
0000
0000
0000
0000
,
0000
0000
0000
0000
0000
0000
0000
1000
,
0200
0010
0000
0010
0000
0010
0000
0310
,
0002
1000
0000
1000
0000
1000
0000
1003
,
0020
0100
0100
0100
,
0100
0100
0100
0130
,
1001
0000
1000
0100
0001
0000
0200
0010
,
0310
0000
0001
0100
1000
0000
0200
0010
,
0310
0000
1000
0100
0010
0000
0002
1000
,
1003
0000
0001
0010
0100
0000
2000
0001
,
3001
0000
1000
0010
0001
0000
0020
0100
,
0130
0000
0001
0010
1000
0000
0020
0100
,
0130
0000
1000
0100
0010
0000
0002
1000
,
2003
3020
0230
0302
,
1003
0200
0000
0310
0001
2000
0000
3010
,
0100
0002
0000
1003
0100
0020
0000
0031
,
1000
0020
0000
0130
0001
2000
0000
3100
,
1000
0002
0000
0013
0001
0200
0000
0301
,
2000
0000
0000
3001
0000
1000
0002
0000
0000
1003
0000
0001
,
0200
0000
0000
0310
0000
0100
0020
0000
0000
0130
0000
0010
,
2000
0000
0000
3100
0000
1000
0200
0000
0000
0310
0000
0100
,
0020
0000
0000
0031
0000
0010
0002
0000
0000
1003
0000
0001
,
2000
0010
0000
3010
0200
0001
0000
0301
,
0020
0100
0000
0130
2000
0001
0000
3002
,
0100
0100
0000
0203
0010
0010
0000
0320
,
1000
1000
0000
2030
0001
0001
3001
0001
,
0020
1000
0031
1000
,
0020
0001
1030
0001
,
0200
1000
0301
1000
,
0200
0001
1300
0001
,
1000
0000
0000
0000
0100
0000
0000
0000
0020
0000
0000
0001
0000
0000
0031
0000
,
0000
0000
0000
0000
0001
0000
0100
0000
0020
0000
0000
1000
0000
0000
1030
0000
,
0000
0000
0000
0000
1000
0000
0001
0000
0200
0000
0000
0010
0000
0000
0310
0000
,
0000
0000
0000
0000
0100
0000
0001
0000
2000
0000
0000
0010
0000
0000
3010
0000
,
1000
0000
0000
0000
0001
0000
0010
0000
0200
0000
0000
0001
0000
0000
1300
0000
,
0000
0000
0000
0000
0001
0000
0100
0000
0020
0000
0000
0001
0000
0000
1030
0000
,
0000
0000
0000
0000
0001
0000
1000
0000
0002
0000
0000
0100
0000
0000
1003
0000
,
0000
0000
0000
0000
1000
0000
0001
0000
2000
0000
0000
0100
0000
0000
0001
0000
,
3001
0000
0000
0000
1000
0000
0000
0000
0001
0000
0000
1000
0000
0000
0001
0000
,
0000
0000
0000
0000
0100
0000
0000
0000
0010
0000
0000
0100
0000
0000
0010
0000
,
0000
0000
0000
0000
1000
0000
0000
0000
0100
0000
0000
0010
0000
0000
0001
0000
,
0000
0000
0000
0000
0001
0000
0000
0000
0100
0000
0000
0010
0000
0000
0010
0000
,
2000
3200
2300
3200
,
0320
0000
0000
0032
0000
0000
0023
0000
0000
0031
0000
0001
,
0000
0000
0002
0000
0000
0013
0100
0000
0100
1000
0000
0000
,
1010
0000
0101
0000
0110
0000
1000
0000
1000
0001
0000
0001
,
0200
1000
0302
0010
,
2003
0100
3020
0001
,
2030
0100
3002
0010
,
2003
0010
3200
0001
,
2300
0001
3200
0001
,
0320
1000
0032
0100
,
2003
0010
3200
0001
,
0320
1000
0032
2000
,
0000
0000
0000
0000
,
0000
0000
0000
0000
,
3003
0000
0000
0000
;

//---------------dance-single - ----------------
#NOTEDATA:;
#CHARTNAME:;
#STEPSTYPE:dance-single;
#DESCRIPTION:;
#CHARTSTYLE:;
#DIFFICULTY:Edit;
#METER:16;
#RADARVALUES:0.693920,0.992264,0.000000,0.633149,0.796383,491.000000,491.000000,0.000000,64.000000,0.000000,0.000000,0.000000,0.000000,0.000000,0.693920,0.992264,0.000000,0.633149,0.796383,491.000000,491.000000,0.000000,64.000000,0.000000,0.000000,0.000000,0.000000,0.000000;
#CREDIT:Venom;
#NOTES:
// measure 0
0000
0000
0000
0000
,  // measure 1
0000
0000
0000
0000
,  // measure 2
0000
0000
0000
0000
,  // measure 3
0000
0000
0000
0000
,  // measure 4
0000
0000
0000
0000
0000
0000
0000
1000
,  // measure 5
2000
0100
0000
0001
0000
0010
0000
3002
,  // measure 6
0100
0100
0000
1000
0000
0010
0000
1000
,  // measure 7
1003
0010
1000
0001
0100
0001
1000
0100
1000
0001
0010
0001
,  // measure 8
1000
0100
0010
0001
0100
0010
2000
0001
3001
0020
0100
0130
,  // measure 9
1000
0000
0000
0200
0010
0000
0310
0000
0001
0000
0000
0200
0010
0000
0310
0000
,  // measure 10
1000
0000
0000
0020
0100
0000
0130
0000
0001
0000
0000
0020
0100
0000
0130
0000
,  // measure 11
1000
0000
0000
0002
0100
0000
0103
0000
0001
0000
0000
2000
0100
0000
3100
0000
,  // measure 12
1000
0000
0000
0002
0010
0000
0013
0000
0001
0000
0000
2000
0010
0000
3010
0000
,  // measure 13
1000
0000
0000
0100
0010
0000
0002
0000
1000
0000
0000
1003
0010
0000
0100
0000
,  // measure 14
0001
0000
0000
0010
0100
0000
2000
0000
0001
0000
0000
3001
0010
0000
0100
0000
,  // measure 15
1000
0000
0000
0010
0100
0000
0020
0000
0001
0000
0000
1030
0100
0000
0010
0000
,  // measure 16
0001
0100
0001
0100
0001
0100
0010
1000
0010
1000
0010
1000
,  // measure 17
0001
0000
0010
0100
2000
0000
0001
0000
3001
0000
1000
0100
0020
0000
0001
0000
,  // measure 18
0031
0000
1000
0010
0200
0000
0001
0000
0301
0000
1000
0100
0010
0000
0001
0000
,  // measure 19
1000
0000
0001
0100
0020
0000
1000
0000
1030
0000
0001
0010
0200
0000
1000
0000
,  // measure 20
1300
0000
0001
1000
0020
0000
0100
0000
0130
0000
0001
1000
0200
0000
0010
0000
,  // measure 21
0310
0001
1000
0100
0010
0001
1000
0010
0100
0001
1000
0001
,  // measure 22
0100
0000
0001
0000
1000
0000
0010
0000
1000
0000
0100
0000
0010
0000
0100
0000
1000
0000
0001
0100
0001
0100
0001
0100
,  // measure 23
0010
1000
0100
1000
0010
0100
0001
0010
0001
1000
0010
0100
,  // measure 24
0010
0000
1000
0000
0001
0000
0010
0000
0100
0000
1000
0000
0001
0100
0001
0100
0010
1000
0010
1000
0001
0010
0100
1000
,  // measure 25
0001
0000
0000
1000
0100
0000
0100
0000
0001
0000
0100
0000
1000
0020
0100
0000
,  // measure 26
1030
0000
0000
0001
0010
0000
0010
0000
1000
0000
0010
0000
0001
0200
0010
0000
,  // measure 27
0301
0000
0000
1000
0100
0000
0100
0000
1000
0000
0010
0000
1000
0200
0001
0000
,  // measure 28
1300
0000
0000
0001
0100
0000
0200
0000
0301
0000
0020
0000
0031
0200
1000
0000
,  // measure 29
0301
0000
0010
0000
0100
0000
0100
0000
1000
0000
0010
0000
0100
0002
1000
0000
,  // measure 30
1003
0000
0100
0000
0010
0000
0010
0000
0001
0000
0100
0000
0010
2000
0001
0000
,  // measure 31
3001
0000
0010
0000
0100
0000
0100
0000
1000
0000
0010
0000
0100
0020
0001
0000
,  // measure 32
2030
0000
3100
0000
0010
0000
0020
0000
0031
0000
0020
0000
0130
0020
1000
0000
,  // measure 33
0031
0000
0000
0000
1000
0000
0100
0000
0010
0000
0001
0200
0000
0000
1000
0000
,  // measure 34
0301
0000
0000
0000
0001
0000
0010
0000
0100
0000
1000
0020
0000
0000
0001
0000
,  // measure 35
1030
0000
0000
0000
1000
0000
0001
0000
0100
0000
0010
0200
0000
0000
1000
0000
,  // measure 36
0301
0000
0000
0000
0001
0000
1000
0000
0010
0000
0100
0020
0000
0000
0001
0000
,  // measure 37
1030
0000
0000
0000
0001
0000
0100
0000
0001
0000
1000
0002
0000
0000
0010
0000
,  // measure 38
1003
0000
0000
0000
0001
0000
1000
0000
0100
0000
1000
0002
0000
0000
0013
0000
,  // measure 39
0001
0000
0000
0000
1000
0000
0100
0000
1000
0000
0001
2000
0000
0000
0010
0000
,  // measure 40
3001
0000
0000
0000
1000
0000
0001
0000
0100
0000
0001
2000
0000
0000
0010
0000
,  // measure 41
3002
0000
0000
0000
0010
0000
0010
0000
0100
0000
1000
1000
0000
0000
0020
0000
,  // measure 42
0000
0000
0030
0000
0100
0000
0100
0000
0010
0000
1000
1000
0000
0000
0100
0000
,  // measure 43
2003
0000
0000
0000
0010
0000
0010
0000
0100
0000
0001
0001
0000
0000
0020
0000
,  // measure 44
0000
0000
0030
0000
0100
0000
0100
0000
0010
0000
0001
0001
0000
0000
0100
0000
,  // measure 45
3001
0010
0001
0010
0001
0010
0100
0000
1000
0000
0100
0000
1000
0000
0010
0000
1000
0000
0010
0000
0100
0000
0001
0000
,  // measure 46
0100
0000
0001
0000
0010
0000
0100
1000
0100
1000
0100
1000
0010
0000
0100
0000
0010
0000
0100
0001
0100
0001
0100
0001
,  // measure 47
0010
0000
0000
0000
0010
0100
0010
0100
1000
0000
0001
0000
1000
0000
0010
0000
0100
0000
0001
0000
0000
0000
0000
0000
,  // measure 48
1000
0000
0000
0000
0100
0000
0000
0000
0100
0000
0000
0000
1000
0010
1000
0010
1000
0010
0100
0001
0100
0001
0010
0100
,  // measure 49
1000
0000
0100
0020
0001
0000
0001
0000
0031
0000
0100
0020
1000
0000
1000
0000
,  // measure 50
1030
0000
0100
2000
0010
0000
0010
0000
3010
0000
0100
0002
0010
0000
0010
0000
,  // measure 51
0013
0000
0001
0020
0100
0000
0100
0000
0130
0000
1000
0020
0100
0000
0100
0000
,  // measure 52
0130
0000
0001
2000
0100
0000
0100
0000
3200
0000
1000
0000
1300
0000
0001
0000
,  // measure 53
1000
0000
0100
0010
0002
0000
1000
0000
1003
0000
0001
0010
0200
0000
1000
0000
,  // measure 54
1300
0000
0010
1000
0020
0000
0100
0000
0230
0000
0001
0000
0301
0000
0100
0000
,  // measure 55
0010
0000
1000
0100
0020
0000
0100
0000
0130
0000
1000
0010
0200
0000
0010
0000
,  // measure 56
0320
0000
1000
0000
1030
0000
0001
1000
0002
0000
0013
0100
0010
0000
0020
0000
,  // measure 57
0000
0000
0000
0000
,  // measure 58
0000
0000
0000
0000
,  // measure 59
0030
0000
0000
0000
;

//---------------dance-single - ----------------
#NOTEDATA:;
#CHARTNAME:;
#STEPSTYPE:dance-single;
#DESCRIPTION:;
#CHARTSTYLE:;
#DIFFICULTY:Hard;
#METER:14;
#RADARVALUES:0.617603,0.671237,0.108823,0.633149,0.549059,437.000000,426.000000,11.000000,64.000000,0.000000,0.000000,0.000000,0.000000,0.000000,0.617603,0.671237,0.108823,0.633149,0.549059,437.000000,426.000000,11.000000,64.000000,0.000000,0.000000,0.000000,0.000000,0.000000;
#CREDIT:Venom;
#NOTES:
0000
0000
0000
0000
,
0000
0000
0000
0000
,
0000
0000
0000
0000
,
0000
0000
0000
0000
,
0000
0000
0000
0000
0000
0000
0000
1000
,
0100
0020
0000
1000
0000
0001
0000
0031
,
0100
0020
0000
0001
0000
1000
0000
1030
,
0001
0010
0001
0010
0001
0010
0100
1000
0100
1000
0100
1000
,
0010
0100
0010
0100
0010
0100
0001
0000
0001
1000
0000
1000
,
0001
0000
0000
0001
0010
0000
0010
0000
0100
0000
0000
0100
2000
0000
0001
0000
,
3001
0000
0000
1000
0010
0000
0010
0000
0100
0000
0000
0100
0002
0000
1000
0000
,
1003
0000
0000
0001
0010
0000
0100
0000
1000
0000
0000
0010
0200
0000
1000
0000
,
0301
0000
0000
0001
0100
0000
0010
0000
1000
0000
0000
0100
0020
0000
1000
0000
,
0031
0000
0000
1000
0010
0000
0200
0000
1000
0000
0000
0000
0001
0000
0001
0000
,
0301
0000
0000
1000
0100
0000
0020
0000
1000
0000
0000
0000
0001
0000
0031
0000
,
1000
0000
0000
0010
0100
0000
0002
0000
0010
0000
0000
0000
1000
0000
1000
0000
,
1003
0100
1000
0100
1000
0100
0010
0001
0010
0001
0010
0001
,
2000
0010
3010
0100
0020
1000
1030
0100
,
2000
0010
3010
1000
0200
1000
1300
0000
,
0002
0010
0013
0100
0020
0001
0031
0100
,
0002
0010
0013
0001
0200
0001
0301
0000
,
1000
0000
1000
0010
0000
0010
0100
0000
0100
0001
0000
0001
,
0010
0000
0010
0100
0000
0100
1000
0000
1000
0002
0000
0000
,
0103
0000
0010
1000
0000
0001
0010
0000
0100
1000
0000
0001
,
1000
0000
0010
0100
0000
0001
2000
0000
0000
0010
0000
0000
,
3001
0000
0000
1000
0010
0000
0001
0000
1000
0000
0100
0000
0001
0020
0100
0000
,
0130
0000
0000
0001
0100
0000
1000
0000
0001
0000
0010
0000
1000
0020
0100
0000
,
0130
0000
0000
1000
0010
0000
0100
0000
1000
0000
0100
0000
0001
0020
0100
0000
,
0130
0000
0000
0010
0001
0000
0200
0000
1300
0000
0200
0000
0301
2000
0100
0000
,
3100
0000
0000
0100
0010
0000
0001
0000
0100
0000
0010
0000
1000
0002
0010
0000
,
0103
0000
0000
0100
0010
0000
1000
0000
0100
0000
0010
0000
0001
2000
0010
0000
,
3100
0000
0000
1000
0100
0000
0001
0000
1000
0000
0010
0000
0001
0020
0100
0000
,
0130
0000
0000
1000
0010
0000
0002
0000
1003
0000
0200
0000
0301
0200
0010
0000
,
0310
0000
0000
0000
1001
0000
0001
0000
1000
0000
0200
1000
0000
0300
1001
0000
,
0001
0000
0000
0000
1001
0000
0001
0000
0100
0000
0002
0010
0000
0000
0013
0100
,
0010
0000
0000
0000
1001
0000
1000
0000
0010
0000
0200
0001
0000
0300
1001
0000
,
0001
0000
0000
0000
1001
0000
1000
0000
0010
0000
2000
0100
0000
0000
3010
0100
,
0010
0000
0000
0000
0011
0000
1000
0000
0100
0000
0020
0001
0000
0030
1100
0000
,
0001
0000
0000
0000
0101
0000
1000
0000
0010
0000
0200
0001
0000
0000
0301
0100
,
0001
0000
0000
0000
1010
0000
1000
0000
0100
0000
2000
0010
0000
3000
1010
0000
,
1000
0000
0001
1000
0001
0000
0100
0000
0001
0000
0001
0000
1000
0000
1000
0000
,
0002
0000
0000
0000
0100
0000
0100
0000
1000
0000
0010
0010
0000
0000
2000
0000
,
0000
0000
3000
0000
0010
0000
0010
0000
1000
0000
0100
0100
0000
0000
1000
0000
,
2003
0000
0000
0000
0010
0000
0010
0000
0001
0000
0100
0100
0000
0000
0002
0000
,
0000
0000
0003
0000
0100
0000
0100
0000
0001
0000
0010
0010
0000
0000
0001
0000
,
3002
0000
0000
1003
0010
0100
0001
0010
0100
1000
0100
0010
,
0001
1000
0010
0200
0000
0000
0301
0010
0001
0020
0000
0000
,
0030
0000
0200
0000
1300
0010
1000
0010
1000
0001
0000
0000
,
0020
0000
0100
0000
0100
0000
0230
0000
0000
0000
0000
0000
,
1300
0000
0010
0001
1000
0000
0200
0000
0001
0000
0301
0010
1000
0000
0002
0000
,
0100
0000
0103
1000
0010
0000
0200
0000
0001
0000
0301
0010
1000
0000
0002
0000
,
0100
0000
0103
1000
0010
0000
0200
0000
1000
0000
1300
0001
0010
0000
2000
0000
,
0001
0000
3001
0010
1000
0000
0002
0000
0100
0000
0203
0000
1000
0000
2300
0000
,
3001
0000
0010
1000
0001
0000
0200
0000
1000
0000
1300
0010
0001
0000
2000
0000
,
0100
0000
3100
0001
0010
0000
0200
0000
1000
0000
1300
0010
0001
0000
2000
0000
,
0100
0000
3100
0001
0010
0000
0200
0000
0001
0000
0301
1000
0010
0000
0001
0000
,
1000
0000
0010
0100
0001
0000
0001
0010
0100
0000
0100
1000
0001
0000
0200
0020
,
0000
0000
0000
0000
,
0000
0000
0000
0000
,
0330
0000
0000
0000
;
