#TITLE:Clockwork Genesis;
#SUBTITLE:;
#ARTIST:Inspector K;
#TITLETRANSLIT:;
#SUBTITLETRANSLIT:;
#ARTISTTRANSLIT:;
#GENRE:;
#CREDIT:;
#BANNER:Clockwork Genesis.png;
#BACKGROUND:Clockwork Genesis-bg.png;
#LYRICSPATH:;
#CDTITLE:cdtitlesc2021.png;
#MUSIC:Clockwork Genesis.ogg;
#OFFSET:0.002000;
#SAMPLESTART:28.767998;
#SAMPLELENGTH:21.942856;
#SELECTABLE:YES;
#BPMS:0.000000=175.000000
;
#STOPS:160.000000=1.029000,
173.000000=1.029000,
234.000000=1.029000
;
#BGCHANGES:;
#KEYSOUNDS:;
#ATTACKS:;

//---------------dance-single - ----------------
#NOTES:
     dance-single:
     :
     Hard:
     16:
     0.773559,0.974868,0.668847,0.183246,0.710078,591.000000,518.000000,73.000000,20.000000,0.000000,0.000000,0.773559,0.974868,0.668847,0.183246,0.710078,591.000000,518.000000,73.000000,20.000000,0.000000,0.000000:
// measure 0
0000
0000
0000
0000
,  // measure 1
0000
0000
0000
0000
,  // measure 2
0000
0000
0000
0000
,  // measure 3
2001
0000
0200
3300
,  // measure 4
0011
0000
0010
0001
0000
0001
0000
2000
,  // measure 5
0000
0000
3010
0000
0100
0000
0010
0000
0100
0000
0010
0000
0100
0001
0100
0010
,  // measure 6
1000
0000
0100
0010
0000
0200
0000
0020
,  // measure 7
0000
0000
0330
0000
,  // measure 8
0011
0000
0001
1000
0000
1000
0000
0020
,  // measure 9
0000
0000
0130
0000
0010
0000
0100
0000
0010
0000
0100
0000
0010
0100
0001
0010
,  // measure 10
0100
0000
1000
0100
0000
0020
0000
0200
,  // measure 11
0000
0000
0000
0000
0330
0000
0000
0000
1000
0001
1000
0001
1000
0001
1000
0001
,  // measure 12
1000
0000
0001
0201
0000
0010
0000
0302
,  // measure 13
0000
0000
0013
0000
1000
0000
0010
0000
0001
0000
0100
0000
0010
1000
0001
0100
,  // measure 14
0010
0000
1000
0200
0000
0001
0000
1000
,  // measure 15
0000
0010
0000
0000
0300
0000
0000
0000
,  // measure 16
2100
0000
3010
0002
0000
0013
0000
2010
,  // measure 17
0000
0000
3001
0000
0010
0000
1000
0000
0010
0000
0001
0000
1000
0010
0100
0001
,  // measure 18
0010
0000
0100
0120
0000
0001
0000
0130
,  // measure 19
0000
0000
1000
0001
1000
0001
1000
0001
1000
0010
0100
0001
1000
0010
0100
0000
,  // measure 20
1001
0001
1000
0000
0000
0000
1001
1000
0001
0000
0000
0000
0010
0000
0010
0000
,  // measure 21
1001
0000
1000
0001
0000
0001
0010
0000
0100
0000
0000
0100
0000
0000
0010
0000
,  // measure 22
0000
0000
0100
0000
0000
1000
0000
0000
0010
0000
0000
0100
0000
0000
0010
1000
,  // measure 23
0001
0000
0010
0001
0000
0001
0100
0000
0010
0000
0000
1000
0000
0000
0001
0000
,  // measure 24
0000
0000
1000
0000
1000
0000
0001
0000
1000
0000
0001
0100
0000
0010
1000
0000
,  // measure 25
0100
0000
0010
0100
0000
0100
1000
0000
0001
0000
0000
0100
0000
0000
0010
0000
,  // measure 26
0000
0000
0010
0000
0010
0000
0010
0000
0100
0000
0000
0001
0000
0000
0010
0001
,  // measure 27
1000
0000
0001
0010
0000
0010
0100
0000
0000
0000
0010
0000
0100
0000
1000
0000
,  // measure 28
0000
0000
0010
0000
0010
0000
1000
0000
0001
0000
1000
0100
0000
0010
0001
0000
,  // measure 29
1200
0000
0000
0010
0000
0310
0000
0000
0110
0000
0000
0011
0000
0000
0101
0000
,  // measure 30
0000
0000
1001
0000
0000
1010
0000
0000
1001
0000
0000
0011
0000
0000
0010
0100
,  // measure 31
2000
0000
0000
0010
0000
3010
0000
0000
1010
0000
0000
0011
0000
0000
1001
0000
,  // measure 32
0000
0000
0001
0000
0001
0000
1000
0000
0001
0000
1000
0100
0000
0010
0001
0000
,  // measure 33
0021
0000
0000
0100
0000
0130
0000
0000
0110
0000
0000
1100
0000
0000
1001
0000
,  // measure 34
0000
0000
1000
0000
1000
0000
0010
0000
1010
0000
0000
0101
0000
0000
0001
1000
,  // measure 35
0100
0010
0100
0010
0100
0000
0110
0000
0000
0000
0010
0000
0001
0000
1001
0000
,  // measure 36
0000
0000
0001
0000
0011
0000
0001
0000
0011
0000
0001
0010
0000
0100
1000
0000
,  // measure 37
1001
0000
0000
0000
0000
0000
0000
0101
0000
0000
1010
0000
0000
0000
1100
0000
,  // measure 38
0110
0000
0000
0000
0000
0000
1001
0000
0000
0000
0000
0000
0000
0000
0001
1000
,  // measure 39
1001
0000
0000
0101
0000
0000
1010
0000
0000
0000
0000
0000
0010
0100
0000
0010
,  // measure 40
0100
0000
0001
0000
1001
0000
0000
0000
0000
0000
0000
1010
0000
0000
0101
0000
,  // measure 41
0000
0011
0110
0000
0000
1001
0000
0000
,  // measure 42
0000
0000
1000
0010
1010
0000
0000
1010
0000
0000
0101
0000
0000
0000
0000
0000
,  // measure 43
1000
0001
0000
1000
0100
0000
1000
0010
1000
0000
0100
0000
0010
0000
0001
0010
,  // measure 44
0000
0001
0000
0100
0010
0000
1000
0000
0100
0000
0010
0000
0100
0000
1000
0010
,  // measure 45
0000
0100
0000
0010
1000
0000
0001
0010
0100
0000
0010
0000
0001
0000
1000
0010
,  // measure 46
0000
0100
0000
0001
0010
0000
0100
0000
1100
0000
0000
0000
1000
0000
0001
0010
,  // measure 47
0100
0010
0000
0010
0001
0000
1000
0000
0010
0000
1000
0000
0100
0000
0010
0100
,  // measure 48
0000
1000
0000
0010
0100
0000
0001
0000
1000
0000
0010
0000
0100
0000
0010
0100
,  // measure 49
0000
0010
0000
1000
0100
0000
0010
0001
1000
0000
0100
0000
0010
0000
0100
1000
,  // measure 50
0000
0010
0000
0100
0001
0000
0010
0000
1100
0000
0000
0000
0000
0000
0000
0000
,  // measure 51
1000
0001
0010
0000
0001
1000
0010
0000
1001
0000
0000
0000
0000
0000
0101
0000
,  // measure 52
0000
0000
1010
0000
0000
0000
0001
0100
0101
0000
0000
0000
0000
0000
0110
0000
,  // measure 53
0000
0000
1010
0000
0000
0000
1000
0100
1100
0000
0000
0000
0000
0000
0011
0000
,  // measure 54
0000
0000
0110
0000
0000
0000
0001
1000
1001
0000
0000
0000
0000
0000
0000
0000
,  // measure 55
0000
0000
0000
0000
1010
0000
0000
0101
,  // measure 56
0000
0000
0011
0000
0000
0000
0010
0100
0110
0000
0000
0000
0000
0000
1100
0000
,  // measure 57
0000
0000
1010
0000
0000
0000
0100
0010
0110
0000
0000
0000
0000
0000
1010
0000
,  // measure 58
0000
0000
0110
0000
0000
0000
1000
0001
1001
0000
0000
0000
1000
0000
1000
0010
,  // measure 59
0000
0010
0100
0000
0010
0000
0000
1000
0000
0000
0100
0000
0000
0000
0010
0000
,  // measure 60
0000
0010
0000
0000
0100
0000
0000
0100
0000
0000
0100
0010
0001
0000
0010
0001
,  // measure 61
0000
0001
0100
0000
0010
0000
0000
1000
0000
0000
0001
0000
0000
0000
0010
0000
,  // measure 62
0010
0000
0100
0000
0010
0000
0100
0010
0000
0010
0001
0000
1000
0000
0001
0100
,  // measure 63
0000
0001
1000
0000
0100
0000
0000
0010
0000
0000
0100
0000
0000
0000
0010
0000
,  // measure 64
0010
0000
0010
0000
0001
0000
0000
1000
0000
0000
0010
1000
0100
0000
0010
0100
,  // measure 65
0000
0100
0010
0000
0000
0000
0010
0000
0001
0000
0100
0000
0000
0000
0100
0000
,  // measure 66
0100
0000
0010
0000
0100
0000
0010
0100
0000
0001
1000
0000
0001
0100
0001
0000
,  // measure 67
0100
0010
0100
0000
0010
1000
0010
0000
1000
0100
1000
0000
0100
0010
0100
0000
,  // measure 68
0010
0001
0010
0000
0001
0100
0001
0000
0100
0010
0100
0000
0001
1000
0010
0000
,  // measure 69
1000
0100
0010
0000
0100
1000
0010
0000
0100
0001
0010
0000
0100
0010
0001
0000
,  // measure 70
0001
0000
0001
0000
1000
0000
0010
1000
0000
0010
1000
0000
0001
0100
0010
0000
,  // measure 71
0100
0001
0010
0000
0010
0100
1000
0000
1000
0100
0010
0000
0010
0001
0100
0000
,  // measure 72
0100
0010
1000
0000
1000
0001
0010
0000
0010
0001
0100
0000
0010
1000
0100
0010
,  // measure 73
0001
0100
0010
1000
0010
0100
0001
1000
0001
0010
0100
0000
0000
0000
1100
0000
,  // measure 74
1000
0000
0001
0000
0101
0000
1000
0001
0000
0100
0010
2000
0002
0000
0000
0000
,  // measure 75
0000
0000
0000
0000
,  // measure 76
3003
0000
0000
0000
;

//---------------dance-single - ----------------
#NOTES:
     dance-single:
     :
     Easy:
     8:
     0.375654,0.487434,0.274869,0.091623,0.009162,287.000000,257.000000,30.000000,10.000000,0.000000,0.000000,0.375654,0.487434,0.274869,0.091623,0.009162,287.000000,257.000000,30.000000,10.000000,0.000000,0.000000:
0000
0000
0000
0000
,
0000
0000
0000
0000
,
0000
0000
0000
0000
,
2002
0000
0000
3003
,
0001
0000
1000
0001
0000
0010
0000
0001
,
0000
1000
0100
0010
,
0100
0000
1000
0010
0000
1000
0000
0001
,
0000
0000
0000
0000
,
0010
0000
0001
0010
0000
0001
0000
0100
,
0000
0010
0100
0001
,
1000
0000
0100
1000
0000
0001
0000
1000
,
0020
0000
0230
0000
,
0301
0000
0001
1000
0000
0010
0000
1000
,
0000
0010
1000
0000
0100
0000
0010
0000
,
0001
0000
0010
0001
0000
0100
0000
0010
,
0000
1000
0000
0000
0000
0000
0000
0000
,
0001
0000
0010
0001
0000
0001
0000
1000
,
0000
0001
1000
0000
0001
0000
0100
0000
,
0010
0000
1000
0010
0000
0010
0000
1000
,
0000
0100
0010
0000
0001
0000
1000
0000
,
1001
0000
0000
0110
0000
0000
1001
0000
,
0001
1000
0010
1000
,
0100
1000
0010
0100
,
0001
0010
1000
0010
,
0001
0001
1000
1000
,
0001
1000
0100
1000
,
0001
0010
0100
1000
,
0100
0001
0100
1000
,
0010
0010
0100
0010
,
1000
0010
0001
0010
,
0100
0001
0010
1000
,
0010
0001
0100
0001
,
1000
0100
0001
0100
,
1000
0010
1000
0001
,
0010
1000
0010
0001
,
0100
1000
0100
0001
,
0100
0010
1000
0001
,
1001
0000
0000
0000
0000
0000
0000
1000
0000
0000
0001
0000
0000
0000
0000
0000
,
1000
0000
0000
0010
0000
0000
0000
0000
,
1000
0000
0000
0100
0000
0000
0010
0000
,
1001
0000
0000
0000
0001
0000
0000
0000
0000
0000
0000
1000
0000
0000
0000
0000
,
0000
0000
0010
0000
0000
1000
0000
0000
,
0000
0000
0100
0000
0000
1000
0000
0000
,
0010
0101
0001
0010
,
0001
0100
0001
1000
,
0100
0010
0100
1000
,
0010
0100
2002
0000
,
0000
3003
0001
1000
,
0010
1000
0100
0010
,
0100
1000
0001
0100
,
0001
0010
0220
0000
,
0330
0000
0000
0000
1001
0000
0000
1100
,
0000
0011
0000
0101
0000
0000
0000
0011
,
0000
1010
0000
1001
0000
0000
0000
1100
,
0000
0011
0000
1001
0000
0000
0000
0000
,
0000
0000
0000
0000
1010
0000
0000
0101
,
0000
0011
0000
0101
0000
0000
0000
0101
,
0000
1100
0000
0011
0000
0000
0000
1001
,
0000
1010
0000
1001
0000
0000
0001
0000
,
1000
0010
1000
0100
,
0010
0100
1000
0010
,
1000
0001
0010
0100
,
0100
0010
0100
0010
,
0001
0100
0100
0001
,
1000
0100
0010
0100
,
1000
0001
1000
0010
,
1000
0010
1000
0001
,
0100
1000
0100
0001
,
0010
1000
0010
0001
,
0100
1000
0100
0001
,
0010
1000
0010
0001
,
0010
1000
0010
0001
,
0100
1000
0100
0001
,
0010
1000
0010
0100
,
0010
0001
1000
0220
,
0000
0000
0000
0000
,
0330
0000
0000
0000
;

//---------------dance-single - ----------------
#NOTES:
     dance-single:
     :
     Medium:
     13:
     0.541884,0.626701,0.311518,0.119110,0.297774,414.000000,380.000000,34.000000,13.000000,0.000000,0.000000,0.541884,0.626701,0.311518,0.119110,0.297774,414.000000,380.000000,34.000000,13.000000,0.000000,0.000000:
0000
0000
0000
0000
,
0000
0000
0000
0000
,
0000
0000
0000
0000
,
0220
0000
0000
0330
,
1001
0000
1000
0010
0000
1000
0000
0010
,
0000
1000
0010
0000
0100
0000
0001
0000
,
0010
0000
0100
0010
0000
0100
0000
0010
,
0000
0000
0000
0000
,
0100
0000
0100
1000
0000
0100
0000
1000
,
0000
0100
0010
0000
0001
0000
1000
0000
,
0010
0000
0100
0001
0000
1000
0000
0010
,
0200
0000
0000
0000
0310
1000
0010
1000
,
0010
0000
1000
0010
0000
0100
0000
0001
,
0000
0010
0100
0000
0010
0000
0001
0000
,
1000
0000
0001
0100
0000
1000
0000
0100
,
0000
0001
0000
0000
0000
0000
0000
0000
,
0010
0000
0100
0010
0000
0001
0000
1000
,
0000
0001
0010
0000
1000
0000
0010
0000
,
0001
0000
1000
0100
0000
0001
0000
1000
,
0000
0001
0010
0100
1000
0100
0010
0000
,
0001
1000
0001
0000
0000
0000
1000
0001
1000
0000
0000
0000
0001
0000
0001
0000
,
1000
0000
0000
0010
0000
1000
0000
0000
0010
0000
0000
0100
0000
0000
0001
0000
,
0000
0000
0010
0000
0000
0010
0000
0000
0100
0000
0000
0100
0000
0000
0010
0000
,
0001
0000
0000
0010
0000
0010
0000
0000
0100
0000
0000
1000
0000
0000
0100
0000
,
0000
0000
1000
0000
0100
0000
0010
0000
0001
0000
0000
0010
0000
0000
0100
0000
,
1000
0000
0000
0100
0000
0100
0000
0000
1000
0000
0000
0010
0000
0000
0100
0000
,
0000
0000
0001
0000
0001
0000
1000
0000
0001
0000
0000
1000
0000
0000
0001
0000
,
0100
0000
0000
0010
0000
0000
0100
0000
0000
0000
0100
0000
0010
0000
1000
0000
,
0000
0000
0001
0000
0010
0000
0100
0000
1000
0000
0100
1000
0000
1000
0001
0000
,
0100
0000
0000
0001
0000
0001
0000
0000
0010
0000
0000
0001
0000
0000
1100
0000
,
0000
0000
1000
0000
0000
1000
0000
0000
0010
0000
0000
0010
0000
0000
0100
0000
,
0001
0000
0000
0010
0000
0010
0000
0000
0001
0000
0000
1000
0000
0000
1010
0000
,
0000
0000
1000
0000
0001
0000
0010
0000
0100
0000
0000
0100
0000
0000
0010
0000
,
0001
0000
0000
0100
0000
0100
0000
0000
0010
0000
0000
1000
0000
0000
0101
0000
,
0000
0000
0001
0000
0010
0000
0010
0000
0001
0000
0000
1000
0000
0000
0100
0000
,
0010
0100
1000
0010
0000
0100
0010
1010
,
0000
0000
0001
0000
0001
0000
1000
0000
0001
0000
1000
0001
0000
0001
1000
0000
,
0110
0000
0000
0000
0000
0000
0000
1010
0000
0000
0101
0000
0000
0000
0001
0000
,
0001
0000
0000
0000
0000
0000
1100
0000
0000
0000
0000
0000
0000
0000
1000
0001
,
1000
0000
0000
0001
0000
0000
0001
0000
0000
0000
0000
0000
1000
0010
0000
0010
,
0100
0000
0010
0000
0110
0000
0000
0000
0000
0000
0000
0101
0000
0000
1010
0000
,
0000
1000
1000
0000
0000
0011
0000
0000
,
0000
0000
0001
1000
0001
0000
0000
1000
0000
0000
1000
0000
0000
0000
0000
0000
,
0001
0100
0000
0100
0010
0000
0000
0000
1000
0000
0100
0000
0010
0000
0000
0000
,
0200
0000
1300
0000
0100
1000
0010
0000
,
0200
0000
0301
0010
0100
0010
0001
0000
,
2000
3010
0201
0001
,
0001
0000
0301
0000
0100
0010
1000
0000
,
0002
0000
0013
0000
0100
0010
0001
0000
,
2000
0000
3010
0001
0010
1000
0001
0000
,
0020
0130
2002
0000
,
3003
0000
0000
0000
1001
0000
1000
1010
,
0000
0011
0000
1001
0000
0000
0100
1100
,
0000
0101
0000
1000
1100
0000
1000
1010
,
0000
0000
0011
0000
0000
0000
1000
0001
1000
0000
0000
0000
0000
0000
0000
0000
,
0000
0000
0000
0000
1001
0000
0001
0101
,
0000
1100
0000
1001
0000
0000
0010
0011
,
0000
1010
0000
0001
0011
0000
0001
0101
,
0000
0000
1100
0000
0000
0000
0001
1000
0001
0000
0000
0000
0100
0000
0000
0010
,
0000
0010
0000
0000
1000
0000
0000
0001
0000
0000
0010
0000
0000
0000
0100
0000
,
0000
0100
0000
0000
0010
0000
0000
0100
0000
0000
1000
0000
0001
0000
0000
0100
,
0000
0100
0000
0000
0010
0000
0000
1000
0000
0000
0001
0000
0000
0000
0010
0000
,
0001
0000
0100
0000
0010
0000
0000
1000
0000
0000
0001
0000
0010
0000
0000
0100
,
0000
0100
0000
0000
0010
0000
0000
0001
0000
0000
1000
0000
0000
0000
0010
0000
,
0010
0000
1000
0000
0010
0000
0000
0100
0000
0000
0001
0000
0010
0000
0000
0100
,
0000
0010
0000
0001
1000
0010
0000
0100
,
0100
0000
0010
0000
0100
0000
0010
0100
0000
0001
1000
0000
0100
0000
0010
0000
,
0001
0000
0010
0001
0100
0000
0010
1000
,
0001
0000
0010
0100
1000
0000
0100
1000
,
0010
0000
0100
0001
0010
0000
0100
0010
,
0001
0000
1000
0000
0010
0000
1000
0010
0000
0100
0001
0000
0010
0000
0100
0000
,
1000
0000
0100
1000
0010
0000
0100
0001
,
0010
0000
0100
0010
0001
0000
0010
0001
,
0100
1000
0000
0100
0010
1000
0000
0010
,
0100
0000
0001
0000
0010
0000
0100
1000
0000
1000
0010
0000
0200
0000
0000
0000
,
0000
0000
0000
0000
,
0300
0000
0000
0000
;

//---------------dance-single - ----------------
#NOTES:
     dance-single:
     :
     Beginner:
     5:
     0.140052,0.205464,0.064136,0.018325,0.000000,107.000000,100.000000,7.000000,2.000000,0.000000,0.000000,0.140052,0.205464,0.064136,0.018325,0.000000,107.000000,100.000000,7.000000,2.000000,0.000000,0.000000:
0000
0000
0000
0000
,
0000
0000
0000
0000
,
0000
0000
0000
0000
,
1001
0000
0010
0000
,
1000
0000
0000
0000
,
0001
0000
0000
0000
,
0010
0000
0000
0000
,
0001
0000
0000
0000
,
1000
0000
0000
0000
,
0010
0000
0000
0000
,
1000
0000
0000
0000
,
0110
0000
0002
0000
,
1003
0000
0000
0000
,
0010
0000
0000
0000
,
1000
0000
0000
0000
,
0100
0000
0000
0000
,
0010
0000
0000
0000
,
0100
0000
0000
0000
,
1000
0000
0000
0000
,
0001
0000
0000
0000
,
1000
0000
0000
1000
0000
0000
1000
0000
,
0001
0000
1000
0000
,
0010
0000
0000
0000
,
1000
0000
0100
0000
,
1000
0000
0000
0000
,
0010
0000
0100
0000
,
0001
0000
0000
0000
,
0010
0000
0001
0000
,
1000
0000
0000
0000
,
0001
0000
1000
0000
,
0010
0000
0000
0000
,
1000
0000
0100
0000
,
1000
0000
0000
0000
,
0001
0000
0100
0000
,
0001
0000
0000
0000
,
0010
0000
0001
0000
,
1000
0000
0001
0000
,
0110
0000
0000
0000
,
0010
0000
0000
0000
,
0100
0000
0000
0000
,
0001
1000
0000
0000
,
0000
0010
0000
0000
,
0000
1000
0000
0000
,
0000
0100
0010
0000
,
0000
0000
0001
0000
,
0000
0000
1000
0000
,
0000
0000
0020
0000
,
0000
0030
0100
0000
,
0000
0000
0010
0000
,
0000
0000
1000
0000
,
0000
0000
1001
0000
,
0000
0000
0001
0000
,
0000
0000
1000
0000
,
0000
0000
0010
0000
,
0000
0000
0110
0000
,
0000
0000
0100
0000
,
0000
0000
0010
0000
,
0000
0000
1000
0000
,
0000
0000
1001
0010
,
0000
1000
0000
0001
,
0000
0000
0000
1000
,
0000
0001
0000
0010
,
0000
0000
0000
0100
,
0000
0010
0000
0001
,
0000
0000
0000
1000
,
0000
0010
0000
0100
,
0000
0000
0000
0010
,
0000
1000
0000
0100
,
0000
1000
0000
0001
,
0000
0100
0000
0001
,
0000
0010
0000
0001
,
0000
1000
0000
0100
,
0000
1000
0000
0010
,
0000
0100
0000
0010
,
0000
1000
0000
1001
;
