#TITLE:チョウの標本;
#SUBTITLE:;
#ARTIST:Process 2.3.1.;
#TITLETRANSLIT:Cho no Hyohon;
#SUBTITLETRANSLIT:;
#ARTISTTRANSLIT:;
#GENRE:Variety;
#CREDIT:;
#BANNER:Cho no Hyohon.png;
#BACKGROUND:Cho no Hyohon-bg.png;
#LYRICSPATH:;
#CDTITLE:cdtitle.png;
#MUSIC:Cho no Hyohon.ogg;
#OFFSET:0.000000;
#SAMPLESTART:45.162998;
#SAMPLELENGTH:15.000000;
#SELECTABLE:YES;
#DISPLAYBPM:170.000000;
#BPMS:0.000000=170.000000
;
#STOPS:
;
#BGCHANGES:;
#KEYSOUNDS:;
#ATTACKS:;

//---------------dance-single - ----------------
#NOTES:
     dance-single:
     :
     Easy:
     6:
     0.251135,0.339188,0.036472,0.000000,0.000000,241.000000,236.000000,5.000000,0.000000,0.000000,0.000000,0.251135,0.339188,0.036472,0.000000,0.000000,241.000000,236.000000,5.000000,0.000000,0.000000,0.000000:
0000
0000
0000
0000
,
0000
0000
0000
0000
,
0000
0000
0000
0000
,
0000
0000
0000
0000
,
0000
0000
0000
0000
,
0000
0000
0000
0000
,
0000
0000
0000
0000
,
0000
0000
0000
0000
,
1000
0010
1000
0000
,
0001
0010
0100
0000
,
1000
0001
1000
0000
,
0100
0010
0100
0000
,
1000
0010
0100
0000
,
0001
0010
0001
0000
,
0100
0010
1000
0000
,
0001
0001
1000
0000
,
0100
0010
0100
0010
,
0001
1000
0001
1000
,
0001
0010
1001
0000
,
1000
0010
1000
0000
,
0001
0100
0001
0010
,
0100
0010
0001
1000
,
0010
0100
0010
1000
,
0001
0010
0100
0000
,
1000
0001
1000
0001
,
0010
0100
0010
0100
,
1000
0010
1001
0000
,
0001
0100
0001
0000
,
1000
0100
0010
0100
,
1000
0010
0100
0001
,
1000
0001
0100
0010
,
1000
1000
0001
0000
,
1000
0000
0000
0001
0001
0000
1000
0000
,
0010
1000
0001
0010
,
0100
0000
0000
1000
1000
0000
0001
0000
,
1000
0001
0010
0100
,
0010
0000
0000
0001
0001
0000
1000
0000
,
0100
0010
0001
1000
,
0010
0000
0000
0100
0100
0000
0010
0000
,
1000
0001
0100
0010
,
1000
0000
0000
0001
0001
0000
0010
0000
,
0100
1000
0001
0100
,
0001
0000
0000
0010
0010
0000
0100
0000
,
0010
0001
1000
0010
,
0100
0000
0000
0010
0010
0000
1000
0000
,
0100
0010
0100
1000
,
0010
0001
0010
1000
,
0100
0001
0100
1000
,
0001
0000
0000
0000
,
0000
0000
0000
0000
,
0000
0000
0000
0000
,
0000
0000
0000
0000
,
1001
0000
0000
0000
,
0000
0000
0000
0000
,
0000
0000
0000
0000
,
0000
0000
0000
0000
,
0000
0000
1000
0000
,
0000
0000
0000
0000
,
0000
0000
0000
0000
,
0000
0000
0000
0000
,
0000
0000
0001
0000
,
0000
0000
0000
0000
,
0100
0010
0100
0000
,
0000
0000
0000
0000
,
0001
1000
0100
0000
,
0000
0000
0000
0000
,
0010
0001
0010
0000
,
0000
0000
0000
0000
,
0100
0010
0001
1000
,
0001
1000
0010
0100
,
0001
0100
0010
1000
,
0100
0010
0001
1000
,
0100
1000
0001
0100
,
0001
0010
0100
1000
,
0010
0100
0010
1000
,
1001
0000
0100
0010
,
0110
0000
1000
0001
,
0010
0100
0010
0000
0001
0000
0000
0000
,
1000
0001
1000
0010
,
0100
0010
0100
0000
0010
0000
0000
0000
,
1000
0100
0010
0001
,
0100
0000
0000
0000
0001
0010
0001
0000
,
1000
0010
1000
0001
,
0001
0000
0100
0100
,
0010
0010
1000
0000
,
0001
0000
0000
0000
,
0010
0000
0000
0000
,
0100
0000
0000
0000
,
1000
0000
0001
0000
,
0000
0100
0000
0000
,
0010
0100
0010
0000
,
0000
1000
0000
0000
,
0001
1000
0000
0000
,
0001
0000
0000
0000
;

//---------------dance-single - ----------------
#NOTES:
     dance-single:
     :
     Medium:
     10:
     0.350130,0.474864,0.072944,0.000000,0.000000,336.000000,326.000000,10.000000,0.000000,0.000000,0.000000,0.350130,0.474864,0.072944,0.000000,0.000000,336.000000,326.000000,10.000000,0.000000,0.000000,0.000000:
0000
0000
0000
0000
,
0000
0000
0000
0000
,
0000
0000
0000
0000
,
0000
0000
0000
0000
,
0000
0000
0000
0000
,
0000
0000
0000
0000
,
0000
0000
0000
0000
,
0000
0000
0000
0000
,
1000
0001
0100
0001
,
1000
0000
0001
0000
0100
0000
0010
0001
,
0010
0000
1000
0000
0001
0010
0001
0000
,
1000
0100
0010
0001
,
1000
0001
0100
0001
,
0010
0000
0100
0000
1000
0000
0010
0100
,
0001
0000
0010
0000
0001
0100
0010
0000
,
1000
0000
1000
0000
0001
0010
0001
0000
,
1000
0000
0001
0000
0010
0100
1000
0000
,
0001
0000
0100
0000
0001
0000
0100
0010
,
0100
0000
0001
0000
1000
0010
0100
0000
,
0001
0100
0001
0010
,
0100
0000
1000
0100
0010
0000
0001
0000
,
0100
0000
0001
0000
0010
0000
0100
1000
,
0100
0000
1000
0000
0001
0100
0001
0000
,
0100
0010
0100
0010
,
1000
0000
0010
0100
0001
0000
0010
0000
,
0001
0000
0100
0000
0010
0000
1000
0001
,
1000
0000
0100
0000
0010
0001
0010
0000
,
0001
0100
0001
0010
,
0100
0000
1000
0100
0010
0000
0001
0000
,
1000
0000
0100
0000
1000
0000
0001
1000
,
0001
0000
0100
0000
0010
1000
0010
0000
,
0100
0100
0010
0010
,
1000
0000
0100
0011
0000
0000
0001
0000
,
1000
0000
0010
1000
0010
0000
1000
0000
,
0100
0000
0010
0101
0000
0000
0001
0000
,
0010
0000
0100
0000
1000
0100
1000
0000
,
1000
0000
0001
0110
0000
0000
1000
0000
,
0001
0000
0100
0000
0010
0100
0010
0000
,
1000
0000
0100
1010
0000
0000
1000
0000
,
0100
0000
0010
0000
0001
1000
0001
0000
,
0100
0000
0010
1001
0000
0000
0100
0000
,
0010
0000
1000
0000
0010
0100
0010
0000
,
1000
0000
0001
0101
0000
0000
1000
0000
,
0100
0000
0010
0000
0001
0010
0001
0000
,
1000
0000
0010
1100
0000
0000
0001
0000
,
0010
0000
0100
0000
1000
0001
1000
0000
,
0010
0000
0100
0001
0100
0000
0010
1000
,
0010
0000
1000
0100
0010
0000
0001
0010
,
0100
0000
0000
0000
,
0000
0000
0000
0000
,
0000
0000
0000
0000
,
0000
0000
0000
0000
,
0110
0000
0000
0000
,
0000
0000
0000
0000
,
0000
0000
0000
0000
,
0000
0000
0000
0000
,
0000
0000
0100
0000
,
0000
0000
0000
0000
,
0000
0000
0000
0000
,
0000
0000
0000
0000
,
0000
0000
0000
0000
1001
0000
0000
0001
,
0000
0000
1000
0000
0000
0010
0000
0000
,
0100
0000
0010
0000
0100
0000
0000
0001
,
0000
0000
1000
0000
0000
0100
0000
0000
,
0010
0000
0100
0000
0110
0000
0000
0010
,
0000
0000
0100
0000
0000
0001
0000
0000
,
1000
0000
0001
0000
0100
0000
0000
0010
,
0000
0000
0100
0000
0000
0010
0000
0000
,
1000
0000
0001
0000
1000
0000
0001
0100
,
0001
0000
0010
0000
0100
0000
1000
0001
,
1000
0000
0010
0000
0100
0000
0010
1000
,
0010
0000
1000
0000
0100
0000
0010
0001
,
0010
0000
0100
0000
1000
0000
0001
1000
,
0001
0000
0100
0000
0010
0000
0100
0001
,
0100
0000
0010
0000
1000
0010
0001
0000
,
0001
0010
1000
0000
0001
0000
0100
0010
,
0100
0000
0010
1000
0001
0000
1000
0100
,
0010
0000
0001
0000
0100
0010
1000
0010
,
0100
0000
0001
0010
0100
0000
1000
0010
,
0100
0000
0001
0000
0100
0001
0100
0010
,
0100
0000
0010
1000
0001
0000
0001
0010
,
0001
0000
1000
0000
0001
0100
0001
0010
,
0100
0000
1000
0010
1000
0100
0001
0000
,
0001
0100
1000
0000
0001
0000
0100
0000
,
0010
1000
0001
0010
,
0001
0000
0000
0000
,
0010
0100
0010
0001
,
0100
0000
0000
0000
,
0001
0000
1000
0000
0001
0000
0000
1000
,
0000
0000
0001
0000
0000
0010
0000
0000
,
0100
0000
1000
0000
0001
0000
0000
0100
,
0000
0000
0010
0000
0000
1000
0000
0000
,
0001
1000
0000
0000
,
0001
0000
0000
0000
;

//---------------dance-single - ----------------
#NOTES:
     dance-single:
     :
     Hard:
     13:
     0.498101,0.576620,0.124004,0.000000,0.000000,478.000000,461.000000,17.000000,0.000000,0.000000,0.000000,0.498101,0.576620,0.124004,0.000000,0.000000,478.000000,461.000000,17.000000,0.000000,0.000000,0.000000:
// measure 0
0000
0000
0000
0000
,  // measure 1
0000
0000
0000
0000
,  // measure 2
0000
0000
0000
0000
,  // measure 3
0000
0000
0000
0000
,  // measure 4
0000
0000
0000
0000
,  // measure 5
0000
0000
0000
0000
,  // measure 6
0000
0000
0000
0000
,  // measure 7
0000
0000
0000
0000
,  // measure 8
0001
1000
0001
0010
0100
0010
0001
0000
,  // measure 9
1000
0100
0010
0001
0100
0010
0100
0000
,  // measure 10
0001
0100
0001
1000
0001
0100
0010
0000
,  // measure 11
1000
0001
1000
0010
1000
0100
0010
0000
,  // measure 12
0001
0010
0100
0010
0001
1000
0001
0000
,  // measure 13
1000
0100
1000
0001
0010
0001
0100
0000
,  // measure 14
0010
0100
0010
1000
0001
1000
0001
0000
,  // measure 15
1000
0000
1000
0000
0001
0100
0010
1000
,  // measure 16
0001
0010
0100
1000
0001
1000
0010
0000
,  // measure 17
1000
0010
1000
0001
0100
0001
0010
0000
,  // measure 18
0100
0010
0100
1000
0100
0010
0001
0000
,  // measure 19
0100
0001
0100
0010
0100
0010
1000
0000
,  // measure 20
0001
0010
0100
1000
0001
0100
0001
0000
,  // measure 21
1000
0010
1000
0001
0100
0001
0010
0000
,  // measure 22
0100
1000
0100
0010
0001
0100
0001
0000
,  // measure 23
0100
0010
1000
0010
0100
0001
0010
0000
,  // measure 24
0100
1000
0100
0010
0100
1000
0001
0000
,  // measure 25
1000
0010
0100
0001
1000
0001
1000
0000
,  // measure 26
0010
0100
0001
0010
0100
1000
0001
0000
,  // measure 27
1000
0010
1000
0001
0100
0010
1000
0000
,  // measure 28
0001
0010
0001
0010
0100
0010
0001
0000
,  // measure 29
1000
0001
0100
0010
1000
0001
0100
0000
,  // measure 30
0010
1000
0001
1000
0010
0100
0001
0000
,  // measure 31
0010
0010
0100
0100
,  // measure 32
1000
1000
0001
0010
1000
0010
0001
0000
,  // measure 33
1000
0001
0100
0001
1000
0100
0010
0001
,  // measure 34
1000
1000
0001
0010
1000
0010
0001
0000
,  // measure 35
1000
0100
0010
0001
0100
0001
1000
0001
,  // measure 36
1000
1000
0001
0100
1000
0100
0001
0000
,  // measure 37
1000
0010
1000
0100
1000
0100
0010
0001
,  // measure 38
1000
1000
0001
0100
1000
0100
0001
0000
,  // measure 39
0100
0001
0010
0001
0100
0010
1000
0001
,  // measure 40
1000
1000
0010
1000
0010
0001
0010
0000
,  // measure 41
1000
0100
0001
0100
1000
0001
1000
0000
,  // measure 42
0001
0001
0100
0001
0100
1000
0100
0000
,  // measure 43
0001
0010
1000
0010
0001
1000
0001
0000
,  // measure 44
0010
0100
1000
0100
0010
0000
0001
0100
,  // measure 45
1000
0000
1000
0100
0001
0000
0010
1000
,  // measure 46
0001
0100
1000
0001
0010
1000
0001
0100
,  // measure 47
1000
0011
1001
1010
,  // measure 48
1001
0000
0000
0000
,  // measure 49
0000
0000
0000
0000
,  // measure 50
0000
0000
0000
0000
,  // measure 51
0000
0000
0000
0000
,  // measure 52
0110
0000
0000
0000
,  // measure 53
0000
0000
0000
0000
,  // measure 54
0000
0000
0000
0000
,  // measure 55
0000
0000
0000
0000
,  // measure 56
0000
0000
1000
0000
,  // measure 57
0000
0000
0000
0000
,  // measure 58
0000
0000
0000
0000
,  // measure 59
0000
0000
0000
0000
,  // measure 60
0000
0000
0000
0000
1001
0000
0000
0001
,  // measure 61
0000
0000
0010
0000
0000
0100
0000
0000
,  // measure 62
1000
0000
0001
0000
0100
0000
0000
0010
,  // measure 63
0000
0000
1000
0000
0000
0100
0000
0000
,  // measure 64
1000
0000
0001
0000
1001
0000
0000
1000
,  // measure 65
0000
0000
0100
0000
0000
0010
0000
0000
,  // measure 66
0001
0000
1000
0000
0010
0000
0000
1000
,  // measure 67
0000
0000
0001
0000
0000
0100
0000
0000
,  // measure 68
0010
0000
0100
0000
0001
0010
0100
1000
,  // measure 69
0001
1000
0010
0100
0001
0010
0100
1000
,  // measure 70
0010
0100
0001
0010
0100
1000
0010
1000
,  // measure 71
0001
0100
0001
0010
0100
1000
0010
0100
,  // measure 72
0001
0010
0100
0010
0001
1000
0010
0100
,  // measure 73
0001
0010
0100
1000
0010
0100
0001
0010
,  // measure 74
0100
1000
0001
0100
0001
1000
0010
0001
,  // measure 75
0010
1000
0100
0010
0001
0100
0010
1000
,  // measure 76
0100
0010
0001
1000
0001
0000
0010
0100
,  // measure 77
1000
0100
0010
0001
1000
0010
0100
0001
,  // measure 78
0010
1000
0010
0001
0100
1000
0001
0010
,  // measure 79
1000
0001
0100
1000
0001
0010
1000
0001
,  // measure 80
0100
1000
0100
0001
0010
0000
0001
1000
,  // measure 81
0100
0001
0100
0010
0100
1000
0010
0001
,  // measure 82
0010
1000
0100
0001
1000
0010
0001
1000
,  // measure 83
0100
0001
1000
0010
0001
0000
0110
0000
,  // measure 84
0101
0011
1001
1000
,  // measure 85
0001
0100
0001
0010
0001
0000
1000
0000
,  // measure 86
0010
0000
0100
0010
0100
0000
0001
0000
,  // measure 87
1000
0000
0100
1000
0001
0000
0010
0000
,  // measure 88
0001
1000
0010
1000
0001
0000
0000
1000
,  // measure 89
0000
0000
0001
0000
0000
1000
0000
0000
,  // measure 90
0100
0000
0010
0000
1001
0000
0000
0011
,  // measure 91
0000
0000
1010
0000
0000
1100
0000
0000
,  // measure 92
0110
1001
0000
0000
,  // measure 93
0100
0000
0000
0000
;
