#VERSION:0.83;
#TITLE:Chick Chick;
#SUBTITLE:;
#ARTIST:Wang Rong Rollin;
#TITLETRANSLIT:;
#SUBTITLETRANSLIT:;
#ARTISTTRANSLIT:;
#GENRE:;
#ORIGIN:;
#CREDIT:;
#BANNER:Chick Chick.png;
#BACKGROUND:Chick Chick-bg.png;
#PREVIEWVID:;
#JACKET:Chick Chick-jacket.png;
#CDIMAGE:;
#DISCIMAGE:;
#LYRICSPATH:;
#CDTITLE:;
#MUSIC:Chick Chick.ogg;
#OFFSET:1.876000;
#SAMPLESTART:46.874001;
#SAMPLELENGTH:15.000000;
#SELECTABLE:YES;
#BPMS:0.000=128.000;
#STOPS:;
#DELAYS:;
#WARPS:;
#TIMESIGNATURES:0.000=4=4;
#TICKCOUNTS:0.000=4;
#COMBOS:0.000=1;
#SPEEDS:0.000=1.000=0.000=0;
#SCROLLS:0.000=1.000;
#FAKES:;
#LABELS:0.000=Song Start;
#BGCHANGES:;
#KEYSOUNDS:;
#ATTACKS:
;

//---------------dance-single - ----------------
#NOTEDATA:;
#CHARTNAME:;
#STEPSTYPE:dance-single;
#DESCRIPTION:;
#CHARTSTYLE:;
#DIFFICULTY:Challenge;
#METER:14;
#RADARVALUES:0.651484,0.673913,0.571981,0.417391,0.270531,590.000000,516.000000,74.000000,54.000000,0.000000,0.000000,0.000000,0.000000,0.000000,0.651484,0.673913,0.571981,0.417391,0.270531,590.000000,516.000000,74.000000,54.000000,0.000000,0.000000,0.000000,0.000000,0.000000;
#CREDIT:;
#NOTES:
// measure 0
0000
0000
0000
0000
,  // measure 1
0000
0000
0000
0000
,  // measure 2
0001
0000
0000
0000
1000
0000
0000
0000
0100
0000
0000
0100
0000
0000
0000
0000
,  // measure 3
1000
0001
0100
1000
0100
0001
0010
0100
,  // measure 4
1000
0000
0000
0000
0001
0000
0000
0000
0100
0000
0000
0100
0000
0000
0000
0000
,  // measure 5
0001
0000
0000
1000
0000
0000
0100
0000
0000
0001
0000
0000
0100
0000
0000
1000
0000
0001
1000
0000
0000
0010
0000
0000
,  // measure 6
0100
0000
0000
0001
0000
0000
1000
0000
0000
0100
0000
0000
0001
0000
0000
0100
0000
1000
0001
0000
0000
1001
0000
0000
,  // measure 7
1000
0000
0000
0000
0000
0000
0001
0000
0000
0000
0000
0000
0100
0000
0000
0000
0000
0000
1000
0000
0000
0000
0000
0000
0100
0000
0000
0000
0000
0000
0001
0000
0000
0000
1000
0000
0001
0000
0000
0100
0000
0000
0001
0000
0000
0000
0000
0000
,  // measure 8
1000
0000
0000
0010
0000
0000
0001
0000
0000
0100
0000
0000
1000
0000
0000
0010
0000
1000
0001
0000
0000
0011
0000
0000
,  // measure 9
1000
0010
0100
0001
2000
0000
3100
0000
,  // measure 10
1000
1100
0100
0110
0010
0011
0001
0101
,  // measure 11
0100
0110
0010
1010
1000
1000
1001
0000
,  // measure 12
0001
0101
0100
0110
0010
1010
1000
1100
,  // measure 13
0100
0110
0010
0011
0001
0001
1001
0000
,  // measure 14
1000
1100
0100
0110
0010
0011
0001
0101
,  // measure 15
0100
0110
0010
1010
1000
1000
1001
0000
,  // measure 16
0001
0101
0100
0110
0010
1010
1000
1100
,  // measure 17
2200
3300
0202
0303
1100
0101
1100
0000
,  // measure 18
0001
0011
0010
0110
0100
1100
1000
1010
,  // measure 19
0010
0110
0100
0101
0001
0001
1001
0000
,  // measure 20
1000
1010
0010
0110
0100
0101
0001
0011
,  // measure 21
0010
0110
0100
1100
1000
1000
1001
0000
,  // measure 22
1000
1100
0100
0110
0010
0011
0001
1001
,  // measure 23
1000
1010
0010
0110
0100
0100
0101
0000
,  // measure 24
0001
0011
1000
1010
0001
0101
1000
1100
,  // measure 25
0100
1000
0100
1000
0010
0000
0100
0000
0220
0000
0000
0000
0330
0000
0000
0000
,  // measure 26
0002
0000
0003
0000
0002
0000
0003
0000
0200
0000
0000
0301
0010
0000
0100
0000
,  // measure 27
1000
1000
0010
0010
0200
0000
0310
1000
,  // measure 28
0002
0000
0000
0013
0001
0000
0100
0000
1000
0000
0100
0000
0020
0000
0000
0000
,  // measure 29
2030
0000
0000
3100
1000
0000
0010
0000
0200
0000
0000
0000
0302
0000
0000
0000
,  // measure 30
2003
0000
3000
0000
2000
0000
3000
0000
0200
0000
0000
1300
0010
0000
0100
0000
,  // measure 31
0001
0001
0010
0010
0200
0000
0310
0001
,  // measure 32
1000
0000
0010
0100
0001
0000
0010
0100
1000
0000
0001
0100
1000
0000
0100
0000
,  // measure 33
0001
0000
0010
0100
1000
0000
0010
0100
0001
0000
0010
0000
0020
0000
0030
0000
,  // measure 34
0100
0000
1000
0000
0010
0000
0100
0010
0100
0000
0001
1000
0001
1000
0010
0000
,  // measure 35
0100
0000
0001
0000
0010
0000
0100
0010
0100
0000
1000
0000
2002
0000
3003
0000
,  // measure 36
0001
0000
1000
0000
0010
0100
0010
0000
1000
0000
0001
0000
0010
0100
0010
0000
,  // measure 37
0001
0000
0100
0000
1000
0000
0001
0000
0010
0000
1000
0000
0001
1000
0001
0000
,  // measure 38
0020
0000
0001
0032
0000
0100
0103
0000
,  // measure 39
0020
0000
0000
0130
0010
0000
2000
0000
0000
0000
0100
0000
3100
0000
0000
0000
,  // measure 40
1000
0000
0100
0000
0010
0000
1000
0000
0001
0100
1000
0000
0000
0000
0000
0000
,  // measure 41
0001
0000
0100
0000
0010
0000
0001
0000
1000
0100
0001
0000
0000
0000
0000
0000
,  // measure 42
0101
0000
1100
0101
0000
1100
0101
0000
,  // measure 43
2000
0000
0000
3000
,  // measure 44
0100
0000
0100
0000
1000
0001
1000
0000
0010
0000
0010
0000
1000
0001
1000
0000
,  // measure 45
0100
0000
1000
0001
1000
0000
0001
1000
0100
0000
0100
0000
1000
0001
1000
0000
,  // measure 46
2020
3030
0011
2020
3030
0011
2020
3030
,  // measure 47
0202
0000
0303
0000
1100
0000
0202
0000
0000
0303
2000
0000
0000
0000
3000
0000
,  // measure 48
0001
0000
0100
0000
0010
0000
0001
0000
1000
0100
0001
0000
0000
0000
0000
0000
,  // measure 49
1000
0000
0010
0000
0100
0000
1000
0000
0001
0010
1000
0000
0000
0000
0000
0000
,  // measure 50
0002
0103
2000
3100
,  // measure 51
0100
1000
0100
1000
0001
0000
0100
0000
0220
0000
0000
0000
0330
0000
0000
0000
,  // measure 52
0002
0000
0000
0013
0001
0000
0100
0000
0010
0000
1000
0100
1000
0000
0010
0000
,  // measure 53
1000
0000
1000
0000
0001
0000
0001
0000
0010
0000
0001
0100
0001
0000
1000
0000
,  // measure 54
0002
0000
0000
0013
0001
0000
0100
0000
0010
0000
1000
0000
0100
0000
0010
0000
,  // measure 55
0002
0000
0000
0013
0001
0000
0100
0000
0010
0000
0010
0000
1000
0000
0000
0000
,  // measure 56
2000
0000
0000
3100
1000
0000
0010
0000
0100
0000
0001
0010
0001
0000
0100
0000
,  // measure 57
0001
0000
0001
0000
1000
0000
1000
0000
0100
0000
1000
0010
1000
0000
0001
0000
,  // measure 58
0010
0000
0001
0100
0010
0000
1000
0100
0010
0000
0001
0100
0010
0000
1000
0010
,  // measure 59
0100
0000
0001
0010
0100
0000
1000
0010
0100
0000
0100
0000
0010
1000
0001
0010
,  // measure 60
0002
0000
0000
0103
0001
0000
0010
0000
0100
0000
1000
0010
1000
0000
0100
0000
,  // measure 61
1000
0000
1000
0000
0001
0000
0001
0000
0100
0000
0001
0010
0001
0000
1000
0000
,  // measure 62
0002
0000
0000
0103
0001
0000
0010
0000
0100
0000
1000
0000
0010
0000
0100
0000
,  // measure 63
0002
0000
0000
0103
0001
0000
0010
0000
0100
0000
0100
0000
1000
0000
0001
0000
,  // measure 64
2000
0000
0000
3010
1000
0000
0100
0000
0010
0000
0001
0100
0001
0000
0010
0000
,  // measure 65
0001
0000
0001
0000
1000
0000
1000
0000
0010
0000
1000
0100
1000
0000
0001
0000
,  // measure 66
0100
0000
0001
0010
0100
0000
1000
0010
0100
0000
0001
0010
0100
0000
1000
0100
,  // measure 67
0010
0000
0001
0100
0010
0000
1000
0100
0010
0000
0010
0000
0100
1000
0001
0100
,  // measure 68
2000
0000
0000
0000
0000
0000
0000
0000
0000
0000
3000
0000
0100
0001
1000
0000
,  // measure 69
2002
0000
0000
3003
;
