#VERSION:0.83;
#TITLE:Chelsea;
#SUBTITLE:;
#ARTIST:7mai;
#TITLETRANSLIT:;
#SUBTITLETRANSLIT:;
#ARTISTTRANSLIT:;
#GENRE:;
#ORIGIN:;
#CREDIT:;
#BANNER:Chelsea.png;
#BACKGROUND:Chelsea-bg.png;
#PREVIEWVID:;
#JACKET:Chelsea-jacket.png;
#CDIMAGE:;
#DISCIMAGE:;
#LYRICSPATH:;
#CDTITLE:;
#MUSIC:Chelsea.ogg;
#OFFSET:-1.191233;
#SAMPLESTART:75.665016;
#SAMPLELENGTH:15.000000;
#SELECTABLE:YES;
#BPMS:0.000=174.000;
#STOPS:;
#DELAYS:;
#WARPS:;
#TIMESIGNATURES:0.000=4=4;
#TICKCOUNTS:0.000=4;
#COMBOS:0.000=1;
#SPEEDS:0.000=1.000=0.000=0;
#SCROLLS:0.000=1.000;
#FAKES:;
#LABELS:0.000=Song Start;
#BGCHANGES:;
#KEYSOUNDS:;
#ATTACKS:
;

//---------------dance-single - ----------------
#NOTEDATA:;
#CHARTNAME:;
#STEPSTYPE:dance-single;
#DESCRIPTION:;
#CHARTSTYLE:;
#DIFFICULTY:Hard;
#METER:13;
#RADARVALUES:0.585941,0.728571,0.424036,0.331519,0.258276,532.000000,477.000000,55.000000,43.000000,0.000000,0.000000,0.000000,0.000000,0.000000,0.585941,0.728571,0.424036,0.331519,0.258276,532.000000,477.000000,55.000000,43.000000,0.000000,0.000000,0.000000,0.000000,0.000000;
#CREDIT:;
#NOTES:
0000
0000
0000
0000
,
0000
0000
0000
0000
,
0000
0000
0000
0000
,
0000
0000
0000
0000
,
0000
0000
0000
0000
,
0000
0000
0000
0000
0000
0000
0000
0001
,
0100
0001
0001
0010
0000
0010
0100
0010
,
0001
2000
0000
3001
0000
0001
1000
0100
,
0010
0001
0010
0100
0000
0100
1000
0000
,
1000
0010
0000
0010
0100
0020
0000
1030
,
1000
0100
0010
0100
0000
0100
1000
0010
,
0100
0002
0000
1003
0000
1000
0010
0100
,
0001
0000
0001
0101
0000
1000
1100
0000
,
0000
0100
1000
0001
0100
0001
1000
0010
,
1000
0100
0100
0010
0000
0010
0100
1000
,
0001
2000
0000
3001
0000
0001
1000
0010
,
0100
0001
0100
0010
0000
0010
1000
0000
,
1000
0001
1000
0001
0000
1000
1000
1000
,
0001
0010
0001
0100
0001
0100
0010
1000
,
0010
1000
0100
1000
0000
1000
0100
0020
,
0000
0100
0000
0031
0000
0001
0100
0020
,
0000
0100
0000
1030
0000
1000
0001
0100
,
0001
0000
0000
0001
0000
0000
0010
0000
0000
0010
0000
0000
0100
0000
0010
0000
,
0001
0000
1000
0000
0000
1000
0000
0000
0010
0000
0000
0010
0000
0000
1000
0000
,
0100
0000
0000
0100
0000
0000
0010
0000
0000
0010
0000
0000
0100
0000
1000
0000
,
0001
0000
0100
0000
0000
0100
0000
0000
0010
0000
0000
0010
0000
0000
1000
0000
,
0001
0000
0000
0101
0000
0000
0100
0000
0000
0101
0000
0000
0001
0000
1000
0000
,
0010
0000
1000
0000
0000
1100
0000
0000
0100
0000
0000
1100
0000
0000
1000
0000
,
0001
0000
0000
0011
0000
0000
0010
0000
0000
0011
0000
0000
0001
0000
1000
0000
,
0100
0000
1000
0000
0000
1010
0000
0000
0010
0000
0000
1010
0000
0000
1000
0000
,
0001
0000
0000
0001
0000
0000
0100
0000
0020
0000
0000
0000
0130
0000
0000
0100
,
0000
0000
0001
0000
2000
0000
0000
0000
3100
0000
0000
0100
0000
0000
1000
0000
,
0002
0000
0000
0000
0013
0000
0000
0010
0000
0000
0001
0000
0010
0000
0100
0000
,
1000
0000
0000
1000
0000
0000
0001
0000
0200
0000
0000
0000
0310
0000
0000
0010
,
0000
0000
1000
0000
0002
0000
0000
0000
0013
0000
0000
0010
0000
0000
0100
0000
,
2000
0000
0000
0000
3001
0000
0000
0001
0000
0000
1000
0000
0001
0000
0010
0000
,
0100
0000
0000
1100
0000
0000
0100
0000
2000
0000
0000
0000
3001
0000
0000
0101
,
0000
0000
0001
0000
0200
0000
0000
0000
0310
0000
0000
1010
0000
0000
0010
0000
,
2000
0000
0000
0000
3001
0000
0000
0011
0000
0000
0001
0000
0010
0000
0001
0000
,
1000
0000
0000
1002
0000
0000
0100
0000
1003
0000
0000
0000
0001
0000
0000
2001
,
0000
0000
0100
0000
3001
0000
0000
0000
0001
0000
0000
0101
0000
0000
0100
0000
,
0020
0000
0000
0000
1030
0000
0000
1100
0000
0000
0100
0000
0010
0000
0100
0000
,
2000
0000
0000
0100
0000
0000
0100
0000
3100
0000
0000
0000
2000
0000
0000
0001
,
0000
0000
0001
0000
3001
0000
0000
0000
2000
0000
0000
0010
0000
0000
0010
0000
,
3010
0000
0000
0000
2000
0000
0000
3001
0000
0000
0001
0000
0100
0000
0000
0000
,
0002
0000
0000
0010
0000
0000
0010
0000
0013
0000
0000
0000
0002
0000
0000
1000
,
0000
0000
1000
0000
1003
0000
0000
0000
0002
0000
0000
0100
0000
0000
0100
0000
,
0103
0000
0000
0000
0002
0000
0000
1003
0000
0000
1000
0000
0100
0000
1000
0000
,
0010
0000
0000
0000
0000
0000
0000
0000
0000
0000
0000
0000
0000
0000
0000
0011
,
0000
0000
0000
0000
0000
0000
0101
0000
0000
0000
0000
1100
0000
0000
0000
0000
,
0000
0000
0110
0000
0000
1000
0001
0100
,
0010
0000
0000
0010
0000
0000
1000
0000
1001
0000
0000
0000
0010
0000
0000
0010
,
0000
0000
0001
0000
1001
0000
1000
0000
0010
0000
0000
0100
0000
0000
0010
0000
,
1000
0001
2002
0000
0000
0000
3003
0000
,
0001
0100
1000
0100
0000
0100
0010
0000
,
0100
0000
0001
0000
0000
0000
0001
0000
1000
0000
0000
1100
0000
0000
0100
0000
,
1000
0100
0001
0100
0000
0100
1000
0000
,
1000
0000
0010
0000
0000
0000
0010
0000
0100
0000
0000
0101
0000
0000
0001
0000
,
1000
0010
0001
0010
0000
1000
0100
0000
,
0010
0001
0000
0110
0000
1000
0100
0010
,
0001
0010
1000
0010
0000
0010
0001
0100
,
1000
0100
0000
1001
0000
0001
0100
0020
,
0000
0130
0001
1000
0000
0010
1000
0000
,
0001
0010
0000
0110
0000
0100
1000
0010
,
0000
0010
1000
0001
0100
0001
0010
0000
,
0010
0000
0100
0000
0100
0000
0000
0000
1100
0000
0000
1001
0000
0000
0011
0000
,
0000
0001
0010
1000
0001
0100
2000
3000
,
0000
0000
1100
0000
0000
0000
1010
0000
0000
0000
0100
0001
0000
0001
0010
0000
,
0001
0000
0011
0000
1001
0000
1000
0000
1010
0000
0110
0000
,
0010
1000
0010
0100
0010
0100
0001
0000
1000
0001
0010
0000
,
0200
1000
0010
0301
0000
0010
0020
0001
,
0100
1030
0000
0100
1000
0010
0100
0010
,
0200
0000
0000
0001
0000
0000
0010
0000
1300
0000
0000
0000
0020
0000
0000
1030
,
0000
1000
0001
0010
0001
1000
0100
0000
,
1200
0000
0000
0310
0000
0000
0210
0000
1300
0000
0000
0000
0201
0000
0000
0310
,
0000
0210
0301
0000
0001
0100
0010
1000
,
0001
0000
0010
0000
0100
0000
1000
0000
0001
0000
0000
0011
0000
0000
0110
0000
,
0000
1100
0000
0101
0000
0001
0010
0000
,
0100
1000
1000
0010
0000
0010
0100
0010
,
1000
0002
0000
1003
0000
1000
0001
0100
,
0010
1000
0010
0100
0000
0100
0001
0000
,
0001
0010
0000
0010
0100
0020
0000
0031
,
0001
0100
0010
0100
0000
0100
0001
0010
,
0100
2000
0000
3001
0000
0001
0010
0100
,
1000
0000
1000
1100
0000
0001
0101
0000
,
0000
0000
1001
0000
0000
0101
0000
0000
0110
0000
0000
1010
0000
0000
1001
0000
,
0001
0010
0100
1000
0100
0000
0000
0000
,
0022
0000
0000
0000
,
0000
0000
0000
0000
,
0000
0000
0000
0000
,
0033
0000
0000
0000
;

//---------------dance-single - ----------------
#NOTEDATA:;
#CHARTNAME:;
#STEPSTYPE:dance-single;
#DESCRIPTION:;
#CHARTSTYLE:;
#DIFFICULTY:Challenge;
#METER:15;
#RADARVALUES:0.704891,0.832652,0.832652,0.362358,0.416326,640.000000,532.000000,108.000000,47.000000,0.000000,0.000000,0.000000,0.000000,0.000000,0.704891,0.832652,0.832652,0.362358,0.416326,640.000000,532.000000,108.000000,47.000000,0.000000,0.000000,0.000000,0.000000,0.000000;
#CREDIT:;
#NOTES:
// measure 0
0000
0000
0000
0000
,  // measure 1
0000
0000
0000
0000
,  // measure 2
0000
0000
0000
0000
,  // measure 3
0000
0000
0000
0000
,  // measure 4
0000
0000
0000
0000
,  // measure 5
0000
0000
0000
0000
0000
0000
0000
1001
,  // measure 6
1000
0000
0001
0000
0010
0000
0011
0000
0001
0000
0100
0000
0010
0100
0010
0000
,  // measure 7
1000
0000
1010
0000
0000
0000
0101
0000
0000
0000
0001
0000
1000
0100
1000
0000
,  // measure 8
0001
0000
0010
0000
1000
0000
0010
0000
0001
0000
0100
0000
0202
0000
0000
0303
,  // measure 9
0000
0000
2200
0000
0000
3300
0000
0000
0100
0000
0220
0000
0000
0330
0000
0000
,  // measure 10
0010
0001
0100
0010
1000
0100
0010
0000
,  // measure 11
0001
0000
0011
0000
0000
0000
1100
0000
0000
0000
0100
0000
1000
0001
1000
0000
,  // measure 12
2200
0000
0000
3300
0000
0000
2020
0000
0000
3030
0000
0000
0022
0000
0000
0033
,  // measure 13
0000
0000
0101
0000
0000
0000
1100
0000
0000
0000
1000
0000
0100
0010
0100
0010
,  // measure 14
0001
1000
0100
0010
0100
1000
0010
0100
,  // measure 15
0001
1000
0100
0110
0000
1001
0001
0100
,  // measure 16
0010
0000
1000
0000
0010
0000
0110
0000
0000
0000
0010
0000
2020
0000
0000
3030
,  // measure 17
0000
0000
0022
0000
0000
0033
0000
0000
0000
0000
0001
0000
0010
0000
0010
0000
,  // measure 18
0100
1000
0010
0010
1000
0100
0010
0001
,  // measure 19
0100
0100
0001
0010
0000
0010
0001
2001
,  // measure 20
0000
0001
0000
3100
0000
0010
0001
1002
,  // measure 21
0000
0000
0100
0000
0000
0000
0013
0000
0000
0000
0010
0000
0100
0010
0100
0010
,  // measure 22
0200
0000
0000
1300
0000
0000
0020
0000
0000
0031
0000
0000
0100
1000
0100
1000
,  // measure 23
0001
0000
0200
0000
0000
0301
0000
0000
0020
0000
0000
1030
0000
0000
1000
0000
,  // measure 24
0002
0000
0000
0013
0000
0000
2000
0000
0000
3100
0000
0000
1000
0001
1000
0001
,  // measure 25
0100
0000
0002
0000
0000
0103
0000
0000
2000
0000
0000
3010
0000
0000
0010
0000
,  // measure 26
1000
0000
0000
1010
0000
0000
0110
0000
0000
1010
0000
0000
0010
0100
0010
0100
,  // measure 27
0001
0000
0101
0000
0000
1001
0000
0000
0011
0000
0000
1001
0000
0000
0001
0000
,  // measure 28
0010
0000
0000
0011
0000
0000
0110
0000
0000
0011
0000
0000
0010
0100
0010
0100
,  // measure 29
1000
0000
1100
0000
0000
0011
0000
0000
0101
0000
0000
1010
0000
0000
0010
1000
,  // measure 30
0001
0000
0000
0101
0000
0000
0100
0000
0001
0000
0100
0000
0010
0000
0000
1010
,  // measure 31
0000
0000
1000
0000
0010
0000
1000
0000
0001
0000
0000
0011
0000
0000
0010
0000
,  // measure 32
0001
0000
0010
0000
0100
0000
0000
1100
0000
0000
1000
0000
0100
1000
0100
0000
,  // measure 33
1000
0000
0000
1010
0000
0000
0010
0000
1000
0000
0010
0000
0100
0000
0000
0101
,  // measure 34
0000
0000
0001
0000
0100
0000
0001
0000
0010
0000
0000
0011
0000
0000
0010
0000
,  // measure 35
0001
0000
0010
0000
0100
0000
0000
1100
0000
0000
1000
0000
0001
1000
0010
0000
,  // measure 36
0010
1000
0000
1010
0000
0000
0010
0000
1000
0000
0001
0000
0010
0001
0000
0011
,  // measure 37
0000
0000
0010
0000
0100
0000
1000
0000
0100
1000
0000
1100
0000
0000
0100
0000
,  // measure 38
1000
0000
0001
0000
0100
0001
0000
0101
0000
0000
0001
0000
2000
0000
0000
0000
,  // measure 39
3001
0000
0000
0011
0000
0000
0110
0000
0010
0000
0001
0000
1000
0000
0000
1010
,  // measure 40
0000
0000
0110
0000
0010
0000
0100
0000
0001
0000
0000
0101
0000
0000
0110
0000
,  // measure 41
0010
0000
1000
0000
0100
0000
0000
1100
0000
0000
0110
0000
0010
0000
0001
0000
,  // measure 42
0021
0000
0000
0001
0000
0000
0001
0000
0001
0000
0000
0000
0100
0000
0000
0100
,  // measure 43
0000
0000
0100
0000
0100
0000
0000
0000
1000
0000
0000
1000
0000
0000
1000
0000
,  // measure 44
1000
0000
0000
0000
0001
0000
0000
0001
0030
0000
0001
0000
1000
0000
0010
0000
,  // measure 45
0200
0000
0000
0001
0000
0000
0001
0000
0001
0000
0000
0000
0010
0000
0000
0010
,  // measure 46
0000
0000
0010
0000
0010
0000
0000
0000
1000
0000
0000
1000
0000
0000
1000
0000
,  // measure 47
1000
0000
0000
0000
0301
0000
0000
0000
0000
0000
0001
0100
0001
0100
0001
0100
,  // measure 48
0010
0000
0000
0000
0000
0000
0000
0000
0000
0000
0000
0000
0000
0000
0000
1010
,  // measure 49
0000
0000
0000
0000
0000
0000
0011
0000
0000
0000
0000
0101
0000
0000
0000
0000
,  // measure 50
0000
0000
0000
0000
1100
0000
0000
0000
0000
0000
0000
1000
0100
1000
0100
1000
,  // measure 51
0001
0000
0010
0100
0000
0000
0010
0000
0001
0000
0001
0000
1000
0000
0010
0100
,  // measure 52
0000
0000
0010
0000
1000
0000
0001
0000
1000
0100
0000
0110
0000
0000
0010
0000
,  // measure 53
0001
1000
2002
0000
0000
0000
3003
0000
,  // measure 54
0001
0000
0100
0010
0100
0000
0001
0000
1000
0000
0100
0000
1200
0000
0000
0000
,  // measure 55
0000
0000
0301
0000
0000
0000
1000
0000
1000
0000
0000
1001
0000
0000
0001
0000
,  // measure 56
0010
0100
1000
0010
0000
0100
0201
0000
,  // measure 57
0000
0000
1300
0000
0000
0000
0100
0000
0010
0000
0000
0110
0000
0000
0100
0000
,  // measure 58
0001
0001
0010
0100
1000
0100
1200
0000
,  // measure 59
0000
0000
0301
0000
0000
0000
0100
0010
0100
0000
0000
1000
0000
0000
0001
0000
,  // measure 60
0100
0000
0010
0000
0000
0000
0010
1000
0010
0000
0100
0000
0101
0000
0100
0000
,  // measure 61
0010
1010
0000
1100
0100
1000
0001
0011
,  // measure 62
0000
0010
0100
0110
0000
0100
1200
0000
,  // measure 63
0000
0000
0301
0000
0000
0000
0010
0001
0010
0000
0000
0110
0000
0000
1001
0000
,  // measure 64
0000
0001
0100
0010
0100
0001
0201
0000
,  // measure 65
0000
0000
1300
0000
0000
0000
0100
0000
0001
0000
0000
1001
0000
0000
0110
0000
,  // measure 66
0000
0000
1000
0000
0010
0000
0010
0000
0100
0000
0100
0000
0002
0000
0000
0003
,  // measure 67
0000
0000
0001
0000
1000
0000
0100
0000
1000
0000
0000
1100
0000
0000
1001
0000
,  // measure 68
0001
0000
0011
0000
1001
0000
1000
0000
1010
0000
1001
0000
,  // measure 69
0001
0100
0010
1000
0010
0100
0002
0000
1003
0100
0020
0000
,  // measure 70
0130
0000
1000
0001
1000
0000
0010
0000
0000
0000
0010
0000
0100
0000
0001
1000
,  // measure 71
0001
0010
0000
0010
0100
1000
0010
0010
,  // measure 72
0100
0000
0010
1000
0001
0000
0001
0000
0000
0000
0100
0000
0001
0000
0010
0001
,  // measure 73
1000
1000
0100
0001
0100
1000
0010
0100
,  // measure 74
0010
0000
1000
0010
0000
1000
0010
0000
0010
0000
0100
0000
0001
0000
0010
0001
,  // measure 75
0000
0010
0001
0000
1000
0000
0001
0000
0010
0000
0000
1100
0000
0000
0011
0000
,  // measure 76
0001
0000
1000
0001
1000
0000
0010
0000
1000
0000
0001
0000
0100
0000
0101
0000
,  // measure 77
0000
0110
0000
1010
0000
1000
1001
0000
,  // measure 78
1001
0000
1000
0000
0010
0000
1010
0000
1000
0000
0100
0000
0010
0100
0010
0000
,  // measure 79
0001
0000
0011
0000
0000
0000
1100
0000
0000
0000
1000
0000
0001
0100
0001
0000
,  // measure 80
1000
0000
0010
0000
0001
0000
0010
0000
1000
0000
0100
0000
2200
0000
0000
3300
,  // measure 81
0000
0000
0202
0000
0000
0303
0000
0000
0100
0000
2002
0000
0000
3003
0000
0000
,  // measure 82
0001
0010
0100
1000
0010
0100
0001
0000
,  // measure 83
1000
0000
1010
0000
0000
0000
0101
0000
0000
0000
0100
0000
0001
1000
0001
0000
,  // measure 84
0101
0000
0001
0011
0000
1000
1010
0000
,  // measure 85
0010
0000
0110
0000
0000
0101
0000
0000
1100
0000
0000
1010
0000
0000
0011
0000
,  // measure 86
0001
0010
1000
0010
0100
0000
0000
0000
,  // measure 87
2020
0000
0000
0000
,  // measure 88
0000
0000
0000
0000
,  // measure 89
0000
0000
0000
0000
,  // measure 90
3030
0000
0000
0000
;

//---------------dance-single - ----------------
#NOTEDATA:;
#CHARTNAME:;
#STEPSTYPE:dance-single;
#DESCRIPTION:;
#CHARTSTYLE:;
#DIFFICULTY:Medium;
#METER:10;
#RADARVALUES:0.390994,0.451020,0.277551,0.177324,0.154195,355.000000,319.000000,36.000000,23.000000,0.000000,0.000000,0.000000,0.000000,0.000000,0.390994,0.451020,0.277551,0.177324,0.154195,355.000000,319.000000,36.000000,23.000000,0.000000,0.000000,0.000000,0.000000,0.000000;
#CREDIT:;
#NOTES:
0000
0000
0000
0000
,
0000
0000
0000
0000
,
0000
0000
0000
0000
,
0000
0000
0000
0000
,
0000
0000
0000
0000
,
0000
0000
0000
0000
,
1000
0000
0100
1000
0000
0100
0000
0000
,
0010
0001
0000
0001
0000
0010
0000
0000
,
0001
0000
0001
0100
0000
0100
0010
0000
,
0000
0110
0000
0000
1000
0002
0000
0000
,
1003
0000
0100
0010
0000
0010
0000
0000
,
0001
0100
0000
0100
0000
0010
0000
0000
,
2000
0000
0000
3002
0000
0000
0023
0000
,
0000
0130
0000
1100
0000
0101
0000
0000
,
0001
0000
0001
0010
0000
0000
1001
0000
,
1000
0010
0000
0010
0000
0110
0000
0000
,
1000
0000
0001
0100
0000
0001
1000
0000
,
0100
1000
0000
0100
0010
0200
0000
0000
,
1300
0000
0000
1100
0000
0000
1001
0000
,
0000
0101
0000
0000
0001
1000
0000
1001
,
0000
0000
1000
0001
0100
0010
0000
0110
,
0000
0000
0010
1000
0001
1000
0001
0000
,
1000
0000
0000
0100
0000
0000
1000
0000
0000
0001
0000
0000
1000
0000
0000
0000
,
0000
0000
0001
0000
0000
0010
0000
0000
0001
0000
0000
1000
0000
0000
0001
0000
,
0100
0000
0000
0010
0000
0000
0100
0000
0000
0001
0000
0000
0100
0000
0000
0000
,
0000
0000
0010
0000
0000
1000
0000
0000
0010
0000
0000
0100
0000
0000
0010
0000
,
1000
0000
0000
0010
0000
0000
1000
0000
0000
0001
0000
0000
1000
0000
0000
0000
,
0000
0000
0001
0000
0000
0100
0000
0000
0001
0000
0000
1000
0000
0000
0001
0000
,
0010
0000
0000
0001
0000
0000
0010
0000
0000
0100
0000
0000
0010
0000
0000
0000
,
0000
0000
0100
0000
0000
0010
0000
0000
0100
0000
0000
1000
0000
0000
0001
0000
,
1000
1000
0100
0010
,
0010
0100
1000
1000
,
0001
0100
0010
0100
,
0001
0001
0100
0010
,
0010
1000
0100
0100
,
1000
0001
0100
0010
,
1000
1100
0100
0010
,
0110
0010
0001
0011
,
0001
1000
0010
1000
,
0001
0101
0001
1000
,
1010
1000
0010
0110
,
0010
0000
1000
0000
0001
0000
0010
0100
,
0020
0000
0000
0000
,
0000
0000
0000
0000
,
0000
0000
0000
0030
,
0100
0000
0000
0100
0000
0000
0100
0000
0000
0000
0000
0000
1000
0000
0000
1000
,
0000
0000
1000
0000
0000
0000
0000
0000
0010
0000
0000
0010
0000
0000
0010
0000
,
0000
0000
0000
0000
0100
0000
0000
0100
0000
0000
0100
0000
0000
0000
0000
0000
,
0001
0000
0000
0000
0000
0000
0000
0000
0000
0000
0000
0000
0000
0000
0000
0011
,
0000
0000
0000
0000
0000
0000
0110
0000
0000
0000
0000
1100
0000
0000
0000
0000
,
0000
1001
0000
0000
,
0001
0000
0000
0100
0000
0000
0001
0000
1000
0000
0000
0000
1000
0000
0000
0100
,
0000
0000
1000
0000
0001
0000
0000
0000
0001
0000
0000
0100
0000
0000
0010
0000
,
1000
0220
0000
0330
,
1000
0000
1000
0001
0000
0001
0200
0000
,
0000
0000
0000
0000
0300
0000
0000
0000
0001
0000
0000
0001
0000
0000
0001
0000
,
0010
0000
0010
0100
0000
0100
2000
0000
,
0000
0000
0000
0000
3000
0000
0000
0000
0100
0000
0000
0100
0000
0000
0100
0000
,
1000
0000
1000
0001
0000
0001
0020
0000
,
0000
0000
0000
0000
0030
0000
0000
0000
0001
0000
0000
1000
0000
0000
0001
0000
,
0100
0000
0100
0010
0000
0000
1000
0000
,
1000
0000
0001
0000
0000
0000
0000
0000
0010
0000
0000
0010
0000
0000
0010
0000
,
0001
0000
1000
0100
1000
0000
0002
0000
,
0000
0000
0000
0000
0003
0000
0000
0000
0100
0000
0000
0100
0000
0000
0100
0000
,
0010
0000
1000
0001
1000
0000
0200
0000
,
0000
0000
0000
0000
0300
0000
0000
0000
1000
0000
0000
1000
0000
0000
1000
0000
,
0001
0000
0100
0010
0100
0000
2002
0000
,
0000
0000
0000
0000
3003
0000
0000
0000
0001
0000
0000
0100
0000
0000
0010
0000
,
1000
1000
0001
0001
,
1000
0000
1000
0100
0000
0100
0010
0000
0010
0001
0000
0000
,
1000
0000
0000
1100
0000
0000
1001
0000
,
0000
1100
0000
0100
0010
0100
0010
0000
,
0001
0000
0000
0011
0000
0000
1001
0000
,
0000
1010
0000
0000
0010
0100
0010
0000
,
1000
0000
0000
0101
0000
0000
0001
0000
,
0000
0000
1100
0000
0000
0000
0000
0000
0100
0000
0000
1000
0000
0000
0001
0000
,
1000
0000
0000
1000
0000
0000
1000
0000
0001
0000
0000
0001
0000
0000
0001
0000
,
0000
0110
0000
2002
0000
0000
3003
0000
,
0001
0000
0100
0001
0000
0100
0000
0000
,
0010
1000
0000
1000
0000
0010
0000
0000
,
1000
0000
1000
0100
0000
0100
0010
0000
,
0000
0110
0000
0000
0001
2000
0000
0000
,
3001
0000
0100
0010
0000
0010
0000
0000
,
1000
0100
0000
0100
0000
0010
0000
0000
,
0002
0000
0000
2003
0000
0000
3020
0000
,
0000
0000
0130
0000
0000
0001
0000
0000
1000
0000
0000
0100
0000
0000
1000
0000
,
0100
1100
0101
0000
,
0220
0000
0000
0000
,
0000
0000
0000
0000
,
0000
0000
0000
0000
,
0330
0000
0000
0000
;

//---------------dance-single - ----------------
#NOTEDATA:;
#CHARTNAME:;
#STEPSTYPE:dance-single;
#DESCRIPTION:;
#CHARTSTYLE:;
#DIFFICULTY:Easy;
#METER:5;
#RADARVALUES:0.227988,0.268299,0.061678,0.177324,0.007710,207.000000,199.000000,8.000000,23.000000,0.000000,0.000000,0.000000,0.000000,0.000000,0.227988,0.268299,0.061678,0.177324,0.007710,207.000000,199.000000,8.000000,23.000000,0.000000,0.000000,0.000000,0.000000,0.000000;
#CREDIT:;
#NOTES:
0000
0000
0000
0000
,
0000
0000
0000
0000
,
0000
0000
0000
0000
,
0000
0000
0000
0000
,
0000
0000
0000
0000
,
0000
0000
0000
0000
,
1000
0100
1000
0000
,
0001
0010
0010
0000
,
0001
0100
0000
0010
,
0000
0010
0000
0000
0000
0010
0000
0000
,
1000
0001
0100
0000
,
0010
1000
1000
0000
,
0001
0000
0000
1000
0000
0000
0001
0000
,
0000
1000
0000
1000
0000
1000
0000
0000
,
0001
0100
0001
0000
,
1000
0010
0010
0000
,
1000
0100
0000
0010
,
0000
0010
0000
0000
0000
0010
0000
0000
,
1000
0000
0000
0001
0000
0000
0010
0000
,
0000
0001
0000
0000
0000
1000
0000
0010
,
0000
0000
0010
0000
0000
0000
0000
0100
,
0000
0000
0000
0100
0000
0000
0000
0000
,
0001
0000
0001
0000
,
0001
0100
0001
0100
,
0010
0000
0010
0000
,
0010
1000
0010
1000
,
0100
0000
0100
0000
,
0100
1000
0001
0100
,
0010
0000
0010
0000
,
0010
1000
0001
0010
,
0100
0000
0100
1000
,
0000
1000
0001
0000
,
0001
0010
0001
1000
,
0001
0000
0001
0100
,
0000
0100
0010
0000
,
0010
1000
0010
0100
,
0002
0000
0003
0200
,
0000
0300
0020
0000
,
0030
1000
0001
1000
,
0200
0000
0300
2000
,
0000
3000
0002
0000
,
0003
0010
0100
1000
,
0002
0000
0000
0003
,
0000
0000
0000
0000
,
0000
0000
0000
0000
,
2002
0000
0000
0000
,
0000
0000
0000
3003
,
0000
1001
0000
0000
,
1000
0000
0000
0000
0000
0000
0000
0000
0000
0000
0000
0000
0000
0000
0000
0010
,
0000
0000
0000
0000
0000
0000
0100
0000
0000
0000
0000
0001
0000
0000
0000
0000
,
0000
0001
0000
0100
,
0010
0000
1000
0010
,
0000
1000
0001
0000
,
0000
1001
0000
0000
,
1000
0000
0000
0100
0000
0000
0200
0000
,
0000
0300
1000
0001
,
1000
0000
0000
0010
0000
0000
0020
0000
,
0000
0030
0100
0010
,
1000
0000
0000
0001
0000
0000
0002
0000
,
0000
0003
1000
0001
,
1000
0000
0000
0010
0000
0000
0200
0000
,
0000
0300
0010
1000
,
0001
0000
0000
0001
0000
0000
0022
0000
,
0000
0033
1000
0001
,
1000
0000
0000
1000
0000
0000
2020
0000
,
0000
3030
0010
0100
,
0010
0000
0000
0010
0000
0000
0220
0000
,
0000
0330
0010
1000
,
0001
0000
0001
0000
,
1000
1000
1000
1000
,
0100
0000
0000
0020
0000
0000
0000
0000
,
0000
0030
0100
1000
,
0001
0000
0000
0200
0000
0000
0000
0000
,
0300
0001
0100
0001
,
0010
0000
0000
0010
0000
0000
0100
0000
,
0000
0100
0000
0000
0010
0000
0100
0000
,
1000
0000
0000
0000
0001
0000
0000
1000
,
0000
0001
0000
2002
0000
0000
3003
0000
,
0001
0100
0001
0000
,
1000
0010
0010
0000
,
1000
0100
0000
0010
,
0000
0010
0000
0000
0000
0010
0000
0000
,
0001
1000
0100
0000
,
0010
0001
0001
0000
,
1000
0000
0000
0001
0000
0000
1000
0000
,
0000
0001
0000
0000
0100
0000
0000
0000
,
0010
0010
0010
0000
,
0110
0000
0000
0000
;

//---------------dance-single - ----------------
#NOTEDATA:;
#CHARTNAME:;
#STEPSTYPE:dance-single;
#DESCRIPTION:;
#CHARTSTYLE:;
#DIFFICULTY:Beginner;
#METER:2;
#RADARVALUES:0.112342,0.134150,0.077097,0.000000,0.007710,102.000000,92.000000,10.000000,0.000000,0.000000,0.000000,0.000000,0.000000,0.000000,0.112342,0.134150,0.077097,0.000000,0.007710,102.000000,92.000000,10.000000,0.000000,0.000000,0.000000,0.000000,0.000000,0.000000;
#CREDIT:;
#NOTES:
0000
0000
0000
0000
,
0000
0000
0000
0000
,
0000
0000
0000
0000
,
0000
0000
0000
0000
,
0000
0000
0000
0000
,
0000
0000
0000
0000
,
0001
0000
0000
0000
,
1000
0000
0000
0000
,
0001
0000
0000
1001
,
0000
0000
0000
0000
,
1000
0000
0000
0000
,
0001
0000
0000
0000
,
1000
0000
0000
1001
,
0000
0000
0000
0000
,
0001
0000
0000
0000
,
0100
0000
0000
0000
,
0010
0000
0000
1001
,
0000
0000
0000
0000
,
1000
0000
0000
0000
,
0100
0000
0000
0000
0000
0000
0000
0010
,
0000
0000
0000
0000
0000
0000
0000
0010
,
0000
0000
0000
0000
,
0001
0000
0000
0000
,
0001
0000
0000
0000
,
1000
0000
0000
0000
,
1000
0000
0000
0000
,
0001
0000
0000
0000
,
0001
0000
0000
0000
,
1000
0000
0000
0000
,
1000
0000
0000
0000
,
0001
0000
0000
0001
,
0000
0000
0100
0000
,
0000
0100
0000
0000
,
0010
0000
0000
0010
,
0000
0000
1000
0000
,
0000
1000
0000
0000
,
1000
0000
0000
1000
,
0000
0000
0100
0000
,
0000
0100
0000
0000
,
0010
0000
0000
0010
,
0000
0000
0001
0000
,
0000
0001
0000
0000
,
1001
0000
0000
0000
,
0000
0000
0000
0000
,
0000
0000
0000
0000
,
0110
0000
0000
0000
,
0000
0000
0000
0000
,
0000
0000
0000
0000
,
1000
0000
0000
0000
0000
0000
0000
0000
0000
0000
0000
0000
0000
0000
0000
0010
,
0000
0000
0000
0000
0000
0000
0100
0000
0000
0000
0000
0001
0000
0000
0000
0000
,
0000
0001
0000
0000
,
1000
0000
0000
0001
,
0000
0000
1000
0000
,
0000
1001
0000
0000
,
1000
0000
0000
0000
,
1000
0000
1000
0000
,
0100
0000
0000
0000
,
0100
0000
0100
0000
,
0010
0000
0000
0000
,
0010
0000
0010
0000
,
0001
0000
0000
0000
,
0001
0000
1000
0000
,
0001
0000
0000
0000
,
0001
0000
0001
0000
,
0100
0000
0000
0000
,
0100
0000
0100
0000
,
0010
0000
0000
0000
,
0010
0000
0010
0000
,
1000
0000
0000
0000
,
0001
0000
0000
0000
,
1000
0000
0000
0000
,
1000
0000
0100
0000
,
1000
0000
0000
0000
,
0001
0000
0100
0000
,
0001
0000
0000
0000
,
1000
0000
0000
0000
,
1001
0000
0000
0000
,
0000
0000
0000
0000
,
1000
0000
0000
0000
,
0001
0000
0000
0000
,
1000
0000
0000
1001
,
0000
0000
0000
0000
,
0001
0000
0000
0000
,
1000
0000
0000
0000
,
0001
0000
0000
0000
,
0000
1001
0000
0000
0000
0000
0000
0000
,
0000
0000
0000
0000
,
1001
0000
0000
0000
;
