#TITLE:Ceyx;
#SUBTITLE:;
#ARTIST:xi;
#TITLETRANSLIT:;
#SUBTITLETRANSLIT:;
#ARTISTTRANSLIT:;
#GENRE:;
#CREDIT:;
#MUSIC:Ceyx.mp3;
#BANNER:;
#BACKGROUND:;
#CDTITLE:;
#SAMPLESTART:26.933;
#SAMPLELENGTH:15.790;
#SELECTABLE:YES;
#OFFSET:-0.091;
#BPMS:0.000=95.000
,42.000=190.000
,169.000=95.000
,185.000=190.000
,288.000=95.000
,292.000=142.500
,298.000=190.000
;
#STOPS:77.500=0.316
,123.750=0.316
,256.500=0.316
;
#BGCHANGES:;
#FGCHANGES:;

//--------------- dance-single - ----------------
#NOTES:
     dance-single:
     :
     Beginner:
     3:
     0,0,0,0,0:
0000
0000
0000
0000
,
0000
0000
0000
0000
,
0000
0000
0000
0000
,
0000
0000
0000
0000
,
0000
0000
0000
0000
,
0002
0000
0000
0000
,
0000
0000
0000
0000
,
1003
0000
0000
0000
,
1001
0000
0000
0000
,
0001
0000
0000
0000
,
0000
0000
0000
0110
,
0000
0000
0000
0000
,
0000
0000
0001
0000
,
0001
0000
0000
0000
,
0000
0000
1000
0000
,
0000
0000
1000
0000
,
0000
0000
0010
0000
,
0000
0000
0100
0000
,
0000
0000
0100
0000
,
0000
0000
0000
0000
,
0000
0001
0000
0000
,
0000
1000
0000
0000
,
0000
0001
0000
0000
,
0000
0100
0000
0000
,
0000
0100
0000
0000
,
0000
0010
0000
0000
,
0000
0020
0000
0000
,
0000
0000
0030
1000
,
0000
0000
1000
0000
,
0000
0001
0000
0000
,
0000
0000
0000
0000
,
0001
0000
0000
0001
,
0000
0000
1000
0000
,
0000
1000
0000
0000
,
0000
0010
0000
0000
,
0000
0010
0000
0000
,
0000
0100
0000
0000
,
0000
0100
0000
0000
,
0000
0001
0000
0000
,
0000
1001
0000
0000
,
0000
1000
0000
0000
,
0000
0001
0000
0000
,
0000
0100
0000
0000
,
0000
0100
0000
0000
,
0000
0010
0000
0000
,
0000
0010
0000
0000
,
0000
0000
1000
0000
0000
1000
0000
0000
,
1000
0000
0000
0000
,
0000
0000
0001
0000
0000
0001
0000
0000
,
0001
0000
0000
0000
,
0000
1000
0000
0000
,
0000
1001
0000
0000
,
0000
0001
0000
0000
,
0000
1001
0000
0000
,
0000
0000
0000
0000
,
0000
0000
0000
0000
,
0000
1000
0000
0000
,
0000
1000
0000
0000
,
0000
1000
0000
0000
,
0000
1000
0000
0000
,
0000
0001
0000
0000
,
0000
1001
0000
0000
,
0000
0100
0000
0000
,
0000
0110
0000
0000
,
0000
2000
0000
3000
,
0001
0000
0000
0000
,
0100
0000
0000
0000
,
0001
0000
0000
0000
,
1000
0000
0000
0000
,
0010
0000
0000
0000
,
0100
0000
0000
0000
,
0001
0000
0000
0000
,
1001
0000
0000
0000
,
0001
0000
0000
0001
,
1000
0001
1000
0000
,
0000
0000
1000
0000
,
0000
0000
0010
0000
,
0000
0000
0100
0000
,
0000
0000
0000
0000
,
0000
0000
2002
0000
,
0000
0000
0000
0000
,
0000
0000
0000
0000
,
3003
0000
0000
0000
;

//--------------- dance-single - ----------------
#NOTES:
     dance-single:
     :
     Easy:
     8:
     0,0,0,0,0:
0000
0000
0000
0000
,
0000
0000
0000
0000
,
0000
0000
0000
0000
,
0000
0000
0000
0000
,
0000
0000
0000
0000
,
0110
0000
0000
0000
,
0000
0000
0000
0000
,
1001
0000
0001
0000
,
1010
0000
1000
0000
,
0002
0000
0000
0000
,
0003
0000
0000
1000
,
0100
0010
0001
0000
,
0000
0000
0200
0300
,
0020
0030
0000
1001
,
0000
0000
0100
0001
,
0100
0000
0010
1000
,
0010
0000
1000
0100
,
1000
0000
0002
2003
,
3020
0230
0301
1000
,
0220
0330
0002
0000
,
0013
0100
1000
0100
,
0000
1000
0010
1000
,
0000
0000
0000
0002
0000
0003
0100
0000
,
0100
0110
1000
0001
,
0000
0110
0001
1000
,
0000
0020
1000
1000
,
1030
0000
0101
0000
0000
0101
0000
0000
,
0101
0000
0000
0101
0000
0000
2000
0000
,
0000
0000
3020
0000
,
0000
0230
0000
0000
,
0302
1000
1000
1003
,
0002
0000
0000
0023
,
0000
0000
0230
0000
,
0000
1300
0000
1001
,
0001
0100
0010
0100
,
0000
0010
0100
0010
,
0000
1001
0000
1001
,
0000
1000
0001
1000
,
1000
0100
0010
0100
,
0000
1000
0001
1000
,
0000
0010
0010
0100
,
0100
0000
0001
0000
0000
1001
0000
0000
,
1000
0001
0000
0000
,
1000
0001
1000
0000
0000
0000
0000
0000
,
0000
0000
0110
0000
0010
0000
0001
1000
,
0001
0000
0100
0000
0101
0000
0010
0010
,
1000
1000
0001
1000
0000
0001
1000
0000
,
0001
1000
0000
0000
0000
0000
0100
0000
,
0010
0000
0001
0010
0000
0001
0010
0000
,
0001
0010
0000
0000
0000
0000
0000
0000
,
0000
1001
0000
0101
,
0000
1010
0000
1100
,
0000
0000
0000
0011
0000
0000
0000
1010
0000
0000
0000
0011
,
0000
1001
0000
0110
,
0000
0002
0000
0000
,
0000
2000
0000
0000
,
3003
0110
0000
0000
,
0000
0001
0000
0000
,
0000
1000
0000
0000
,
0000
0100
0000
0000
,
1000
2000
0000
0010
,
0001
3002
0000
1003
,
1000
0010
0010
0100
,
0100
0000
0000
0000
0001
0000
0000
0000
1001
0000
0000
0000
0001
0000
0000
1000
,
0000
0001
0200
0000
0000
0000
0010
0000
,
0310
1000
0010
0000
,
1000
0100
1000
0000
,
0000
1001
0000
0000
0001
0000
0010
0000
,
0100
0000
0010
0001
,
1000
0000
1000
0010
,
0100
0100
0001
1000
,
0010
0100
0001
1000
,
0010
0000
0100
0000
,
0001
0001
0001
1100
,
1100
1100
0001
0000
,
1010
0000
1000
0000
,
0101
0000
1000
0011
,
0001
1100
1000
0001
,
0110
0110
0110
0000
,
0000
0000
2002
0000
,
0000
0000
0000
0000
,
0000
0000
0000
0000
,
3003
0000
0000
0000
;

//--------------- dance-single - ----------------
#NOTES:
     dance-single:
     :
     Medium:
     12:
     0,0,0,0,0:
0000
0000
0000
0000
,
0000
0000
0000
0000
,
0000
0000
0000
0000
,
0002
0000
0000
0000
,
0000
0000
0000
0000
,
0200
0000
0000
0000
,
0000
0000
0000
0303
,
2000
0000
0000
0000
0020
0000
0000
3030
,
0002
0000
0000
0000
0200
0000
0000
0303
,
2000
0000
3200
0000
0320
0000
0032
0000
2003
0000
3002
0000
,
0203
0000
0300
0000
0000
0000
0000
0000
0000
0011
0000
0000
,
1010
0101
2200
3300
,
0000
0000
0000
0000
0000
0000
1000
0000
0100
0000
1000
0000
,
0001
0000
0010
0000
0001
0000
0000
0000
0000
1001
0000
0000
,
0000
0000
1000
0000
0001
0000
0100
0010
,
0100
0001
0000
1000
0002
0000
0013
0100
,
0010
0001
0000
0100
0001
0000
1000
0000
,
0100
0000
0000
0100
0000
0000
0001
0000
0200
0000
0000
0000
0320
0000
0000
0000
,
0032
2003
3010
0110
,
0100
0000
0000
0100
0000
0000
0100
0000
0002
0000
0000
0000
1003
0000
0100
0000
,
1000
0000
0010
0000
0100
0001
0000
1001
,
0000
0001
0010
0000
0010
0100
0000
0100
,
1000
0000
0000
2010
0000
3001
1000
0000
,
1100
0000
0002
0000
0103
0000
1000
0100
,
0001
0000
2000
0000
3100
0000
0001
0100
,
1000
0000
0110
0000
0001
0010
0100
1000
,
0010
0000
0100
0000
0001
0000
0000
0001
0000
0000
0100
0000
0000
0100
0000
0000
,
1000
0000
0000
1000
0000
0000
0010
0000
0000
0000
0000
0000
1001
0000
0000
0000
,
0001
0100
1000
0000
0110
0000
1000
0100
,
0001
0000
0110
0000
0001
1000
0010
0000
,
0100
0000
0000
0100
0000
0000
0100
0000
0002
0000
0000
0003
2000
0000
0000
3000
,
0101
0000
1000
0100
0010
0000
0001
1000
,
0000
0001
1000
0000
0110
0000
0001
1000
,
0100
0000
0000
0000
0010
0000
0000
0001
0000
0000
0100
0000
1000
0000
0000
0000
,
0110
0000
0002
0000
1003
0100
0010
0001
,
1000
0100
0010
0100
1000
0001
0010
0100
,
1000
0000
1001
0000
1000
0100
0110
0000
,
0001
0100
0110
0000
0010
0000
1000
0000
,
0010
0000
1000
0000
0001
0000
0100
0000
0000
0000
0000
0000
0001
0000
0000
0010
0000
0000
1000
0000
0000
0010
0000
0000
,
0001
0000
1001
0000
1000
0010
0001
0010
,
1000
0000
0001
0100
0001
0100
0010
1000
,
0010
1000
0002
0000
0000
2003
0000
0000
,
3020
0000
0000
0000
0130
0000
0000
0000
0000
0000
0000
0000
0000
0000
0000
1000
,
0100
0000
1000
0000
0010
0000
0100
0000
0001
0000
0000
0010
0000
0000
0001
0000
0000
0000
0000
0000
0000
0000
0000
0000
0000
0000
0000
0000
0000
0000
0000
0000
,
0000
0000
0000
0000
0110
0000
0000
0000
0000
0000
0000
0000
0000
0000
0000
0001
,
0100
0000
0001
0000
0010
0000
0100
0000
1000
0000
0000
0010
0000
0000
1000
0000
0000
0000
0000
0000
0000
0000
0000
0000
0001
0000
1000
0000
0001
0000
1000
0000
,
0010
0100
0010
0100
0001
0000
0001
0000
0000
0000
1000
0000
1000
0000
0000
0000
,
0001
0001
0000
0000
0000
1000
0100
0010
,
0001
0000
0100
0100
0000
0010
0010
0000
,
0100
0100
0000
0000
0000
0001
1000
0010
,
0100
0000
0000
0001
0000
0001
0000
0001
0000
1000
0000
1000
,
0000
1000
0000
0010
0000
0010
0000
0010
0000
0100
0000
0100
,
0000
0100
0000
0001
0000
1000
0000
0010
0000
0100
0000
0001
,
0000
0000
0000
0000
1000
0000
0000
0000
0000
0000
0000
0000
0010
0000
0000
0000
0000
0000
0000
0000
0000
0100
0000
0000
0000
0000
0000
0000
0000
0000
0010
0000
0000
0000
0000
0000
1000
0000
0000
0000
0000
0000
0000
0000
0000
0001
0000
0000
,
0000
2000
0000
0000
0000
0000
0000
0000
,
0000
0000
0000
0000
,
3000
0200
0000
0300
,
0000
0020
0000
0030
,
0000
0002
0000
0003
,
0000
2000
0000
3000
,
0010
0000
0100
0010
0100
0000
0000
0000
0001
0000
1000
0000
0001
0000
0000
0000
,
0010
0000
0001
0010
0001
0000
0000
0000
1000
0000
0010
0000
1000
0000
0000
1000
,
0000
0000
1000
0000
0010
0000
0000
0010
0000
0000
0010
0000
0100
0000
0000
0100
,
0000
0000
0100
0000
0001
0000
0000
0000
1001
0000
0000
0000
0001
0000
0000
1000
,
0000
0100
0020
0000
0000
0031
1000
0010
,
0100
0001
0000
1100
0000
0002
0000
0013
,
0200
0000
1300
0020
0000
0130
0101
0000
,
0000
0000
2000
0000
0000
0000
3001
0000
1000
0000
0000
0100
0000
0000
1000
0000
,
0020
0000
0000
0000
0000
0000
0100
0000
0130
0000
0001
1000
0000
0000
0001
0000
,
0020
0000
0031
0010
0100
1000
0010
0100
,
0001
0000
0000
0000
1000
0000
0001
0000
0000
1001
0000
0000
1001
0000
0000
1001
,
0000
0000
1001
0000
0000
1001
0000
0000
1001
0000
0000
1001
0000
0000
0001
0000
,
2000
0000
3020
0000
,
0130
0000
0101
0000
1001
0000
0001
0010
,
0100
1000
0010
0100
0002
0000
0013
0100
,
2000
0000
0001
0000
3200
0000
0310
0001
,
0020
0100
0031
1001
,
2000
3001
0110
1001
,
1000
0001
1000
0001
1000
0001
1000
0000
0000
0000
0000
0000
,
0000
0000
0220
0000
,
0000
0000
0000
0000
,
0000
0000
0000
0000
,
0330
0000
0000
0000
;

//--------------- dance-single - ----------------
#NOTES:
     dance-single:
     :
     Hard:
     15:
     0,0,0,0,0:
0000
0000
0000
0000
,
0000
0000
0000
0000
,
0000
0000
0000
0000
,
2000
0000
0000
0000
,
0000
0000
0000
0000
,
0002
0000
0000
0000
,
0000
0000
0000
3003
,
1000
0000
0010
0000
1000
0000
0001
0000
0100
0000
0001
0000
,
1000
0000
0100
0000
0010
0000
0001
0000
1000
0000
0100
0000
0010
0001
0010
0000
,
1100
0000
0001
0000
1000
0000
0100
0000
0010
0000
0001
0000
,
2000
0000
0000
0000
0000
0000
0000
0000
3001
0000
0000
0000
1010
0000
0000
1000
,
0001
0001
0100
0010
2000
0000
0000
0000
,
0000
0000
0000
3100
0000
0000
0010
0000
0000
0001
0000
0000
1000
0000
0000
0000
0010
0000
0000
0000
0001
0000
0000
0000
,
1000
0000
0100
0000
0001
0000
0000
0000
0000
2002
0000
0000
,
3003
1000
0010
1000
0100
0000
0100
0010
,
0001
0100
0000
0100
1000
0000
0001
0010
,
1000
0100
0000
0100
0010
0000
0001
1000
,
0001
0010
0000
0001
0010
0000
0001
0000
1000
0000
0001
0100
0001
0000
1000
0010
,
1000
0001
1000
0100
0110
0000
1002
0000
,
0100
0000
0000
0100
0000
0000
0103
0000
0220
0000
0000
0000
0330
0000
0001
0000
,
0010
0100
1000
0010
0000
0010
0000
0200
,
0000
0000
0301
1000
0001
0000
0010
0000
0100
1000
0001
0000
0000
0000
0100
0001
,
1000
0000
0000
0000
0000
0000
1010
0000
0000
0000
1000
0001
1000
0000
0000
0000
,
1000
0000
0100
0010
0002
0000
0000
0000
1003
0000
0000
0000
0001
0010
0001
0000
,
0000
0000
1000
0000
2000
0000
0000
0000
3001
0000
0000
0000
1000
0100
1000
0100
,
1000
0001
0010
0000
0100
1000
0100
0010
,
0001
0000
1000
0000
1100
0000
0000
0101
0000
0000
1100
0000
0000
0101
0000
0000
,
1100
0000
0000
0101
0000
0000
1100
0000
0000
0000
0000
0000
2000
0000
0000
0000
,
3001
1000
0100
0010
0002
0100
0000
0103
,
0010
1000
0002
0000
0013
0100
1000
0001
,
2000
0000
0000
0100
0000
0000
3100
0000
0010
0000
0010
0000
0001
1000
0001
1000
,
0200
0000
0310
0001
1000
0100
0020
0001
,
0000
0031
0100
1000
0200
0010
0310
1000
,
0100
0000
0010
0000
0002
0000
0000
1003
0000
0000
0110
0000
1001
0000
0000
0000
,
0001
0000
0020
0000
0130
1000
0100
0010
,
0001
1000
0010
0001
0010
0100
0001
0010
,
0100
0010
2000
3001
0100
1000
0002
1003
,
0100
0000
0001
0000
0200
0000
0310
0001
0010
0000
0100
1000
0100
0000
0000
0000
,
1000
0000
0000
0000
0001
0000
0000
0000
1000
0000
0000
0000
0001
0000
0000
0000
0000
0000
0000
0000
0000
0000
0000
0000
0001
0000
0000
0100
0000
0000
0001
0000
0000
0100
0000
0000
0001
0000
0000
0000
0000
0000
1000
0000
0000
0000
0000
0000
,
0010
0100
0101
0000
0001
0010
0001
1000
,
0100
0010
0011
0001
1000
1000
0010
0010
,
0100
0000
0100
0000
0001
0000
1000
0100
1000
0100
1000
0000
0001
0010
0001
0010
,
0001
0000
0000
0000
0000
0000
0000
0000
1000
0000
0000
0000
0000
0000
0000
0000
0000
0000
0000
0000
0000
0000
0000
0000
0000
0000
0000
0000
0000
0000
0010
0100
,
0010
0000
1000
0000
0001
0000
0100
0000
0001
0000
0000
0010
0000
0000
0010
0000
0000
0000
0000
0000
0000
0000
0000
0000
0000
0000
0000
0000
0000
0000
0000
0000
,
0000
0000
1001
1000
0010
0010
0100
0100
,
0001
0000
0000
0000
0001
0000
0000
0000
1000
0000
0000
0100
0000
0000
1000
0000
0001
0000
1000
0000
0100
0000
0010
0000
0001
0000
0100
0000
0100
0000
0100
0000
,
0010
0010
0010
1000
0001
0000
0101
0000
0000
0000
1000
0000
1100
0000
0000
0000
,
0001
0000
0101
0000
0000
0000
0000
0000
0000
0000
1000
0001
1000
0000
0010
0000
,
0100
0001
1000
1010
0000
0001
0011
0000
,
1000
0000
1010
0000
0000
0000
0000
0000
0000
0000
0000
0000
1000
0010
1000
0000
,
0001
0000
0000
0100
0000
0000
0001
0000
0000
0000
0011
0000
0000
0000
0011
0000
0000
0000
1000
0000
0000
0000
1100
0000
,
0000
1100
0000
0001
0000
1001
0000
1001
0000
1000
0000
1100
,
0000
1100
0000
1010
0000
1001
0000
1100
0000
1001
0000
1010
,
0000
0000
0000
0000
1001
0000
0000
0000
0000
0000
0000
0000
1000
0000
0000
0000
0000
0000
0000
0000
0000
0100
0000
0000
0000
0000
0000
0000
0000
0000
0010
0000
0000
0000
0000
0000
0000
0000
0000
0001
0000
0000
0000
0000
0000
0000
0000
0000
,
0100
0010
2000
0000
0000
0000
0000
0000
,
0000
0002
0000
0000
,
3003
0000
1001
0000
0000
0001
0000
0001
,
0000
0001
0200
0000
0000
0310
0000
0010
,
0000
0010
2000
0000
0000
0100
0000
3100
,
0000
0002
0000
0000
,
1003
0010
1000
0010
1000
0000
0000
0000
0001
0000
1000
0000
0100
0000
0010
0000
,
0001
0000
0001
0100
0010
0000
0000
0000
0010
0000
0010
1000
0001
0000
0000
0101
,
0000
0000
1000
0000
0010
0000
0000
0110
0000
0000
0100
0000
0001
0000
0000
1001
,
0000
0000
0001
0000
0020
0000
0000
0000
0230
0000
0000
0000
1000
0000
0000
1000
,
0000
1300
2002
0000
3003
1000
0100
0010
,
0001
0000
0100
0000
0010
0000
0001
0000
0000
0000
0020
0000
0000
0000
1030
0001
,
1000
0000
0100
0000
0010
0001
0010
0000
0100
0000
1000
0001
1000
0000
0000
0000
,
0000
0000
0220
0000
0330
0000
0001
1000
0010
0000
0000
0100
0000
0000
0100
0000
,
0002
0000
0000
0000
0000
0000
0013
0000
0010
0000
0001
0100
0000
0000
1000
0000
,
0200
0000
0000
0000
0310
0000
1000
0000
0001
0000
0100
0001
0100
0000
0010
0000
,
1000
0000
0000
0000
0001
0010
0001
0010
0100
1000
0100
1000
0001
0010
0100
1000
,
0001
0000
0011
0000
0000
1100
0000
0000
0011
0000
0000
1100
0000
0000
0001
0000
,
2000
0000
3020
0000
,
0130
0100
0001
0001
1000
1000
1100
1100
,
0110
0000
0110
0000
0011
0000
0011
0000
2000
0000
0000
0000
3010
0100
0010
0000
,
0102
0000
0000
0000
1003
0000
0000
0000
0002
0000
0000
0000
0013
0100
0010
0000
,
2100
0000
0000
0000
3001
0000
0000
0000
1000
0100
0010
0001
1000
0000
0000
0000
,
0001
0010
0100
1000
0001
0000
0000
0000
0110
0000
0000
0000
0110
0000
0000
0000
,
1000
0100
0001
1000
0010
0001
2000
0000
0000
0000
0000
0000
,
0000
0000
0002
0000
,
0000
0000
0000
0000
,
0000
0000
0000
0000
,
3003
0000
0000
0000
;

//--------------- dance-single - ----------------
#NOTES:
     dance-single:
     :
     Challenge:
     17:
     0,0,0,0,0:
0000
0000
0000
0000
,
0000
0000
0000
0000
,
0000
0000
0000
0000
,
0000
0000
0000
0000
,
0000
0000
0000
0000
,
0220
0000
0000
0000
,
0000
0000
0000
0330
,
1200
0000
0010
0000
1000
0000
0001
0000
0010
0000
1300
0000
,
0102
0000
1000
0000
0010
0000
0100
0000
2003
0000
0100
0000
3001
0010
0100
1000
,
0002
0000
2003
0000
3020
0000
0230
0000
0302
0000
2003
0000
,
3020
0000
0000
0000
0000
0000
0000
0000
1030
0000
0000
0000
0101
0000
1000
0001
,
0010
0000
0010
0000
0100
1000
0100
0010
0002
0000
0000
0000
0000
0000
0000
0000
,
0000
0000
0000
1003
0000
0000
0001
0000
0000
0100
0000
0000
0101
0000
0000
0000
1001
0000
0000
0000
1100
0000
0000
0000
,
0011
0000
0000
0000
0000
0000
0000
0000
1001
0000
0000
0000
0000
0000
0000
0000
1010
0000
0000
0000
0000
0000
0000
0000
0000
0000
0000
0000
0000
0000
1000
0000
0000
0001
0000
0000
2000
0000
0000
0000
0000
0000
0000
0000
0000
0000
0000
0000
,
3000
0000
0001
0000
1000
0100
0010
0001
1000
0000
0000
0000
0001
0000
1000
0000
,
0010
0000
0100
0001
1000
0000
0001
0000
0020
0000
0000
0000
0130
0000
1000
0000
,
0001
0100
0010
0000
1000
0000
0010
0000
0100
0000
0000
0000
1001
0000
0001
0000
,
0010
0100
0000
0010
0100
0000
1000
0000
0010
0000
1000
0001
1000
0100
0010
0100
,
0010
0001
0100
0010
0100
0001
1000
0010
1000
0000
0000
0000
1001
0000
0000
0000
,
1100
0000
0000
0011
0000
0000
1001
0000
2000
0000
0000
0000
3010
0000
0100
0000
,
0001
1000
0100
0010
0001
0000
0100
0000
0001
0000
1000
0000
0000
0000
2020
0000
,
3030
0000
0001
0010
0001
0000
1000
0000
0010
0100
0010
0000
1000
0000
0100
1000
,
0001
0000
0000
0000
0000
0000
2200
0000
3300
0000
0001
1000
0100
0000
0100
0000
,
0010
0000
0001
0000
0110
0000
1000
0000
0001
0000
0100
0001
0100
0000
0001
0010
,
0001
0000
1000
0000
0110
0000
0001
0000
1000
0000
0100
1000
0100
0000
1000
0010
,
1000
0000
0001
0100
0002
0000
0000
0000
1003
0100
0010
0001
1000
0100
0010
0100
,
0010
0001
0100
0010
2000
3000
0000
1002
0003
0000
2001
3000
0000
1002
0003
0000
,
2001
3000
0000
1002
0003
0000
2001
3000
0010
0100
0010
0100
0002
0000
0000
0000
,
0013
0001
0010
0100
1000
0100
0010
0001
2000
0000
3001
0000
0100
0001
0100
0010
,
1000
0010
0100
0001
2000
0000
3001
0000
0100
0001
1000
0100
1000
0001
0100
0010
,
1000
0001
0000
1000
0001
0000
0100
0000
0010
1000
0010
0100
0001
1000
0100
0010
,
0002
0000
1003
0000
0001
1000
0010
0100
0001
0010
0001
1000
0002
0000
1003
0000
,
0010
0100
0010
1000
0001
0010
0100
1000
0002
0000
0103
0001
0010
0100
0010
0001
,
1000
0010
0100
0001
1000
0000
0000
1001
0000
0000
0001
0000
1000
0000
0000
0000
,
0110
0000
0000
0000
0002
0000
0000
0000
0103
0000
0001
0000
1000
0100
1000
0100
,
0010
0001
0010
0001
1000
0100
0010
0001
1000
0001
0010
0100
1000
0000
0010
0000
,
0100
0001
1100
0001
1000
0001
1010
0001
,
0100
0000
0001
0000
0110
0000
1000
0000
0110
0000
0001
0000
1000
0000
0001
0010
,
0100
0000
0000
0000
1000
0000
0000
0000
0001
0000
0000
0000
0100
0000
0000
0000
0000
0000
0100
0000
0000
0000
0000
0000
0001
0000
0000
0010
0000
0000
0100
0000
0000
0010
0000
0000
0001
0000
0000
0100
0000
0000
0010
0000
0000
1000
0000
0000
,
0010
0000
0100
0000
1001
0000
0001
0000
1000
0100
0010
0001
1000
0000
1000
0000
,
0001
0100
0001
0000
1000
0010
1000
0010
0100
0001
0100
0001
1000
0100
1000
0100
,
0010
0001
0010
0001
2000
0000
3010
0100
0010
1000
0002
0000
0013
0100
0010
0001
,
1000
0000
0010
0000
0100
0000
0001
0000
1000
0000
0000
0000
0000
0000
0000
0000
0000
0000
0000
0000
0000
0000
0000
0000
0000
0000
0000
0000
0000
0000
0001
1000
,
0001
0000
0100
0000
0001
0000
1000
0000
1010
0000
0000
0110
0000
0000
0101
0000
0000
0000
0000
0000
0000
0000
0000
0000
0000
0000
0000
0000
0000
0000
0000
0000
,
0000
0000
0000
0000
1000
0100
0010
0001
1000
0000
0000
0000
1100
0000
0000
0000
0001
0000
0000
0000
0011
0000
0000
0000
0100
0000
0000
0000
1100
0000
0000
0000
,
0010
0000
0000
0000
0011
0000
0000
0000
1000
0000
0100
0000
0010
0000
0001
0000
1000
0000
0010
0000
0100
0000
0001
0000
0010
0001
0010
0001
0100
0001
0100
0001
,
1000
0100
1000
0100
1000
0010
1000
0010
1000
0000
0000
0000
1001
0000
0000
0000
0000
0000
0000
0000
0011
0000
0000
0000
1001
0000
0000
0000
0000
0000
0000
0000
,
1010
0000
1001
0000
0000
0000
1000
0100
0010
0000
0010
0000
0001
0000
0100
0000
,
1000
0100
0101
1001
0000
1100
1001
0000
,
0101
0000
1001
0000
0000
0000
0001
1000
0010
0000
0010
0000
0100
0000
1000
0000
,
0100
0000
0000
0001
0000
0000
0011
0000
0000
0000
0001
0000
1000
0000
0001
0000
0000
0000
1010
0000
0000
0000
1000
0000
,
0001
1000
0000
0101
0000
0001
1000
0001
0000
1100
0000
1000
,
0001
1000
0000
0011
0000
1010
0000
0101
0000
1100
0000
0110
,
0000
0000
0000
0000
0011
0000
0000
0000
0000
0000
0000
0000
1001
0000
0000
0000
0000
0000
0000
0000
0000
1010
0000
0000
0000
0000
0000
0000
0000
0000
0101
0000
0000
0000
0000
0000
0000
0000
0000
0011
0000
0000
0000
0000
0000
0000
0000
0000
,
1100
0011
2000
0000
0000
0000
0000
0000
,
0000
0000
0000
0000
3001
0100
0001
1000
0010
0100
0010
0100
0001
0010
1000
0010
,
0002
1003
0000
0000
,
0000
0000
1001
0000
0000
0001
0000
1000
,
0000
0000
1100
0000
0000
0100
0000
0010
,
0000
0011
0000
0001
,
1000
0100
0010
0001
2000
0000
0000
0000
3010
0000
0100
0010
0100
0000
0001
0000
,
1000
0000
1000
0200
0001
0000
0000
0000
0301
0000
0001
0100
1000
0000
0000
0110
,
0000
0000
1000
0001
1000
0000
0000
0110
0000
0000
0001
1000
0001
0000
0000
0110
,
0000
0000
0100
0010
0100
0000
0000
0000
1001
0000
0000
0000
1100
0000
0000
0101
,
0000
0000
1010
0000
2002
0000
0000
0000
3003
0000
0001
0000
1000
0100
1000
0100
,
0010
0000
0001
0000
0100
0000
1000
0000
0000
0000
0220
0000
0330
0000
0001
1000
,
0001
0000
0010
0100
1000
0100
0010
0000
0001
0100
0010
1000
0010
0000
0000
0000
,
0000
0000
0202
0000
0303
0000
0001
0010
1000
0000
0000
0110
0000
0000
0001
0000
,
2000
0000
0000
0000
3001
0000
0010
0000
0010
0000
1000
0010
0000
0000
0100
0000
,
2001
0000
0000
0000
3100
0000
0010
0001
1000
0000
0100
1000
0001
0000
0010
0001
,
2000
0000
3000
0000
0010
0100
0001
0010
0100
1000
0010
1000
0001
0010
0001
1000
,
0001
0100
0001
1000
0001
0100
0010
1000
0001
0010
0100
1000
0010
0100
0001
1000
,
0020
0000
0000
0030
0200
0000
0000
0300
,
0110
1000
1001
0010
0110
0100
1001
0110
,
1001
0000
0000
0000
0000
0000
0110
0000
0000
0000
0000
0000
1001
0000
0000
0000
0000
0000
1000
0000
0100
0000
0010
0000
0001
0000
0000
0000
0000
0000
0000
0000
0000
0000
0000
0000
0100
0000
0000
0001
0000
0000
1000
0000
0000
0010
0000
0000
,
2000
0000
0000
0000
0000
0000
0000
0000
0000
0000
0000
0000
3100
0000
0000
0000
0010
0000
0000
0000
0001
0000
0000
0000
0200
0000
0000
0000
0000
0000
0000
0000
0000
0000
0000
0000
0310
0000
0000
1000
0000
0000
0001
0000
0000
0100
0000
0000
,
0020
0000
0000
0000
1030
0100
0010
0001
1000
0010
1000
0000
2100
0000
3000
0000
,
0001
0010
0001
0000
0102
0000
0003
0000
1100
0000
0000
0000
0011
0000
0000
0000
,
1000
0100
0100
0001
0010
0010
1000
0000
0000
0000
0000
0000
,
0000
0000
0000
0000
0000
1000
0100
0010
0002
0000
0000
0000
0000
0000
0000
0000
,
0000
0000
0000
0000
,
0003
0000
0000
0000
;
