#TITLE:Celtic Trance;
#SUBTITLE:;
#ARTIST:Dagda;
#TITLETRANSLIT:;
#SUBTITLETRANSLIT:;
#ARTISTTRANSLIT:;
#GENRE:;
#CREDIT:;
#MUSIC:Celtic Trance.ogg;
#BANNER:;
#BACKGROUND:;
#CDTITLE:;
#SAMPLESTART:0.000;
#SAMPLELENGTH:0.000;
#SELECTABLE:YES;
#OFFSET:-0.139;
#BPMS:0.000=90.018;
#STOPS:;
#BGCHANGES:;
#FGCHANGES:;

//--------------- dance-single - ----------------
#NOTES:
     dance-single:
     :
     Beginner:
     1:
     0,0,0,0,0:
0000
0000
0000
0000
,
1000
0000
0000
0001
,
0000
0000
0000
0100
,
0000
0000
0000
0010
,
0000
0000
0000
0100
,
0100
0000
0000
0010
,
0000
0000
0000
0100
,
0000
0000
0000
0000
,
1001
0000
0000
0000
,
2000
0000
3000
0000
,
0002
0000
0003
0000
,
0200
0000
0300
0000
,
0002
0000
0003
0000
,
1000
0000
0000
0000
,
0001
0000
0000
0000
,
2000
0000
3000
0000
,
0001
0000
0000
0000
,
1001
0000
0100
0000
,
0010
0000
0000
0000
,
1000
0000
0001
0000
,
1000
0000
0000
0000
,
0002
0000
0003
0000
,
1000
0000
0001
0000
,
0200
0000
0300
0000
,
0002
0000
0003
0000
,
0110
0000
0020
0000
,
0030
0000
0000
0000
,
1001
0000
0020
0000
,
0030
0000
0000
0000
,
1001
0000
0020
0000
,
0030
0000
0000
0000
,
1001
0000
2000
0000
,
3000
0000
0000
0000
,
1001
0000
0000
0000
;

//--------------- dance-single - ----------------
#NOTES:
     dance-single:
     :
     Easy:
     3:
     0,0,0,0,0:
0000
0000
0000
0000
,
2001
0010
0000
3001
,
0100
0010
1000
0100
,
0010
0001
0100
0010
,
1000
0001
0010
0001
,
2001
0100
0000
3001
,
0100
0010
1000
0100
,
0010
0001
0100
0010
,
2002
3003
0000
0000
,
2000
0000
0000
0100
0000
3002
0000
0000
,
2003
3002
0003
0000
,
2000
0000
0000
0001
0000
3200
0000
0000
,
0320
2030
3000
0001
,
2000
0000
0000
0010
0000
3200
0000
0000
,
0320
0000
0000
0100
0030
0200
0000
0000
,
0302
0000
0000
1000
0000
0023
0000
0000
,
0100
0230
0300
0001
,
1001
0001
2000
0000
,
3010
2000
0000
3001
,
2001
0010
3200
0000
,
0310
0000
0002
0000
0000
0100
0003
0000
,
2000
0001
3100
0010
,
1000
0010
0100
0001
,
2000
0001
0000
3002
,
1000
0000
0000
0023
0000
0000
0030
0000
,
0101
0000
2000
3020
,
0000
1000
0000
0230
0000
0000
0301
0000
,
1001
0000
0000
0000
2000
0000
0000
0001
,
0000
0100
0000
3002
0000
0000
0103
0000
,
1001
0000
0000
0000
2000
0000
0000
0100
,
0000
0001
0000
3002
0000
1003
0000
0000
,
1001
0000
0000
0000
0002
0000
0000
0203
,
0000
0320
0000
2030
0000
0000
3000
0000
,
1001
0000
0000
0000
;

//--------------- dance-single - ----------------
#NOTES:
     dance-single:
     :
     Medium:
     5:
     0,0,0,0,0:
0000
0000
0000
0000
,
2001
0000
0100
3200
0000
0000
1300
0000
,
0001
0000
0100
0000
0010
1000
0001
0000
,
1000
0000
0001
0000
0000
0100
0000
0000
1000
0000
0000
0100
0000
0000
0001
0000
,
0000
0200
0000
0320
,
2030
0000
0100
3200
0000
0000
0320
0000
,
0130
2000
0000
3001
,
0000
0000
1000
0000
0000
0100
0000
0000
0010
0000
0000
0100
0000
0000
1000
0000
,
0020
0000
0030
0000
,
2001
0000
0000
0001
0000
3200
0000
0000
,
0320
1000
1030
0001
0000
0000
1000
0000
,
0002
0000
0000
0100
0000
0023
0000
0000
,
2030
0001
3001
0200
0000
0300
0010
0000
,
2000
0001
0000
0100
0000
0010
3000
0000
,
0002
0100
0000
1000
0000
0100
0003
0000
,
2000
0000
0000
0001
0000
3200
0000
0000
,
0302
0010
0013
0001
0000
0000
1000
0000
,
0001
1000
0001
0100
0020
0000
1030
0000
,
0002
0100
0103
0002
0000
0103
0010
0000
,
1000
0100
1000
0010
0100
0020
0000
0030
,
2000
0001
3001
0200
0000
0320
0000
0030
,
1001
0000
0200
0000
0301
0100
0010
0200
,
0000
0320
0000
0130
0002
0000
0103
0000
,
0020
0000
1000
2030
0000
3002
0100
0000
,
0013
0001
0000
0200
0000
0000
0310
0000
,
1001
0000
1000
0001
1000
0100
1000
0200
,
0000
0302
0000
0203
0000
0000
1300
0000
,
1001
0000
0000
0001
0100
0001
0010
0002
,
0000
2003
0000
3020
0000
0000
0130
0000
,
2001
0000
0000
3001
0100
0020
0000
2030
,
0000
3002
0000
2003
0000
3001
0000
0000
,
0110
0000
0100
0010
0001
0100
0010
2000
,
0000
3200
0000
0320
0000
0000
0030
0000
;

//--------------- dance-single - ----------------
#NOTES:
     dance-single:
     :
     Hard:
     8:
     0,0,0,0,0:
0000
0000
0000
0000
,
1000
0001
0000
1000
0001
0000
0100
0000
0002
0000
0000
0000
1003
0000
0000
0000
,
0001
0000
1000
0001
1000
0000
0000
0000
0010
0000
0100
0000
0001
0000
0000
0000
,
1000
0000
0100
0000
0010
0000
0000
0000
0001
0000
0000
0100
0000
0000
0010
0000
,
1000
0001
0100
0000
0010
1000
0100
0000
,
0010
0001
0000
0010
0001
0000
0100
0000
0010
0000
0000
1000
0001
0000
0100
0000
,
0010
0000
0000
1000
0010
0000
0100
0000
0000
0001
0100
0000
0010
0000
1000
0000
,
0001
0000
1000
0000
0000
0010
0000
0000
0001
0000
0000
0010
0000
0000
1000
0000
,
2002
0000
0000
3003
,
2000
0000
3001
0200
0000
0310
2000
0000
,
3010
0001
0010
2000
0000
0000
3010
0000
,
2000
0000
3001
0200
0000
1300
0200
0000
,
0301
0010
0001
0200
0000
0000
0310
0000
,
1000
0001
0100
0020
0000
1030
0100
0010
,
0001
0001
0100
0020
0000
1030
0001
1000
,
0200
0000
0310
0002
0000
0103
0020
0000
,
1030
0001
1000
0002
0000
0000
0013
0000
,
1100
0000
0010
0001
0010
0000
0001
0000
0100
0000
0020
0000
0100
0000
0030
0000
,
1000
0001
1000
0002
0000
0013
0010
0000
,
1100
0000
0010
0001
0010
0000
0100
0000
0010
0000
0001
0000
0100
0000
0000
0000
,
0010
1000
0010
0200
0000
0302
1000
0000
,
0013
0000
0100
0000
0000
1000
0000
0000
0010
0000
2000
0000
0001
0000
3002
0000
,
0000
0103
0010
1000
0002
0000
1003
0010
,
1000
0100
0000
0010
0001
0000
0020
0000
0000
0000
0031
0000
0100
0000
0001
0000
,
0001
1000
1000
0020
0100
0000
1030
0000
,
1001
0000
0001
0100
0100
0100
0010
2000
,
0000
3001
0100
2000
0000
0000
3100
0000
,
0101
0000
0001
0010
1000
0010
0100
2000
,
0000
3002
0010
0023
0000
0000
0031
1000
,
1001
0000
0001
0100
1000
0200
0001
0302
,
0000
1003
0010
2000
0000
3002
0100
0003
,
0101
0000
0010
1000
0100
1000
0000
2000
,
0000
3002
0000
0203
0000
0000
0300
0000
,
1001
0000
0000
0000
;

//--------------- dance-double - ----------------
#NOTES:
     dance-double:
     :
     Hard:
     9:
     0,0,0,0,0:
00000000
00000000
00000000
00000000
,
00010000
00001000
00000000
00001000
00010000
00000000
00001000
00000000
01000000
00000000
00100000
00000000
10100000
00000000
00000000
00000000
,
10000000
00000000
00010000
00000000
01000000
00100000
00000000
00000000
10000000
00000000
00000000
00010000
01000000
00000000
00010000
00000000
,
00100000
00000000
00001000
00000000
00010000
00001000
00000000
00000000
00010000
00000000
00000000
00000100
00001000
00000000
00000010
00000000
,
00000100
00000000
00000001
00000000
00000001
00000000
00000100
00000000
00000000
00000010
00000000
00000000
00010000
00000000
00000000
00000000
,
00010000
00000100
00000000
00001000
00000100
00000000
00010000
00000000
00001000
00000000
00100000
00000000
00110000
00000000
00000000
00000000
,
00010000
00000000
00100000
00000000
00000100
00001000
00000000
00000000
00000100
00000000
00000000
00010000
00001000
00000000
01000000
00000000
,
00100000
00000000
01000000
00000000
00001000
00010000
00000000
00000000
00001000
00000000
00000000
00100000
00001000
00000000
00010000
00000000
,
00022000
00033000
00000000
00000000
,
00020000
00000000
00000000
00000010
00000000
00000100
00030200
00000000
,
00010300
00010000
00000010
00000020
00000000
00000030
00010100
00000000
,
00002000
00000000
00000000
01000000
00000000
00023000
00000000
00000000
,
00030100
00000100
00010000
00020000
00000000
00030000
00000000
00000000
,
00002000
00100000
00000000
00100000
00000000
00013000
00000000
00001000
,
00020000
00000010
00030000
00000100
00000000
00001000
00000001
00000010
,
00000002
00000000
00000000
00001000
00000000
00000010
00000000
00000000
,
00001003
00000100
00010000
00002000
00000000
00000000
01003000
00000000
,
01001000
00000000
00001000
00010000
00001000
00000000
00100000
00000000
00010000
00000000
01000000
00000000
00100000
00000000
00000000
00000000
,
10000000
00010000
00001000
00000002
00000000
00001003
00000100
00000000
,
00001100
00000000
00000100
00010000
00001000
00000000
00010000
00000000
00001000
00000000
01000000
00000000
00100000
00000000
00000000
00000000
,
00010000
10000000
00010000
02000000
00000000
03002000
00100000
00003000
,
00011000
00000000
00010000
00000000
00000000
00000100
00000000
00000000
00000010
00000000
00000000
00000100
00000000
00000000
00010000
00000000
,
00000000
00000000
00001000
00000000
00000000
01000000
00000000
00000000
00001000
00000000
00000000
00100000
00000000
00000000
00001000
00000000
,
01000000
00100000
00000000
01000000
00010000
00000000
02000000
00000000
00000000
00000000
03100000
00000000
10100000
00000000
01000000
00000000
,
00010000
00100000
00001000
00020000
00000000
00000000
00030100
00000000
,
00010100
00000000
00001000
00000100
00000001
00000100
00001000
00000020
,
00000000
00010000
00000000
00002000
00000030
00000000
00003001
00000000
,
00000011
00000000
00000000
00001000
00000100
00010000
00100000
02000000
,
00000000
23000000
00000000
00200000
30000000
00000000
10300000
00000000
,
01010000
00000000
00000000
01000000
00010000
00001000
00000000
00000002
,
00000000
00002003
00000000
00003200
00000000
00010300
00001000
00100000
,
00110000
00000000
00010000
10000000
00100000
01000000
00001000
00020000
,
00000000
00030020
00000000
00020000
00000000
00030030
00000000
00000000
,
00000011
00000000
00000000
00000000
;
