#VERSION:0.83;
#TITLE:Canning Factory;
#SUBTITLE:;
#ARTIST:Matt Simmonds;
#TITLETRANSLIT:;
#SUBTITLETRANSLIT:;
#ARTISTTRANSLIT:;
#GENRE:POLKA;
#ORIGIN:;
#CREDIT:;
#BANNER:canningfactory-bn.png;
#BACKGROUND:canningfactory-bg.png;
#PREVIEWVID:;
#JACKET:canningfactory-jacket.png;
#CDIMAGE:;
#DISCIMAGE:;
#LYRICSPATH:;
#CDTITLE:cdtitle.png;
#MUSIC:canningfactory.ogg;
#OFFSET:-0.040816;
#SAMPLESTART:45.125999;
#SAMPLELENGTH:12.000000;
#SELECTABLE:YES;
#BPMS:0.000=99.944,
74.000=90.815,
75.000=97.380,
76.000=79.066,
77.000=53.318,
78.000=149.938,
210.000=136.055,
211.000=136.680,
212.000=125.623,
213.000=115.254,
214.000=100.000;
#STOPS:;
#DELAYS:;
#WARPS:;
#TIMESIGNATURES:0.000=4=4;
#TICKCOUNTS:0.000=4;
#COMBOS:0.000=1;
#SPEEDS:0.000=1.000=0.000=0;
#SCROLLS:0.000=1.000;
#FAKES:;
#LABELS:0.000=Song Start;
#BGCHANGES:;
#KEYSOUNDS:;
#ATTACKS:
;

//---------------dance-single - ----------------
#NOTEDATA:;
#CHARTNAME:;
#STEPSTYPE:dance-single;
#DESCRIPTION:;
#CHARTSTYLE:;
#DIFFICULTY:Hard;
#METER:14;
#RADARVALUES:0.568015,0.848889,0.046668,0.102669,0.704685,426.000000,421.000000,5.000000,11.000000,16.000000,0.000000,0.000000,0.000000,0.000000,0.568015,0.848889,0.046668,0.102669,0.704685,426.000000,421.000000,5.000000,11.000000,16.000000,0.000000,0.000000,0.000000,0.000000;
#CREDIT:TonyAkita;
#NOTES:
0000
0000
0000
0000
,
0000
0000
0000
0000
,
1000
0000
0001
1000
0000
0001
1000
0100
0001
0100
0010
0001
,
1000
0010
0001
0010
0100
0001
1000
0000
0000
0000
0000
0100
,
0010
0000
0000
0001
0010
0001
0010
0000
1000
0000
0010
0000
0100
0000
0000
1000
0100
1000
0100
0000
0010
0000
0001
0000
,
1000
0010
0001
0010
1000
0010
0100
1000
0100
0001
0000
0100
,
0010
0000
0000
1000
0010
1000
0010
0000
0001
0000
0010
0000
0100
0000
0000
0001
0100
0001
0100
0000
0010
0000
1000
0000
,
0001
0010
1000
0010
0100
1000
0001
0000
0000
1001
0000
0000
,
1000
0000
0001
1000
0000
0001
1000
0010
0001
0010
0100
0001
,
1000
0100
0001
0100
0010
0001
1000
0010
0100
0001
0000
0000
,
0001
0000
1000
0001
0000
1000
0001
0010
1000
0010
0100
1000
,
0001
0100
1000
0100
0010
1000
0001
0000
0000
0000
0000
0100
,
0010
0000
0000
1000
0010
1000
0010
0000
0001
0000
0010
0000
0100
0000
0000
0001
0100
0001
0100
0000
0010
0000
1000
0000
,
0001
0010
1000
0010
0001
0010
0100
0001
0100
1000
0000
0100
,
0010
0000
0000
0001
0010
0001
0010
0000
1000
0000
0010
0000
0100
0000
0000
1000
0100
1000
0100
0000
0010
0000
0001
0000
,
1000
0000
0010
0000
0001
0000
0010
0000
0100
0000
0001
0000
0020
0000
0000
0000
0000
0000
0030
0100
0010
0100
0010
0100
,
0010
0100
0010
0100
0010
0100
0010
0100
0010
0001
0010
0100
1000
0100
0010
0001
0020
0000
0000
0000
0000
0031
0010
0100
,
1000
0000
1000
0010
0000
0010
0001
0000
0001
0010
0000
0010
,
1000
0000
1000
0010
0000
0010
0100
0000
0000
0200
0000
0000
,
0302
0000
0000
0000
0023
0000
0000
0000
0031
0000
0000
0001
0010
0000
0000
0010
,
1000
0000
0000
1000
0010
0000
0000
0000
0100
0000
0000
0100
0001
0000
0000
0001
,
0100
0000
0000
0100
1000
0000
0000
0000
0001
0000
0100
0000
0010
0000
0100
0000
,
1000
0100
0010
0000
1000
0100
0010
0001
,
0100
0000
0010
0000
0001
0000
0010
0000
1000
0000
0000
1000
0010
0000
0000
0010
,
0001
0000
0000
0001
0010
0000
0000
0000
0100
0000
0000
0100
1000
0000
0000
1000
,
0100
0000
0000
0100
0001
0000
0000
0000
1000
0000
0100
0000
0010
0000
0100
0000
,
0001
0100
0010
0000
0001
0100
0010
1000
,
0001
0000
0000
0000
1000
0100
0010
0001
,
1000
001M
0000
M010
0001
0000
0000
0000
1000
010M
0000
M100
0001
0000
0000
0000
,
1000
001M
0000
M010
0001
0000
0000
0000
0001
0000
0100
0000
0010
0000
1000
0000
,
0001
M010
0000
001M
1000
0000
0000
0000
0001
0000
0100
0000
0010
0000
1000
0000
,
0010
0001
0010
1000
0100
1000
0010
1000
,
0100
1000
0001
0000
0100
0001
0010
0001
,
0100
0001
1000
0000
0100
0001
0100
1000
,
0100
0010
0001
0000
2000
0000
0000
0000
,
0010
0000
0000
0000
3010
0000
0000
0000
1000
0000
0000
1000
0010
0000
0000
0010
,
0001
0000
0000
0001
0010
0000
0000
0000
0100
0000
0000
0100
1000
0000
0000
1000
,
0100
0000
0000
0100
0001
0000
0000
0000
1000
0000
0100
0000
0010
0000
0100
0000
,
0001
0100
0010
0000
0001
0100
0010
1000
,
0100
0000
0010
0000
1000
0000
0010
0000
0001
0000
0000
0001
0010
0000
0000
0010
,
1000
0000
0000
1000
0010
0000
0000
0000
0100
0000
0000
0100
0001
0000
0000
0001
,
0100
0000
0000
0100
1000
0000
0000
0000
0001
0000
0100
0000
0010
0000
0100
0000
,
1000
0100
0010
0000
1000
0100
0010
0001
,
1000
0000
0000
0000
0001
0100
0010
1000
,
0001
M010
0000
001M
1000
0000
0000
0000
0001
M100
0000
010M
1000
0000
0000
0000
,
0001
M010
0000
001M
1000
0000
0000
0000
1000
0000
0100
0000
0010
0000
0001
0000
,
1000
001M
0000
M010
0001
0000
0000
0000
1000
0000
0100
0000
0010
0000
0001
0000
,
0010
1000
0010
0001
0100
0001
0010
0001
,
0100
0001
1000
0000
0100
1000
0010
1000
,
0100
1000
0001
0000
0100
1000
0100
0001
,
0100
0010
1000
0000
0002
0000
0000
0000
,
0010
0013
0002
0023
,
2030
3200
0301
0011
,
1010
0101
1100
0000
;

//---------------dance-single - ----------------
#NOTEDATA:;
#CHARTNAME:;
#STEPSTYPE:dance-single;
#DESCRIPTION:;
#CHARTSTYLE:;
#DIFFICULTY:Medium;
#METER:11;
#RADARVALUES:0.422678,0.449412,0.084002,0.056001,0.266007,317.000000,308.000000,9.000000,6.000000,0.000000,0.000000,0.000000,0.000000,0.000000,0.422678,0.449412,0.084002,0.056001,0.266007,317.000000,308.000000,9.000000,6.000000,0.000000,0.000000,0.000000,0.000000,0.000000;
#CREDIT:TonyAkita;
#NOTES:
0000
0000
0000
0000
,
0000
0000
0000
0000
,
1000
0000
0010
0001
0000
0010
1000
0000
0000
0010
0000
0100
,
1000
0000
0000
0100
0000
0001
0010
0000
0000
0000
0000
0100
,
1000
0000
0000
0001
0010
0001
0010
0000
0000
0100
1000
0100
,
1000
0000
0100
0001
0000
0100
1000
0000
0100
0010
0000
0000
,
0001
0000
0000
1000
0010
1000
0010
0000
0000
0100
0001
0100
,
0001
0000
0100
1000
0000
0100
0010
0000
0000
1001
0000
0000
,
1000
0000
0010
0001
0000
0010
1000
0000
0000
0010
0000
0100
,
1000
0000
0000
0100
0000
0001
0010
0000
0100
1000
0000
0000
,
0001
0000
0010
1000
0000
0010
0001
0000
0000
0010
0000
0100
,
0001
0000
0000
0100
0000
1000
0010
0000
0000
0000
0000
0100
,
0001
0000
0000
1000
0010
1000
0010
0000
0000
0100
0001
0100
,
0001
0000
0100
1000
0000
0100
0001
0000
0100
0010
0000
0000
,
1000
0000
0000
0001
0010
0001
0010
0000
0000
0100
1000
0100
,
1000
0000
0100
0001
0000
0100
0020
0000
0000
0030
0001
1000
,
0001
1000
0001
1000
0001
1000
0001
0000
0000
0000
0100
0010
,
1000
0010
0001
0010
,
1000
0001
0010
0200
,
2300
0000
3020
0000
1030
0010
0001
0010
,
1000
0010
0100
0000
0001
0100
1000
0100
,
0001
0100
0010
0000
1000
0100
0010
0000
,
0001
0000
1000
0000
0001
0100
1000
0000
,
0100
0010
0100
0000
0001
0010
1000
0010
,
0001
0010
0100
0000
1000
0100
0001
0100
,
1000
0100
0010
0000
0001
0100
0010
0000
,
1000
0000
0001
0000
0010
0100
0010
0000
,
0110
0000
0000
0000
1000
0010
0001
0010
,
1000
0000
0000
0010
0100
0000
0000
0000
0001
0000
0000
0100
0010
0000
0000
0000
,
1000
0000
0000
0010
0100
0000
0000
0000
0001
0000
0010
0000
1000
0000
0010
0000
,
0001
0000
0000
0010
0100
0000
0000
0000
1000
0000
0001
0000
1000
0000
0001
0000
,
1000
1001
0001
0010
,
0001
0100
0010
0000
1000
0000
0010
0000
,
1000
0100
0010
0000
0001
0000
0010
0000
,
1000
0010
0001
0000
2000
0000
0000
0000
,
0010
0000
3010
0000
1000
0010
0001
0010
,
1000
0010
0100
0000
0001
0100
1000
0100
,
0001
0100
0010
0000
1000
0100
0010
0000
,
0001
0000
1000
0000
0001
0100
1000
0000
,
0100
0010
0100
0000
0001
0010
1000
0010
,
0001
0010
0100
0000
1000
0100
0001
0100
,
1000
0100
0010
0000
0001
0100
0010
0000
,
1000
0000
0001
0000
0010
0100
0010
0000
,
0110
0000
0000
0000
1000
0010
0001
0010
,
1000
0000
0000
0010
0100
0000
0000
0000
0001
0000
0000
0100
0010
0000
0000
0000
,
1000
0000
0000
0010
0100
0000
0000
0000
0001
0000
0010
0000
1000
0000
0010
0000
,
0001
0000
0000
0010
0100
0000
0000
0000
1000
0000
0001
0000
1000
0000
0001
0000
,
1000
1001
0001
0010
,
0001
0100
0010
0000
1000
0000
0100
0000
,
1000
0010
0100
0000
0001
0000
0100
0000
,
1000
0100
0001
0000
2000
0000
0000
0000
,
0010
3010
1000
0010
,
0001
0100
1000
1010
,
0011
1100
0101
0000
;

//---------------dance-single - ----------------
#NOTEDATA:;
#CHARTNAME:;
#STEPSTYPE:dance-single;
#DESCRIPTION:;
#CHARTSTYLE:;
#DIFFICULTY:Easy;
#METER:6;
#RADARVALUES:0.309342,0.349543,0.140004,0.056001,0.065335,232.000000,217.000000,15.000000,6.000000,0.000000,0.000000,0.000000,0.000000,0.000000,0.309342,0.349543,0.140004,0.056001,0.065335,232.000000,217.000000,15.000000,6.000000,0.000000,0.000000,0.000000,0.000000,0.000000;
#CREDIT:TonyAkita;
#NOTES:
0000
0000
0000
0000
,
0000
0000
0000
0000
,
1000
1000
0001
0100
,
1000
0100
0001
0000
,
0010
0000
0100
0001
0000
0000
0100
0000
0010
0001
0000
0000
,
1000
0000
0010
0001
0000
0010
1000
0000
0010
0001
0000
0000
,
0010
0000
0100
1000
0000
0000
0100
0000
0010
1000
0000
0000
,
0001
1000
1001
0000
,
0001
0001
1000
0010
,
0001
0010
1000
0001
,
1000
1000
0001
0100
,
1000
0100
0001
0000
,
0010
0000
0100
0001
0000
0000
0100
0000
0010
0001
0000
0000
,
1000
0000
0010
0001
0000
0010
1000
0000
0010
0001
0000
0000
,
0010
0000
0100
1000
0000
0000
0100
0000
0010
1000
0000
0000
,
0001
0010
0200
0000
,
0000
0000
0300
0000
,
1000
0100
0001
0100
,
1000
0100
0010
0200
,
2300
3020
0031
0010
,
1000
1010
0001
0100
,
0001
0011
0100
1000
,
0001
0100
0010
0001
,
0010
1000
0001
0010
,
0001
1100
0001
0100
,
0001
1010
0100
0001
,
1000
0100
0010
0001
,
1001
0000
1000
0010
,
0100
0100
0100
0000
0010
0010
0010
0000
,
0100
0100
0100
0000
0001
0000
0010
0000
,
0100
0100
0100
0000
1000
0000
0001
0000
,
0100
0010
0100
1000
,
0100
0001
0010
1000
,
0010
0001
1000
0010
,
0100
0001
0020
0000
,
0001
0031
0001
0010
,
0001
1100
0001
0100
,
0001
1010
0100
0001
,
1000
0100
0010
1000
,
0010
0001
1000
0010
,
1000
0101
1000
0100
,
1000
0011
0100
1000
,
0001
0100
0010
1000
,
1001
0000
0001
0010
,
0100
0100
0100
0000
0010
0010
0010
0000
,
0100
0100
0100
0000
1000
0000
0010
0000
,
0100
0100
0100
0000
0001
0000
1000
0000
,
0100
0010
0100
0001
,
0100
1000
0010
0001
,
0010
1000
0001
0010
,
0100
1000
0020
0000
,
1000
1030
1000
0010
,
0001
0100
1000
1010
,
0011
1100
0101
0000
;

//---------------dance-single - ----------------
#NOTEDATA:;
#CHARTNAME:;
#STEPSTYPE:dance-single;
#DESCRIPTION:;
#CHARTSTYLE:;
#DIFFICULTY:Beginner;
#METER:3;
#RADARVALUES:0.166671,0.174771,0.065335,0.028001,0.000000,125.000000,118.000000,7.000000,3.000000,0.000000,0.000000,0.000000,0.000000,0.000000,0.166671,0.174771,0.065335,0.028001,0.000000,125.000000,118.000000,7.000000,3.000000,0.000000,0.000000,0.000000,0.000000,0.000000;
#CREDIT:TonyAkita;
#NOTES:
// measure 0
0000
0000
0000
0000
,  // measure 1
0000
0000
0000
0000
,  // measure 2
1000
1000
1000
0000
,  // measure 3
0001
0000
1001
0000
,  // measure 4
0001
0000
0100
0000
,  // measure 5
0010
0010
0010
0010
,  // measure 6
0010
0000
0100
0000
,  // measure 7
0001
0000
1001
0000
,  // measure 8
0001
0001
0001
0000
,  // measure 9
0010
0000
0100
0000
,  // measure 10
1000
1000
1000
0000
,  // measure 11
0001
0000
1001
0000
,  // measure 12
1000
0000
0100
0000
,  // measure 13
0010
0010
0010
0010
,  // measure 14
0010
0000
0100
0000
,  // measure 15
1000
0000
0020
0000
,  // measure 16
0000
0000
0030
0000
,  // measure 17
1001
0000
1000
0000
,  // measure 18
1000
0000
0000
0001
,  // measure 19
0001
0001
0010
0000
,  // measure 20
0001
0000
0010
0000
,  // measure 21
0100
0000
0010
0000
,  // measure 22
1000
0000
0010
0000
,  // measure 23
0001
0000
1000
0000
,  // measure 24
0010
0000
0100
0000
,  // measure 25
0010
0000
0001
0000
,  // measure 26
0010
0000
1000
0000
,  // measure 27
1001
0000
0001
0001
,  // measure 28
0001
0000
0010
0000
,  // measure 29
0001
0000
1000
1000
,  // measure 30
1000
0000
0010
0000
,  // measure 31
0100
0000
0001
0001
,  // measure 32
0001
0000
1000
1000
,  // measure 33
1000
0000
0010
0010
,  // measure 34
0010
0000
0200
0000
,  // measure 35
0300
0000
0010
0000
,  // measure 36
1000
0000
0010
0000
,  // measure 37
0100
0000
0010
0000
,  // measure 38
0001
0000
0010
0000
,  // measure 39
1000
0000
0001
0000
,  // measure 40
0010
0000
0100
0000
,  // measure 41
0010
0000
1000
0000
,  // measure 42
0010
0000
0001
0000
,  // measure 43
1001
0000
1000
1000
,  // measure 44
1000
0000
0010
0000
,  // measure 45
1000
0000
0001
0001
,  // measure 46
0001
0000
0010
0000
,  // measure 47
0100
0000
1000
1000
,  // measure 48
1000
0000
0001
0001
,  // measure 49
0001
0000
0010
0010
,  // measure 50
0010
0000
0200
0000
,  // measure 51
0300
0000
1000
0000
,  // measure 52
0100
0000
0001
0000
,  // measure 53
0010
0000
1001
0000
;
