#VERSION:0.83;
#TITLE:CRASH!;
#SUBTITLE:;
#ARTIST:mr.BRIAN & THE FINAL BAND;
#TITLETRANSLIT:;
#SUBTITLETRANSLIT:;
#ARTISTTRANSLIT:;
#GENRE:;
#ORIGIN:;
#CREDIT:;
#BANNER:CRASH!-bn.png;
#BACKGROUND:CRASH!-bg.png;
#PREVIEWVID:;
#JACKET:CRASH!-jacket.png;
#CDIMAGE:;
#DISCIMAGE:;
#LYRICSPATH:;
#CDTITLE:;
#MUSIC:CRASH!.ogg;
#OFFSET:0.000000;
#SAMPLESTART:50.407001;
#SAMPLELENGTH:20.000000;
#SELECTABLE:YES;
#DISPLAYBPM:200.000000;
#BPMS:0.000=198.700,
4.000=200.000;
#STOPS:;
#DELAYS:;
#WARPS:;
#TIMESIGNATURES:0.000=4=4;
#TICKCOUNTS:0.000=4;
#COMBOS:0.000=1;
#SPEEDS:0.000=1.000=0.000=0;
#SCROLLS:0.000=1.000;
#FAKES:;
#LABELS:0.000=Song Start;
#BGCHANGES:;
#KEYSOUNDS:;
#ATTACKS:
;

//---------------dance-single - ----------------
#NOTEDATA:;
#CHARTNAME:;
#STEPSTYPE:dance-single;
#DESCRIPTION:;
#CHARTSTYLE:;
#DIFFICULTY:Challenge;
#METER:13;
#RADARVALUES:0.765880,0.811813,0.388893,0.259262,0.027778,579.000000,537.000000,42.000000,28.000000,0.000000,0.000000,0.000000,0.000000,0.000000,0.765880,0.811813,0.388893,0.259262,0.027778,579.000000,537.000000,42.000000,28.000000,0.000000,0.000000,0.000000,0.000000,0.000000;
#CREDIT:;
#DISPLAYBPM:200.000000;
#NOTES:
0000
0000
0000
0000
,
0000
0000
0000
0000
,
0000
0000
0000
0000
,
0000
0000
0000
0000
,
0000
0000
0000
0000
,
1000
0010
0100
0001
0010
0100
1000
0001
,
0100
0010
1000
0100
0010
0100
1000
0001
,
0010
0001
0100
0010
1000
0100
0010
0001
,
0100
0010
1000
0001
0010
0100
1000
0000
,
2100
0100
3100
0000
0012
0010
0013
0000
,
0001
0100
0010
1000
0100
0010
0001
0000
,
1000
0010
0100
0010
1000
0100
0010
0100
,
1000
0001
0010
0001
0100
0010
1000
0000
,
0201
0001
0301
0000
1020
1000
1030
0000
,
1001
0100
0010
0000
0110
1000
0001
0000
,
0010
0001
0100
0010
1000
0100
0010
0001
,
0100
0010
1000
0001
0010
0100
1000
0000
,
1001
0000
0010
0100
0001
0010
0100
1000
,
0010
0110
0000
0100
0001
1000
0100
0000
,
1100
0000
1000
0010
0100
0001
0010
0100
,
1000
1010
0000
0010
0100
0001
0010
0000
,
0011
0000
0001
1000
0010
1000
0100
0010
,
0001
0101
0000
1000
0001
0100
0010
0000
,
2000
0001
3001
0000
0200
0010
0310
0000
,
0002
1000
1003
0000
0020
0100
0130
0000
,
0110
0000
0010
1000
0001
0010
0001
0100
,
0010
1000
0100
0010
0100
1000
0001
0000
,
0011
0000
1000
0001
0010
0100
0010
0001
,
0100
0010
1000
0001
1000
0100
0010
0000
,
1100
0000
0010
0001
0100
0010
1000
0001
,
0010
0100
0010
0001
0100
0010
1000
0000
,
0002
0010
0013
0000
2000
0100
3100
0000
,
0020
1000
1030
0000
0200
0001
0301
0000
,
1001
0000
0010
0000
0100
0001
1000
0000
,
0001
0100
0010
0000
1000
0100
0001
0000
,
0010
0001
0100
0010
1000
0001
0100
0000
,
0001
1000
0100
0010
0001
1000
0010
0000
,
1010
0000
0001
0000
1000
0100
0010
0000
,
0001
1000
0010
0000
1000
0100
0001
0000
,
0010
0001
0100
0010
1000
0100
0010
0000
,
0001
1000
0010
1000
0100
0010
0001
0100
,
0000
0001
1000
0010
0100
0000
0101
0000
,
0021
0001
0031
0000
1002
0100
0103
0000
,
0010
1000
0100
0010
0100
0010
0001
0000
,
0100
0001
0010
0100
0010
0001
1000
0010
,
1000
0010
0100
0001
0010
0100
1000
0000
,
2010
0010
3010
0000
0201
1000
1300
0000
,
0110
0001
0010
0000
1100
1000
0100
0000
,
0010
0001
0100
0010
1000
0100
0010
0100
,
0010
0001
1000
0010
0100
0001
1000
0000
,
2010
0100
3100
0000
0021
1000
1030
0000
,
0001
1000
0100
0010
0001
0100
1000
0000
,
0001
1000
0010
1000
0100
0010
0001
0100
,
0010
1000
0100
1000
0001
0100
0010
0000
,
0210
0001
0301
0000
1002
0010
0013
0000
,
1100
0001
0100
0000
0101
0010
1000
0000
,
0100
0010
0001
0100
0010
1000
0001
1000
,
0100
0010
0001
0100
0010
1000
0001
0000
,
1000
0010
0100
0010
0000
1000
0001
0100
,
0000
0001
0010
0100
0000
1000
0001
0000
,
0100
0001
0010
0100
0000
1000
0010
0100
,
0000
0010
0100
0010
0000
1000
0001
0000
,
0010
0001
0100
0010
1000
0001
0100
0000
,
0001
0010
0100
1000
0010
0100
0001
0000
,
1000
0010
0100
0001
1000
0100
0010
0001
,
0000
0100
0010
1000
0001
0000
1001
0000
,
1020
1000
1030
0000
0201
0001
0301
0000
,
1000
0001
0010
0100
0010
0001
1000
0000
,
0011
0001
0100
0010
1000
0100
0010
0001
,
0100
0010
1000
0001
0010
0100
1000
0000
,
2100
0001
3001
0000
0002
0010
0013
0000
,
0110
0010
0001
0100
0010
1000
0001
0000
,
1000
0010
1000
0100
0010
0001
0100
0010
,
1000
0100
0010
0001
0100
0010
1000
0000
,
0012
0100
0103
0000
0201
0001
0301
0000
,
0010
0100
0010
1000
0100
0010
0001
0000
,
0100
0010
1000
0100
1000
0001
0010
0100
,
0010
0001
0100
0010
1000
0001
0010
0000
,
1002
1000
1003
0000
2100
0010
3010
0000
,
1010
0010
0100
0001
0010
0100
1000
0000
,
0001
1000
0010
1000
0100
0010
0001
0100
,
0010
0100
0010
1000
0100
0010
0001
0000
,
1000
0100
1000
0100
1000
0000
0000
0000
0001
0100
0001
0100
0001
0000
0000
0000
,
1000
0001
1000
0001
1000
0000
0010
0000
0110
0000
0000
0000
0000
0000
0000
0000
;

//---------------dance-double - ----------------
#NOTEDATA:;
#CHARTNAME:;
#STEPSTYPE:dance-double;
#DESCRIPTION:;
#CHARTSTYLE:;
#DIFFICULTY:Challenge;
#METER:13;
#RADARVALUES:0.760589,0.811813,0.351855,0.259262,0.027778,575.000000,537.000000,38.000000,28.000000,0.000000,0.000000,0.000000,0.000000,0.000000,0.760589,0.811813,0.351855,0.259262,0.027778,575.000000,537.000000,38.000000,28.000000,0.000000,0.000000,0.000000,0.000000,0.000000;
#CREDIT:;
#DISPLAYBPM:200.000000;
#NOTES:
// measure 0
00000000
00000000
00000000
00000000
,  // measure 1
00000000
00000000
00000000
00000000
,  // measure 2
00000000
00000000
00000000
00000000
,  // measure 3
00000000
00000000
00000000
00000000
,  // measure 4
00000000
00000000
00000000
00000000
,  // measure 5
00000001
00001000
00000010
00000100
00000010
00001000
00000100
00010000
,  // measure 6
00001000
01000000
00100000
10000000
01000000
00100000
00010000
01000000
,  // measure 7
00001000
00010000
00000100
00000010
00000100
00001000
00000010
00000100
,  // measure 8
00000001
00000010
00000001
00001000
00000100
00010000
00001000
00000000
,  // measure 9
02001000
00100000
03100000
00000000
10200000
10000000
10300000
00000000
,  // measure 10
00010000
10000000
00100000
10000000
01000000
00100000
00010000
00000000
,  // measure 11
01000000
00001000
00010000
00000100
00010000
00000010
00000100
00000001
,  // measure 12
00000010
00000100
00001000
00000001
00000100
00000010
00001000
00000000
,  // measure 13
00002100
00000001
00003001
00000000
00000012
00000100
00000103
00000000
,  // measure 14
00001001
00000100
00000010
00000000
00000110
00010000
00001000
00000000
,  // measure 15
00100000
00001000
01000000
00100000
10000000
01000000
00100000
00010000
,  // measure 16
01000000
00001000
00010000
00001000
00100000
00001000
01000000
00000000
,  // measure 17
01100000
00000000
00010000
10000000
01000000
00100000
01000000
10000000
,  // measure 18
00100000
10100000
00000000
10000000
00010000
01000000
00001000
00000000
,  // measure 19
00011000
00000000
00010000
00000010
00000100
00000010
00001000
00000100
,  // measure 20
00000010
00000011
00000000
00000001
00000100
00000010
00001000
00000000
,  // measure 21
00001100
00000000
00000100
00010000
00001000
00100000
00001000
00010000
,  // measure 22
00000100
00010100
00000000
00010000
00000010
00001000
00000001
00000000
,  // measure 23
00002000
00000100
00003100
00000000
00000200
00010000
00010300
00000000
,  // measure 24
00020000
00001000
00031000
00000000
00200000
01000000
01300000
00000000
,  // measure 25
11000000
00000000
10000000
00100000
01000000
00010000
00100000
01000000
,  // measure 26
10000000
00100000
01000000
00100000
10000000
00010000
01000000
00000000
,  // measure 27
01010000
00000000
00001000
00010000
00001000
01000000
00100000
10000000
,  // measure 28
01000000
00100000
00010000
01000000
00001000
00010000
00000100
00000000
,  // measure 29
00001100
00000000
00010000
00000010
00000100
00000001
00000010
00000100
,  // measure 30
00001000
00000010
00000100
00000001
00000010
00000100
00001000
00000000
,  // measure 31
00000200
00010000
00010300
00000000
00020000
00001000
00031000
00000000
,  // measure 32
00002000
00100000
00103000
00000000
00200000
00010000
00310000
00000000
,  // measure 33
11000000
00000000
00010000
00000000
01000000
00100000
10000000
00000000
,  // measure 34
00100000
10000000
01000000
00000000
00100000
00001000
00010000
00000000
,  // measure 35
00000010
00000100
00000010
00001000
00000100
00000010
00000001
00000000
,  // measure 36
00001000
00000010
00000100
00000001
00000100
00000010
00001000
00000000
,  // measure 37
00001001
00000000
00000010
00000000
00001000
00000001
00000100
00000000
,  // measure 38
00000010
00010000
00001000
00000000
00010000
00000100
00001000
00000000
,  // measure 39
00000100
00010000
00001000
00100000
00010000
01000000
00100000
00000000
,  // measure 40
01000000
00010000
00100000
01000000
10000000
00100000
01000000
00010000
,  // measure 41
00000000
00001000
00010000
00001000
00010000
00000000
00011000
00000000
,  // measure 42
00000210
00000010
00000310
00000000
00000012
00001000
00001003
00000000
,  // measure 43
00000100
00001000
00000010
00000100
00000010
00010000
00000100
00000000
,  // measure 44
00001000
00000010
00000100
00000001
00000010
00000100
00001000
00000010
,  // measure 45
00010000
00000100
00010000
00001000
01000000
00100000
10000000
00000000
,  // measure 46
00120000
01000000
01030000
00000000
20100000
00010000
30010000
00000000
,  // measure 47
01000000
00010000
00100000
00010000
01000000
00100000
10000000
00000000
,  // measure 48
01000000
00100000
00010000
01000000
00100000
10000000
00010000
01000000
,  // measure 49
00001000
00010000
00000100
00001000
00000010
00000100
00000001
00000000
,  // measure 50
00000201
00000010
00000310
00000000
00002001
00000100
00003100
00000000
,  // measure 51
00000001
00001000
00000100
00000010
00000100
00010000
00001000
00000000
,  // measure 52
00010000
00000100
00001000
00000010
00000100
00000001
00001000
00000100
,  // measure 53
00010000
00001000
01000000
00100000
01000000
00010000
10000000
00000000
,  // measure 54
20010000
01000000
31000000
00000000
00210000
00001000
00301000
00000000
,  // measure 55
00010000
00100000
01000000
10000000
00100000
01000000
00010000
00000000
,  // measure 56
00100000
00001000
00010000
00001000
01000000
00100000
01000000
00010000
,  // measure 57
00100000
00001000
00010000
00000100
00001000
00000010
00000100
00000000
,  // measure 58
00000001
00000010
00000001
00000100
00000000
00000010
00001000
00000100
,  // measure 59
00000000
00001000
00000010
00000100
00000000
00000001
00001000
00000000
,  // measure 60
00000100
00010000
00001000
01000000
00000000
00100000
01000000
00010000
,  // measure 61
00000000
10000000
01000000
00100000
00000000
00001000
00010000
00000000
,  // measure 62
00001000
01000000
00100000
10000000
00000000
01000000
00100000
00010000
,  // measure 63
00000000
01000000
00001000
00010000
00000000
00000010
00000100
00000000
,  // measure 64
00000001
00000010
00000100
00001000
00000010
00000100
00000001
00001000
,  // measure 65
00000000
00010000
00001000
00010000
00001000
00000000
00011000
00000000
,  // measure 66
00201000
10000000
10300000
00000000
00120000
01000000
01030000
00000000
,  // measure 67
00100000
10000000
01000000
00100000
00010000
10000000
00100000
00000000
,  // measure 68
01000000
00010000
00100000
01000000
00100000
00001000
00010000
00001000
,  // measure 69
01000000
00100000
10000000
01000000
00100000
00001000
00010000
00000000
,  // measure 70
00020100
00001000
00031000
00000000
00010020
00000100
00000130
00000000
,  // measure 71
00001001
00000010
00001000
00000100
00000010
00000001
00001000
00000000
,  // measure 72
00000010
00000100
00000010
00001000
00000100
00000010
00000001
00000100
,  // measure 73
00000010
00010000
00001000
00010000
00000100
00010000
00000010
00000000
,  // measure 74
00012000
00100000
00103000
00000000
02100000
10000000
13000000
00000000
,  // measure 75
01000000
10000000
00100000
01000000
00010000
00100000
01000000
00000000
,  // measure 76
00100000
00010000
01000000
00010000
00100000
00001000
00010000
00000100
,  // measure 77
00001000
00000010
00000100
00000001
00000010
00000100
00001000
00000000
,  // measure 78
00000201
00000001
00000301
00000000
00002001
00000010
00003010
00000000
,  // measure 79
00001100
00001000
00000100
00000010
00000100
00001000
00000010
00000000
,  // measure 80
00010000
00001000
01000000
00100000
10000000
01000000
00100000
00001000
,  // measure 81
00010000
00000100
00001000
00000010
00000100
00000001
00001000
00000000
,  // measure 82
00010000
00000100
00010000
00000100
00010000
00000000
00000000
00000000
00001000
01000000
00001000
01000000
00001000
00000000
00000000
00000000
,  // measure 83
00010000
00001000
00010000
00001000
00010000
00000000
00001000
00000000
00011000
00000000
00000000
00000000
00000000
00000000
00000000
00000000
;
