#TITLE:CARTE BLANCHE -TISF mix-;
#SUBTITLE:;
#ARTIST:Remixed by TISF;
#TITLETRANSLIT:;
#SUBTITLETRANSLIT:;
#ARTISTTRANSLIT:;
#GENRE:;
#CREDIT:;
#MUSIC:CARTE BLANCHE -TISF mix-.ogg;
#BANNER:CARTE BLANCHE -TISF mix- banner.png;
#BACKGROUND:CARTE BLANCHE -TISF mix- bg.png;
#CDTITLE:;
#SAMPLESTART:81.058;
#SAMPLELENGTH:12.800;
#SELECTABLE:YES;
#OFFSET:-0.258;
#BPMS:0.000=150.000
,138.000=75.000
,154.000=150.000
;
#STOPS:;
#BGCHANGES:;
#FGCHANGES:;

//--------------- dance-single - ----------------
#NOTES:
     dance-single:
     :
     Medium:
     10:
     0,0,0,0,0:
0000
0000
0000
0000
,
0000
0000
0000
0000
,
0000
0000
0000
0000
,
0000
0000
0000
0000
,
0000
0000
0000
0000
1000
0001
1000
0001
,
1000
0000
0010
2000
0000
3010
1000
0100
,
0010
0000
0001
0200
0000
0301
0010
0100
,
1000
0000
0001
0020
0000
0130
0010
0001
,
0100
0000
0010
1000
0002
0000
0000
0000
,
0000
0000
0003
0000
1000
0010
1000
0000
,
0001
0000
1000
0010
0000
0100
1000
0001
,
0010
0000
0100
0010
0000
0000
0000
0000
,
0000
0000
0000
0000
0000
1000
0100
0000
0000
0000
0000
1000
0100
0000
1000
0000
,
1000
0000
1000
0100
0000
1000
0100
0000
,
1000
0000
0000
0000
0100
0000
0000
1000
0000
0000
0000
1000
0000
0100
0000
1000
,
0000
0000
0000
0100
0000
0000
1000
0000
0000
0000
1000
0000
0100
0000
1000
0000
,
0100
0000
1000
0100
0000
1000
0100
1000
,
0100
0000
1000
0100
2002
0000
0000
0000
,
0000
0000
3003
0000
1000
0100
1000
0000
,
1000
0100
1000
0000
0001
0100
0001
1000
,
0001
0100
0010
0000
1000
0100
0010
0000
,
1000
0100
0010
0000
0001
0010
0100
1000
,
0100
0010
0001
0000
0100
0010
1000
0000
,
0100
0010
1000
0000
0001
0100
0001
0010
,
0001
1000
0001
0000
1000
0010
0010
0000
,
1000
0010
0010
0000
1000
0100
0100
0010
,
0100
1000
0010
0000
0100
0010
1000
0100
,
0000
0000
0001
0000
0000
0100
0001
0100
,
0000
0000
0000
0000
,
0000
0000
0000
0000
0000
0000
0000
0000
1000
0100
0000
0000
1000
0000
0000
0000
,
0000
0000
0000
0000
1000
0100
1000
0200
,
0000
0000
0300
0000
1000
0100
1000
0020
,
0000
0000
0030
0000
1000
0100
0010
0100
,
1000
0100
0001
0000
0100
0010
0001
0100
,
1000
0010
0100
0000
1100
0000
0000
0000
,
0000
0000
1000
1000
,
0100
0000
0100
0000
0010
0010
0010
0000
,
0100
0100
0100
0000
0001
0001
0001
1000
,
1000
1000
0010
0010
0010
0000
0100
0000
,
0010
1000
0100
0010
,
0001
1000
1100
0000
,
0111
0000
0110
0000
,
1001
0000
0000
0000
0000
0000
0000
0000
1000
0000
0000
0010
0000
0000
0000
0100
,
0000
0010
0100
0010
,
0100
0000
0000
0000
0010
0000
0000
0000
0100
0000
0000
0100
0000
0000
0000
0000
,
0010
0000
0000
0010
0000
0000
0000
0000
1000
0000
0000
1000
0000
0000
0000
0000
,
0001
0000
0000
0001
0000
0000
0000
0000
0100
0000
0000
0010
0000
0000
0000
0100
,
0000
0000
0010
0000
0100
0010
0100
0000
,
0010
0000
0000
0000
0100
0000
0010
0000
0100
0000
0000
0100
0000
0000
0000
0010
,
0100
0000
0000
0010
0000
0000
0100
0000
0010
0000
0000
0100
0000
0000
0000
0000
,
0010
0000
0000
0100
0000
0000
0010
0000
0100
0000
0000
0000
0100
0000
0010
0000
,
0100
0000
0010
0000
0100
0000
0000
0000
0100
0000
0010
0000
0100
0000
0010
0100
,
0000
0010
0000
0000
0100
0000
0000
0000
0100
0000
0000
0010
0000
0000
0100
0000
,
0010
0000
0000
0100
0000
0000
0010
0000
0100
0000
0000
0000
0010
0000
0000
0100
,
0000
0010
0000
0000
0000
0000
0000
0000
0000
0000
0000
0000
0000
0000
0000
0000
;

//--------------- dance-single - ----------------
#NOTES:
     dance-single:
     :
     Hard:
     13:
     0,0,0,0,0:
0000
0000
0000
0000
,
0000
0000
0000
0000
,
0000
0000
0000
0000
,
0000
0000
0000
0000
,
0000
0000
0000
0000
1000
0100
0010
0001
,
1000
0010
0000
0000
0010
0100
0020
0000
0000
0000
1030
0000
0001
0000
0010
0000
,
0100
1000
0000
0000
1000
0100
2000
0000
0000
0000
3100
0000
0010
0000
0100
0000
,
0010
0001
0000
0000
0001
0100
0020
0000
0000
0000
1030
0000
0010
0000
1000
0000
,
0010
1000
0000
0000
1000
0001
1000
0000
2002
0000
0000
0000
0000
0000
0000
0000
,
0000
0000
3003
0000
0001
0010
0100
1000
,
0010
0100
0000
0000
0001
0010
0002
0000
0000
0000
0013
0000
0010
0000
0001
0000
,
0100
0010
0000
0000
1000
0010
2000
0000
0000
0000
3100
0000
0100
0000
1000
0000
,
0100
0010
0000
0000
0001
0100
0002
0000
0000
0000
1003
0000
1000
0000
0001
0000
,
0100
0001
0000
0000
0010
0100
0020
0000
0000
0000
0031
0000
0001
0000
0100
0000
,
0010
0100
0000
0000
0010
1000
0200
0000
0000
0000
0310
0000
0010
0000
0001
0000
,
1000
0001
0000
0000
1000
0001
2000
0000
0000
0000
3100
0000
0100
0000
0010
0000
,
0100
1000
0000
0000
0010
0100
0020
0000
0000
0000
1030
0000
1000
0000
0001
0000
,
0010
0001
0000
0000
0100
0010
0100
0000
0220
0000
0000
0000
0000
0000
0000
0000
,
0000
0000
0000
0000
0330
0000
0000
0000
0001
0000
0010
0100
0000
0010
0001
0000
,
1000
0000
0001
0000
0100
0000
0001
0000
1000
0000
0100
1000
0000
0001
1000
0000
,
0100
0000
1000
0000
0001
0000
0010
0000
0001
0000
0100
0010
0000
1000
0100
0000
,
1000
0000
0001
0000
0100
0000
0001
0000
1000
0000
0010
1000
0000
0100
1000
0000
,
0001
0000
0010
0000
0001
0000
0100
0000
0010
0000
1000
0100
0000
0010
0100
0000
,
1000
0000
0001
0000
0100
0000
0010
0000
1000
0000
0100
0010
0000
0001
0100
0000
,
0010
0000
0100
0000
0001
0000
0010
0000
0001
0000
0100
0010
0000
0100
0001
0000
,
1000
0000
0010
0000
1000
0000
0100
0000
1000
0000
0100
0010
0000
0100
1000
0000
,
0001
0000
0100
0010
0100
0000
0001
0000
1000
0000
0100
0000
0010
0000
0002
0000
,
0000
1003
0010
1000
0001
0010
0100
2000
,
0000
3001
0100
0001
1000
1000
0100
0100
,
0010
0010
0001
0001
1000
0001
1000
0100
,
0001
0010
1000
0010
0100
0010
1000
0200
,
0000
1300
1000
0100
1000
0100
0010
0002
,
0000
0103
0100
0001
1000
0100
0001
0100
,
1000
0100
0010
0001
0010
0100
0010
0001
,
1000
0001
0100
0010
0220
0000
0000
0000
,
0000
0000
0000
0000
0000
0000
0000
0000
0000
0000
0000
0000
0330
0000
0000
0000
0001
0000
0000
0100
0000
0000
0100
0000
0010
0000
0000
1000
0000
0000
1000
0000
,
0100
0000
0000
0010
0000
0000
0010
0000
0001
0000
0000
0100
0000
0000
0100
0000
0001
0000
1000
0000
0100
0000
0000
0010
0000
0000
0001
0000
0100
0000
0010
0000
,
1000
0000
0010
0000
1000
0000
0000
0001
0000
0000
0010
0000
0001
0000
0100
0000
0001
0000
0000
0001
0000
0000
0001
0000
0100
0000
0000
0100
0000
0000
0100
0000
,
0010
0000
0000
0010
0000
0000
0010
0000
1000
0000
0000
1000
0000
0000
1000
0000
0100
0000
0000
0000
0000
0000
0000
0000
0100
0000
0000
0000
0000
0000
0000
0000
,
0010
0001
0010
0000
0010
0000
0010
0000
,
0001
0000
0100
0000
0001
0000
1000
0000
0010
0000
0000
1010
0000
0000
1000
0000
,
0001
0000
0000
0101
0000
0000
0100
0000
0001
0000
0000
1001
0000
0000
1000
0000
,
0100
0000
0000
1100
0000
0000
1000
0000
0001
0000
0100
0000
0001
0000
1000
0010
,
0000
1000
0010
0000
1000
0000
0100
0000
0010
0000
0001
0000
0100
0000
0001
0100
,
0000
0001
0100
0000
0010
0000
0100
0000
0001
0000
0000
1001
0000
0000
1000
0000
,
0100
0000
0000
1100
0000
0000
1000
0000
0010
0000
0000
1010
0000
0000
0100
0000
,
0010
0000
0000
0110
0000
0000
1000
0000
0001
0000
0010
0000
0100
0000
1000
0100
,
0000
1000
0100
0000
1000
0001
1000
0000
0001
0000
1000
0000
0001
0000
0100
0010
,
0000
0100
0010
0000
0100
0000
0001
0000
0010
0000
0000
0011
0000
0000
0001
0000
,
1000
0000
0000
1010
0000
0000
1000
0000
0010
0000
0000
0110
0000
0000
0100
0000
,
0001
0000
0000
0101
0000
0000
0001
0000
1000
0000
0100
0000
0010
0000
0001
1000
,
0000
0010
0100
0000
0001
0010
0001
0000
1000
0000
0100
0000
1000
0000
0010
1000
,
0000
0010
0100
0000
0010
0000
1000
0000
0010
0000
0000
0110
0000
0000
0100
0000
,
0001
0000
0000
1001
0000
0000
1000
0000
0100
0000
0000
1100
0000
0000
1000
0000
,
0001
0000
0000
0101
0000
0000
0100
0000
0001
0000
0010
0000
0001
0000
1000
0010
,
0000
1000
0010
0000
1000
0100
1000
0000
0001
0000
0100
0000
0001
0000
0010
0001
,
0000
0010
0001
0000
0100
0000
0010
0000
0100
0000
0000
0110
0000
0000
0010
0000
,
1000
0000
0000
1100
0000
0000
0100
0000
0010
0000
0000
0011
0000
0000
0001
0000
,
1000
0000
0000
1010
0000
0000
0010
0000
1000
0000
0001
0000
0100
0000
0010
0100
,
0000
0001
0100
0000
0001
0010
0001
0000
1000
0000
0010
0000
0100
0000
0010
1000
,
0000
0100
1000
0000
0100
0000
1000
0000
0001
0000
0000
0011
0000
0000
0010
0000
,
0100
0000
0000
0110
0000
0000
0010
0000
0001
0000
0000
0101
0000
0000
0001
0000
,
1000
0000
0000
1010
0000
0000
0010
0000
1000
0000
0100
0000
0010
0000
0001
0010
,
0000
0001
0010
0000
0001
1000
0001
0000
1000
0000
0001
0000
1000
0000
0010
0100
,
0000
0010
0100
0000
0010
0000
1000
0000
0100
0000
0000
1100
0000
0000
1000
0000
,
0001
0000
0000
0101
0000
0000
0001
0000
0100
0000
0000
0110
0000
0000
0010
0000
,
1000
0000
0000
1010
0000
0000
1000
0000
0001
0000
0010
0000
0100
0000
1000
0001
,
0000
0100
0010
0000
1000
0100
1000
0000
0001
0000
0010
0000
0001
0000
0100
0001
,
0000
0100
0010
0000
0100
0000
0001
0000
0100
0000
0000
0110
0000
0000
0010
0000
,
1000
0000
0000
1001
0000
0000
0001
0000
0010
0000
0000
0011
0000
0000
0001
1000
,
0100
1000
0000
0100
0000
0000
0010
0000
0001
0000
1000
0000
0010
0000
0100
0000
,
0001
0000
0010
0001
0010
0000
0001
0000
0100
0000
0010
0000
0100
0000
0010
0000
,
1000
0000
0010
1000
0010
0000
1000
0000
0001
0000
0010
0000
0100
0000
0010
0000
,
0100
0000
0010
0001
1000
0000
0100
0000
1000
0000
0001
0000
0010
0000
0100
0000
,
0010
0000
0001
1000
0001
0000
1000
0000
0010
0000
1000
0000
0100
0000
1000
0000
,
0001
0000
0010
0001
0100
0000
0010
0000
1000
0000
0010
0000
0100
0000
0010
0000
,
1000
0000
0001
0010
0100
0000
0010
0000
0001
0000
1000
0000
0100
0000
1000
0000
,
0100
0000
0010
0001
0010
0000
0001
0000
1000
0001
0000
0100
0000
0000
0010
0000
,
0000
1000
0000
0100
0000
1000
0010
0000
0110
0000
0000
0000
0000
0000
0000
0000
;
