#TITLE:CØDE;
#SUBTITLE:;
#ARTIST:SHINee;
#TITLETRANSLIT:CODE;
#SUBTITLETRANSLIT:;
#ARTISTTRANSLIT:;
#GENRE:K-POP;
#CREDIT:;
#BANNER:CØDE.png;
#BACKGROUND:CØDE-bg.png;
#LYRICSPATH:;
#CDTITLE:;
#MUSIC:CØDE.ogg;
#OFFSET:-2.353000;
#SAMPLESTART:48.470943;
#SAMPLELENGTH:18.821312;
#LASTBEATHINT:199.510376;
#SELECTABLE:YES;
#BPMS:0.000000=102.012001
;
#STOPS:
;
#BGCHANGES:0.000=CØDE-v.mpeg=1.000=0=0=0=StretchNoLoop====,
218.000=CØDE-bg.png=1.000=0=0=1===CrossFade_Faster==,
99999=-nosongbg-=1.000=0=0=0 // don't automatically add -songbackground-
;
#KEYSOUNDS:;
#ATTACKS:;

//---------------dance-single - Classic 8 | Modern 13----------------
#NOTES:
     dance-single:
     :
     Hard:
     13:
     0.477098,0.537765,0.280837,0.455411,0.413665,440.000000,403.000000,37.000000,60.000000,1.000000,0.000000,0.477098,0.537765,0.280837,0.455411,0.413665,440.000000,403.000000,37.000000,60.000000,1.000000,0.000000:
0000
0000
0000
0000
,
0000
0000
0000
0000
,
0000
0000
0000
0000
,
0000
0000
0000
0000
,
2000
0000
0000
0000
3001
0000
0010
0000
0100
0000
1000
0000
0001
0010
0001
0000
,
2000
0000
0000
0000
3100
0000
0010
0000
0001
0000
1000
0000
0010
0100
0010
0000
,
0200
0000
0000
0000
0301
0000
0010
0000
0100
0000
1000
0000
0001
0100
0001
0000
,
0100
0000
0100
0000
1000
0000
1000
0000
0010
0000
0010
0000
0001
1000
0002
0000
,
1003
0100
1100
0000
0001
0100
0101
0000
,
0001
0000
0010
0000
0100
0010
0000
0001
1000
0000
0100
0000
0010
0100
0000
1000
,
0001
0000
0100
0000
0010
0100
0000
0001
1000
0000
0100
0000
0110
0000
0000
0000
,
0100
1000
0000
0000
0010
1000
0000
0000
0001
1000
0200
0000
0320
0000
0000
0000
,
0031
1000
1100
0000
1000
0001
0101
0000
,
0001
0000
0010
0000
0100
0000
0010
0001
0000
0000
1000
0100
0000
0010
0000
0100
,
1000
0000
0001
0010
0000
0100
0000
0010
0001
0000
1000
0001
1000
0001
0200
0000
,
0310
0000
0010
0000
0110
0000
0010
1000
0100
0000
0010
0001
0100
0000
0010
0000
,
0020
0000
0000
0000
2030
0000
0000
3001
1000
0000
1000
0000
0100
0000
0010
0000
,
0002
0000
0000
0000
0203
0000
0000
0301
0010
0000
0010
0000
0100
0000
0010
0000
,
0002
0000
0000
1003
0100
0000
0000
0000
0020
0000
0000
0031
0200
0000
0000
0000
,
0320
0000
0000
0000
1000
0000
0000
0000
0230
0000
0001
0000
0301
0000
0001
1000
,
0001
0000
1000
0000
1010
0000
1000
0001
1000
0000
0001
0000
0011
0000
0000
0000
,
1100
0000
1100
0000
0001
0000
0000
1000
0001
0100
0000
0001
0000
1000
0000
0020
,
0000
0000
1030
0000
1001
0000
0000
0001
1000
0010
0000
1000
0000
0000
0001
0100
,
0001
0000
0100
0000
0010
0100
0000
0010
1000
0000
0100
0000
0010
0100
0000
0010
,
0001
0000
1000
0000
0010
0100
0000
0010
1000
0000
0001
0000
0011
0000
0000
0000
,
1010
0000
1010
0000
1001
0000
0000
0001
1000
0100
0000
1000
0001
0100
0000
0020
,
0000
0000
0130
0000
0110
0000
0000
0100
0001
0100
0000
0010
0000
0000
1000
0001
,
1000
0000
0100
0000
0010
0100
0000
M210
0000
0000
1000
0000
2000
3300
0000
0000
,
0002
0000
0000
0000
,
0103
0010
1000
0010
2010
0010
3010
0100
,
0002
0000
0000
0000
0013
0000
0000
0000
0021
0000
0000
0000
0130
1000
0100
0000
,
1000
0000
0000
0010
0000
0000
1000
0000
0200
0000
0000
0000
0310
0000
0001
0000
,
0200
0000
0000
0310
0000
0000
0020
0000
1000
0000
1030
0000
0002
0000
0000
0000
,
0013
0001
1000
0010
0110
0010
1000
0001
,
0010
0001
0100
0010
0110
0100
0010
1000
,
0020
0000
1030
0001
0020
0000
0130
0100
,
2000
0000
3001
0010
0002
0000
0010
0000
,
0200
0000
0000
0303
,
0110
0000
0001
0000
2000
0000
3010
0000
0002
0000
0103
0000
1000
0000
0010
2000
,
0100
0000
3100
0000
0010
0000
0100
2000
0010
0000
3010
0000
1000
0001
1000
0000
,
0110
0000
1000
0000
0002
0000
0103
0000
2000
0000
3010
0000
0001
0000
0100
0002
,
0010
0000
0013
0000
0100
0000
0010
0002
0100
0000
0103
0000
0010
0100
0000
0010
,
1000
0000
0001
0000
0010
0100
0000
0010
0001
0000
0100
0000
0110
0000
0000
0000
,
1010
0000
1010
0000
1001
0000
0000
0001
1000
0100
0000
1000
0001
0100
0000
0020
,
0000
0000
0130
0000
0110
0000
0000
0100
0001
0100
0000
0010
0000
0000
1000
0001
,
1000
0000
0100
0000
0010
0100
0000
0210
0000
0000
1000
0000
2000
3300
0000
0000
,
2001
0000
3100
0000
1000
0001
0100
0010
0100
0000
0001
1000
0100
0000
1000
0002
,
0010
0000
0013
0000
0011
0000
0001
0010
0001
0100
0000
0001
0000
1000
0000
0020
,
1000
0000
0130
0000
0001
1000
0010
0100
0010
0000
0100
0001
1000
0000
0010
1000
,
0001
0000
0100
0000
0110
0000
0010
2000
0100
0000
3100
0000
0220
0330
0000
0000
,
2001
0000
3010
0000
0001
0010
0100
0010
1000
0000
0010
1000
0100
0000
0010
0002
,
0100
0003
0100
0001
0010
0000
0100
2000
3020
0230
0300
0002
0103
0020
0030
0120
,
0000
0000
1030
0000
1001
0000
0000
0001
1000
0100
0000
0010
0000
0000
0001
1000
,
0001
0000
0100
0000
0010
1000
0000
1020
0000
0000
0100
0000
0230
0000
0000
0000
,
0000
0000
0300
0000
;

//---------------dance-single - Classic 6 | Modern 10----------------
#NOTES:
     dance-single:
     :
     Medium:
     10:
     0.336137,0.351616,0.189755,0.455411,0.060722,310.000000,285.000000,25.000000,60.000000,0.000000,0.000000,0.336137,0.351616,0.189755,0.455411,0.060722,310.000000,285.000000,25.000000,60.000000,0.000000,0.000000:
0000
0000
0000
0000
,
0000
0000
0000
0000
,
0000
0000
0000
0000
,
0000
0000
0000
0000
,
2001
0000
3001
0010
1000
0100
0001
0000
,
1002
0000
1003
0010
0001
0100
1000
0000
,
1002
0000
1003
0010
0100
0001
0001
0000
,
1000
1000
1000
1000
1000
0100
0010
0001
,
0011
0000
1200
0000
1300
0001
0101
0000
,
0001
0010
0100
0010
0001
1000
1000
0000
,
0010
0100
0010
1000
0001
0100
0100
0000
,
0001
0010
0000
0000
0001
1000
0000
0000
0001
0100
0000
0000
0201
0000
0000
0000
,
0302
0023
0230
1300
,
0010
1000
0001
0001
0010
0001
0100
0000
,
0001
0010
0100
0100
1000
0010
1000
1000
,
0000
0001
0001
1000
0001
0000
1001
1000
,
0020
0000
2030
0000
3002
0000
1003
0100
,
0020
0000
0032
0000
0203
0000
0310
1000
,
0020
1030
0200
1300
,
0002
0013
0110
0000
,
1002
0000
0103
0010
1000
0100
0020
0000
,
0031
1000
0100
0000
1000
0001
0100
0010
,
1000
0000
0000
0000
1001
0000
0000
1000
0001
0000
0100
0000
0010
0000
0000
0000
,
1000
0010
0100
0001
1000
0001
0001
0100
,
0010
0000
0110
1000
0001
0100
0210
0000
,
0301
0001
1000
0000
0100
0010
0100
1000
,
0001
0000
0000
0000
2001
0000
0000
3001
0100
0000
0001
0000
1000
0000
0000
0000
,
0100
0000
0010
0000
0001
0000
0000
0200
0000
0000
0010
0000
0020
0330
0000
0000
,
2002
0000
0000
0003
,
3002
0013
0110
0100
,
2000
0000
3010
0000
0120
0000
0130
0100
,
0002
1003
1100
0100
,
2000
0000
3001
0000
0011
0010
0002
0000
,
0203
0010
0310
0000
2010
0001
3001
0000
,
0020
0000
0031
0000
0101
0100
0001
0001
,
0020
0100
0230
1000
,
2300
0010
3020
2030
,
0002
0000
0000
3003
,
1002
0000
0000
0000
1003
0000
0100
0000
0010
0000
0100
0000
1000
0000
0000
0002
,
0000
0000
0013
0000
0100
0000
0000
0020
0000
0000
0001
0000
0031
0000
0000
0000
,
2001
0000
0000
0000
3010
0000
0100
0000
0010
0000
1000
0000
0001
0000
0000
0200
,
0000
0000
0310
0000
1000
0000
0000
0200
0000
0000
0010
0000
0310
0000
0000
0002
,
0000
0000
0003
0000
1000
0000
0000
0002
0000
0000
0100
0000
0203
0000
0000
0000
,
0310
1000
0100
0000
0010
0001
0100
0010
,
1000
0000
0000
0000
1001
0000
0000
1000
0001
0000
1000
0000
0100
0000
0000
0000
,
1000
0000
0001
0000
0100
0000
0000
0020
0000
0000
1000
0000
1030
0000
0000
0000
,
0002
0000
0013
1000
0010
0001
0010
0100
,
0020
0000
0031
0000
0100
0010
1000
0100
,
0020
0000
0130
1000
0100
0001
0100
0010
,
0200
0000
1300
0001
0200
0010
0320
0000
,
2030
0000
3001
0010
0001
1000
0001
0100
,
0002
0000
0013
0000
0100
1000
0001
0100
,
0010
0000
0000
0000
0110
0000
0000
0010
1000
0000
0001
0000
0100
0000
0000
0000
,
0010
0000
1000
0000
0100
0000
0000
0020
0000
0000
0001
0000
0002
0000
0000
0000
,
0000
0000
0033
0000
;

//---------------dance-single - Classic 10 | Modern 15----------------
#NOTES:
     dance-single:
     :
     Challenge:
     15:
     0.582276,0.641181,0.121443,1.039856,0.755224,537.000000,521.000000,16.000000,137.000000,15.000000,2.000000,0.582276,0.641181,0.121443,1.039856,0.755224,537.000000,521.000000,16.000000,137.000000,15.000000,2.000000:
// measure 0
0000
0000
0000
0000
,  // measure 1
0000
0000
0000
0000
,  // measure 2
0000
0000
0000
0000
,  // measure 3
0000
0000
0000
0000
,  // measure 4
2100
0000
0000
0000
3001
0010
0001
0010
2000
0000
3010
0001
0010
0100
1000
0000
,  // measure 5
1020
0000
0000
0000
0130
1000
0100
0001
2000
0000
3100
0001
0100
0010
0001
0000
,  // measure 6
2001
0000
0000
0000
3001
1000
0001
0100
0010
0000
0020
0000
1030
0001
1000
0000
,  // measure 7
2100
0000
0100
0000
3010
0000
MM10
0001
1000
0000
1000
0001
0100
0010
2000
3000
,  // measure 8
1020
0000
1030
0001
0200
0000
0301
1000
0020
0000
1030
0001
0200
0000
0301
1000
,  // measure 9
0010
0000
1000
0000
0001
0100
0000
0020
1030
0000
0001
0000
1000
0010
0000
0200
,  // measure 10
0301
0000
1000
0000
0001
0010
0000
0200
1300
0000
0010
0000
2010
0000
3000
0000
,  // measure 11
0002
0023
013M
0100
0002
2003
301M
0010
0002
0203
031M
0010
0001
1000
0001
1000
,  // measure 12
0020
0000
0130
0001
2000
0000
3001
1000
0200
0000
1300
0001
0200
0300
0020
1030
,  // measure 13
0100
0000
1000
0001
1000
0000
1000
0020
0030
0000
1000
0001
0000
0010
0000
0002
,  // measure 14
1003
0000
0001
0010
0000
0001
0000
2000
3010
0000
0100
0001
0010
0100
1000
0010
,  // measure 15
1000
0000
0010
0001
0010
0000
1000
0010
1000
0000
0100
1000
0100
0000
0010
0001
,  // measure 16
0020
0000
0000
0000
0031
1000
0000
0002
0100
0000
0000
0000
1003
0000
2000
0000
,  // measure 17
3002
0000
0000
0000
1003
0010
0000
2000
0001
0000
3001
0000
0100
0000
0010
0000
,  // measure 18
0200
0000
0000
0301
0020
0000
0000
0031
0200
0000
0000
0310
2000
0000
0000
0000
,  // measure 19
3002
0000
0100
0000
0103
0010
0000
2000
0000
0000
3001
0000
0001
0000
0001
2000
,  // measure 20
0001
3000
0001
1000
0001
0000
0001
2000
0010
3000
0010
1000
0002
0003
0001
0020
,  // measure 21
0100
0000
0130
0000
1100
0000
0100
1000
0001
0100
0000
0001
1000
0100
0000
0020
,  // measure 22
0001
0000
0031
0000
1002
0000
0003
1000
0001
1000
0000
0010
0000
0000
1000
0002
,  // measure 23
1000
0003
1000
0010
1000
0100
0000
0020
0100
0030
0010
0000
0001
0100
0000
0002
,  // measure 24
0010
0003
0010
0001
1000
0001
0000
0002
0100
0000
0103
0001
0020
0000
0031
0200
,  // measure 25
0001
0000
0301
1000
0010
0000
1000
0002
2003
3200
0300
2000
3001
0200
0300
0020
,  // measure 26
1000
0000
1030
0001
2000
0000
3001
0010
0001
1000
0000
0020
1000
0000
1030
0200
,  // measure 27
1000
0000
1300
0000
0001
0010
0000
M021
0000
0000
0100
0000
0200
0330
0000
0000
,  // measure 28
2002
0000
0000
3000
,  // measure 29
2003
0000
0010
0000
3010
0000
1000
0000
0001
1000
0100
0000
0010
0000
0100
1000
,  // measure 30
0002
0000
0000
0000
0103
0000
0000
0000
0010
1000
0100
0000
0010
0000
0100
1000
,  // measure 31
0020
0000
0000
1030
0000
0000
0001
0000
0010
0001
0100
0000
1000
0000
0100
0001
,  // measure 32
0020
0000
0000
0031
0000
0000
2000
0000
3020
0000
1000
0000
2030
0000
0000
0000
,  // measure 33
3001
0000
2000
3000
0020
0030
2000
3000
0110
0000
0002
0003
0020
0030
0002
0003
,  // measure 34
1000
0000
0100
0000
1000
0000
0001
2000
3010
0000
0010
0000
0100
0000
1000
0000
,  // measure 35
0002
0010
0013
1000
0200
0010
0310
0001
,  // measure 36
2000
0000
3100
0010
0002
0000
0200
0000
,  // measure 37
0020
0000
0000
M333
,  // measure 38
0001
1000
010M
0100
0010
1000
01M0
0100
0001
0010
010M
0100
0010
1000
01M0
0200
,  // measure 39
1300
0100
0010
0100
1000
0100
0001
0200
0310
1000
0002
0003
0002
1003
0100
0000
,  // measure 40
0100
1000
0010
0M10
0001
1000
001M
0010
0001
0100
001M
0010
0100
1000
0M10
0020
,  // measure 41
0031
0010
0100
0010
0001
0010
1000
0020
0031
0010
0100
0000
1000
0010
0000
2000
,  // measure 42
0100
3000
0100
1000
0001
1000
0000
2000
0010
0000
3010
1000
0200
0000
1300
0020
,  // measure 43
1000
0000
1030
0001
0100
0000
0001
2000
3002
0023
0030
0002
1003
0020
0030
0200
,  // measure 44
0001
0000
0301
1000
0002
0000
1003
0100
1000
0001
0000
0200
0001
0300
0001
0020
,  // measure 45
0001
0000
0031
0000
1000
0100
0000
2100
0000
0000
0001
0000
0002
3003
0000
0000
,  // measure 46
1000
0100
0010
0001
2000
3020
2030
3002
1003
0020
0130
0001
1000
0100
1000
0001
,  // measure 47
0010
0100
0010
0001
0100
0010
0100
0002
0023
0230
0300
2000
3001
0200
0300
0040
,  // measure 48
1000
0000
1000
0000
0230
0302
2003
3020
1030
0200
0310
0100
1000
0010
0100
0010
,  // measure 49
1000
0001
0100
0000
0110
0000
0010
4000
0001
0000
3100
0000
0120
0000
0001
0000
,  // measure 50
0031
0100
0010
1000
0002
0023
0230
0320
0031
2000
3010
0100
0001
0010
0100
1000
,  // measure 51
0001
1000
0010
0100
0001
0010
0001
2000
3020
0230
0300
0002
0013
0200
0300
0040
,  // measure 52
0001
0000
0031
0000
0012
0000
0000
1003
0001
0100
0000
0020
1000
0030
1000
0010
,  // measure 53
0100
0000
0001
0000
1000
0100
0000
0210
0000
0000
1000
0000
2000
0000
0000
0000
,  // measure 54
0000
0000
3300
0000
;

//---------------dance-single - Classic 1 | Modern 3----------------
#NOTES:
     dance-single:
     :
     Beginner:
     3:
     0.117106,0.186149,0.030361,0.129033,0.000000,108.000000,104.000000,4.000000,17.000000,0.000000,0.000000,0.117106,0.186149,0.030361,0.129033,0.000000,108.000000,104.000000,4.000000,17.000000,0.000000,0.000000:
0000
0000
0000
0000
,
0000
0000
0000
0000
,
0000
0000
0000
0000
,
0000
0000
0000
0000
,
2000
0000
3000
0000
,
0002
0000
0003
0000
,
0200
0000
0300
0000
,
0020
0000
0030
0000
,
1000
2000
3000
0000
,
0100
0100
0000
0100
,
0000
0010
0010
0000
,
0001
0001
0001
0000
,
0100
0100
0100
0000
,
0010
0010
0000
0010
,
0000
1000
0000
0001
,
0000
0100
0000
0001
,
0002
0000
0003
0000
,
0200
0000
0300
0000
,
0010
0000
1000
0000
,
0100
0000
0110
0000
,
1001
1001
0000
1000
,
1000
0000
0001
0001
,
0001
0000
0100
0000
,
0010
0010
0010
0000
,
1000
0000
0100
0000
,
1000
0000
0001
0001
,
0001
0000
0010
0000
,
1000
1000
0000
0100
,
0200
0000
0300
0000
,
0220
0000
0330
0000
,
0020
0000
0030
0000
,
2000
0000
3000
0000
,
0002
0000
0003
0000
,
0020
0000
0030
0000
,
0200
0000
0300
0000
,
0010
0000
0001
0000
,
1000
0000
0020
0000
,
0000
0000
0000
0030
,
0100
0000
0010
0000
,
1000
0000
0001
0001
,
0001
0000
1000
0000
,
0010
0000
0100
0100
,
0100
0000
0001
0000
,
1000
0000
0010
0010
,
0010
0010
0010
0000
,
1000
1000
0000
0001
,
0001
0000
0001
0000
,
0010
0000
1000
1000
,
1000
0000
0100
0000
,
0001
0001
0001
0001
,
0001
0000
0010
0000
,
1000
0000
0100
0100
,
0100
0000
0010
0000
,
1000
1000
0000
0002
,
0000
0000
0003
0000
;

//---------------dance-single - Classic 4 | Modern 7----------------
#NOTES:
     dance-single:
     :
     Easy:
     7:
     0.221200,0.310249,0.189755,0.280837,0.000000,204.000000,179.000000,25.000000,37.000000,0.000000,0.000000,0.221200,0.310249,0.189755,0.280837,0.000000,204.000000,179.000000,25.000000,37.000000,0.000000,0.000000:
0000
0000
0000
0000
,
0000
0000
0000
0000
,
0000
0000
0000
0000
,
0000
0000
0000
0000
,
2000
0000
3100
0100
,
0020
0000
0031
0001
,
0200
0000
0310
0010
,
1000
0100
0001
0010
,
0110
2001
0100
3100
,
1000
0010
0001
0010
,
1000
0001
0010
0100
,
0010
0010
0020
0030
,
0011
1001
2100
3001
,
0001
0100
0010
1000
,
0010
0100
0001
1000
,
1000
0000
0100
0000
0010
0000
0001
0010
,
0002
0000
0000
0000
0003
0000
0000
1000
,
2000
0000
0000
0000
3000
0000
0000
0010
,
0020
0030
0200
0300
,
0010
1000
1001
0000
,
0110
1000
0100
0010
,
0001
0001
1000
1000
,
0001
0010
0100
0100
,
1000
0010
0100
0001
,
0001
0101
1000
1100
,
0001
0001
1000
1000
,
0010
1001
0100
1001
,
0100
0000
0000
0000
0220
0000
0000
0330
0000
0000
0010
0000
0020
0030
0000
0000
,
2000
0000
0000
0000
,
3001
0001
1000
0100
,
0020
0000
0130
1000
,
0001
0100
0010
0000
,
0010
1000
0001
0001
,
2000
0001
3001
0000
,
0200
0001
0301
0000
,
0020
0000
0230
0000
,
2300
0000
0002
0000
,
0000
0000
0000
3003
,
1000
0002
0203
0320
,
2030
3001
0002
1003
,
1001
0020
0230
0302
,
0023
0130
0200
0310
,
0001
0011
1000
1010
,
0001
0001
1000
1000
,
0010
1001
0001
0001
,
0010
0000
0000
0000
0220
0000
0000
0330
0000
0000
0100
0000
0200
0300
0000
0000
,
1001
0001
0100
0010
,
1000
0000
0100
0000
1000
0001
1000
0000
,
1001
1000
0010
0100
,
0001
0000
0010
0100
0010
0000
0110
0000
,
1001
0001
0100
0010
,
1000
0000
1000
0000
0100
0010
0100
0000
,
0110
0000
1001
0000
0100
0010
0100
0000
,
1001
0000
0000
0000
0220
0000
0000
0330
0000
0000
0001
0000
0002
0000
0000
0000
,
0000
0000
0003
0000
;
