#VERSION:0.83;
#TITLE:Butter;
#SUBTITLE:;
#ARTIST:BTS;
#TITLETRANSLIT:;
#SUBTITLETRANSLIT:;
#ARTISTTRANSLIT:;
#GENRE:;
#ORIGIN:;
#CREDIT:;
#BANNER:Butter.png;
#BACKGROUND:Butter-bg.png;
#PREVIEWVID:;
#JACKET:Butter-jacket.png;
#CDIMAGE:;
#DISCIMAGE:;
#LYRICSPATH:;
#CDTITLE:;
#MUSIC:Butter.ogg;
#OFFSET:0.005000;
#SAMPLESTART:32.702000;
#SAMPLELENGTH:15.000000;
#SELECTABLE:YES;
#BPMS:0.000=110.000;
#STOPS:;
#DELAYS:;
#WARPS:;
#TIMESIGNATURES:0.000=4=4;
#TICKCOUNTS:0.000=4;
#COMBOS:0.000=1;
#SPEEDS:0.000=1.000=0.000=0;
#SCROLLS:0.000=1.000;
#FAKES:;
#LABELS:0.000=Song Start;
#BGCHANGES:;
#KEYSOUNDS:;
#ATTACKS:
;

//---------------dance-single - ----------------
#NOTEDATA:;
#CHARTNAME:;
#STEPSTYPE:dance-single;
#DESCRIPTION:;
#CHARTSTYLE:;
#DIFFICULTY:Hard;
#METER:13;
#RADARVALUES:0.503743,0.515086,0.203591,0.724785,0.622990,433.000000,408.000000,25.000000,89.000000,0.000000,0.000000,0.000000,0.000000,0.000000,0.503743,0.515086,0.203591,0.724785,0.622990,433.000000,408.000000,25.000000,89.000000,0.000000,0.000000,0.000000,0.000000,0.000000;
#CREDIT:Kekkle;
#NOTES:
0000
0000
0000
0000
,
0000
0000
0000
0000
,
0000
0000
0000
0000
,
1002
0000
0000
0000
0000
0000
0000
0000
0000
0000
0000
0000
0023
0000
0000
0000
0000
0000
0000
0000
0000
0000
0000
0000
1030
0000
0000
0000
0010
0000
0000
0000
0000
0000
0000
0000
0001
0000
0000
0000
0000
0000
1000
0000
0000
0100
0000
0000
,
0000
0000
0000
0100
0000
0000
1000
0000
0000
0000
0000
0000
0001
0000
0000
0000
0000
0000
1000
0000
0000
0000
0000
0000
0010
0000
0000
0000
0100
0000
0000
0000
0000
0000
0000
0000
0001
0000
0000
0000
0000
0000
0000
0000
0000
0000
0000
0000
,
2001
0000
0000
0000
0000
0000
0000
0000
0000
0000
0000
0000
3020
0000
0000
0000
0000
0000
0000
0000
0000
0000
0000
0000
0031
0000
0000
0000
0010
0000
0000
0000
0000
0000
0000
0000
1000
0000
0000
0000
0000
0000
0001
0000
0000
0010
0000
0000
,
0000
0010
0001
0000
1000
0000
0100
0000
0100
0000
0020
0030
0000
0000
0000
0000
,
1002
0000
0000
0000
0000
0000
0000
0000
0000
0000
0000
0000
0203
0000
0000
0000
0000
0000
0000
0000
0000
0000
0000
0000
1300
0000
0000
0000
0100
0000
0000
0000
0000
0000
0000
0000
0001
0000
0000
0000
0000
0000
0010
0000
0000
0100
0000
0000
,
0000
0000
0000
0100
0000
0000
0001
0000
0000
0000
0000
0000
0100
0000
0000
0000
0000
0000
1000
0000
0000
0000
0000
0000
0001
0000
0000
0000
0100
0000
0000
0000
0000
0000
0000
0000
0110
0000
0000
0000
0000
0000
0000
0000
0000
0000
0000
0000
,
2001
0000
0000
0000
0000
0000
0000
0000
0000
0000
0000
0000
3200
0000
0000
0000
0000
0000
0000
0000
0000
0000
0000
0000
0301
0000
0000
0000
0100
0000
0000
0000
0000
0000
0000
0000
1000
0000
0000
0000
0000
0000
0010
0000
0000
0100
0000
0000
,
0000
0100
1000
0000
0100
0000
0010
0000
0010
0000
1000
0001
0200
0000
0300
0000
,
1001
0000
0001
0000
0010
0000
1000
0010
0000
0010
0001
0000
0020
0000
0130
0000
,
1000
0000
0010
0000
0001
0000
1000
0100
0000
0100
0001
0000
0020
0000
0000
0000
,
0031
0000
0010
0000
1000
0000
0001
0100
0000
0100
1000
0000
0002
0000
0103
0000
,
2000
0000
0000
3200
0000
0000
0302
0000
0000
0023
0000
0000
2030
0000
0000
3010
0000
0001
1000
0000
1000
0100
0000
0000
,
0210
0000
0000
0000
0000
0301
0000
0000
0001
0000
0000
0000
0020
0000
0000
0000
0000
1030
0000
0000
1000
0000
0000
0000
,
2001
0000
0000
0000
0000
0000
3100
0000
0010
0001
0000
0001
0200
0000
0000
0000
0000
0000
0310
0000
0000
0000
0000
0000
,
0200
0000
0000
0000
0000
1300
0000
0000
1000
0000
0000
0000
0020
0000
0000
0000
0000
0031
0000
0000
0001
0000
0000
0000
,
0100
0000
0000
0001
0000
0000
1000
0000
0000
0000
0000
0000
0002
0000
0000
0000
0000
0000
0000
0000
0000
0000
0023
0000
0000
0000
0000
0000
0000
0000
0000
0000
0000
0000
0000
0000
0130
0000
0000
0000
0000
0000
1000
0000
0000
0000
0001
0000
,
0000
0000
0001
0020
0000
0000
1000
0000
0000
0100
0000
0000
0031
0000
0000
0000
0000
0000
0010
0000
0001
0000
0000
1000
,
0000
0000
0010
0200
0000
0000
1000
0000
0000
0010
0000
0000
0302
0000
0000
0000
0000
0000
1003
0000
0000
0000
0000
0000
,
0020
0000
0000
0000
0000
0031
0000
0000
0001
0000
0000
0000
0200
0000
0000
0000
0000
1300
0000
0000
1000
0000
0000
0000
,
1001
0000
0000
0001
0010
0000
1000
0100
0000
2001
0000
0000
,
3100
0000
0020
0001
0000
0031
0000
0100
0020
1000
0000
1030
0100
0010
0001
1000
,
0000
0000
0002
0100
0000
0103
0000
0010
2000
0001
0000
3001
0010
1000
0010
0001
,
0000
0000
2000
0100
0000
3100
0000
0010
0002
1000
0000
1003
0010
0100
0001
1000
,
0000
0000
0000
0000
0000
0000
0100
0000
0000
1000
0000
0000
0001
0000
0000
0000
0100
0000
0000
0000
0000
0000
0000
0000
1000
0000
0000
0000
0010
0000
0000
0000
0000
0000
0000
0000
1002
0000
0000
0000
0000
0000
0000
0000
0000
0000
0000
0000
,
0103
0000
0020
1000
0000
0130
0000
0001
2000
0100
0000
3001
0010
0100
1000
0001
,
0000
0000
0020
0100
0000
0031
0000
1000
0002
0010
0000
1003
0010
0001
0010
1000
,
0000
0000
0002
0100
0000
1003
0000
0001
0020
0100
0000
0031
1000
0010
0100
0001
,
2000
0000
0000
3001
0100
0000
1000
0010
0000
2001
0000
0000
,
3100
0000
0000
0000
0010
0000
0100
0010
0001
0000
0100
0010
1000
0000
2000
0000
,
3001
0000
0000
0000
1000
0100
0010
0000
0010
1000
0010
0001
1000
0000
2000
0000
,
3001
0000
0000
0000
0010
0001
0100
0010
0001
0010
1000
0001
0010
0000
0020
0000
,
0030
0000
0200
1300
0000
0000
0002
0000
0000
0000
1003
0000
0010
0000
0100
0000
,
1002
0000
0000
0000
1003
0000
1000
0000
0001
0010
0100
0001
0100
0000
0200
0000
,
0300
0000
1000
0001
0100
0000
0001
0000
1000
0010
0100
1000
0100
0000
0200
0000
,
0300
0000
0002
0003
1000
0100
0020
1030
0001
0100
0020
0031
1000
0000
1000
0000
,
2002
0000
0000
0000
0000
0000
0000
0000
0000
0000
0000
0000
3003
0000
0000
0002
0000
0000
1003
0000
0100
0010
0000
0010
,
0200
0000
0000
0000
0000
0301
0000
0000
0001
0000
0000
0000
0020
0000
0000
0000
0000
1030
0000
0000
1000
0000
0000
0000
,
1002
0000
0000
0000
0000
0000
0000
0000
0000
0000
0000
0000
2003
0000
0000
0000
0000
0000
0000
0000
0000
3000
0020
0000
0000
0000
0000
0000
0100
0000
0000
0000
0000
0000
0001
0000
0000
0000
0000
0000
0130
0000
0000
0000
0000
0000
0000
0000
,
0020
0000
0000
0000
0000
0031
0000
0000
0001
0000
0000
0000
0200
0000
0000
0000
0000
1300
0000
0000
1000
0000
0000
0000
,
0001
0000
0000
1000
0000
0000
0100
0000
0000
0000
0000
0000
0020
0000
0000
0000
0000
0000
0000
0000
0000
0000
0032
0000
0000
0000
0000
0000
0000
0000
0000
0000
0000
0000
0000
0000
1003
0000
0000
0000
0000
0000
0001
0000
0000
0000
0100
0000
,
0000
0000
0100
0020
0000
0000
0001
0000
0000
0100
0000
0000
1030
0000
0000
0000
0000
0000
0010
0000
0100
0000
0000
0001
,
0000
0000
1000
0200
0000
0000
0001
0000
0000
0010
0000
0000
2300
0000
0000
0000
0000
0000
3001
0000
0000
0000
0000
0000
,
0020
0000
0000
0000
0000
1030
0000
0000
1000
0000
0000
0000
0200
0000
0000
0000
0000
0301
0000
0000
0001
0000
0000
0000
,
2001
0000
0000
3001
0100
0000
1000
0010
0000
2001
0000
0000
,
3001
0010
2200
3300
1000
0010
0202
0303
,
0001
0000
0000
1000
0000
0000
0001
0000
0000
0010
0000
0100
0000
0000
0000
0100
0000
0000
1001
0000
0000
0000
0000
0000
,
0001
0100
2020
3030
1000
0100
0022
0033
,
0001
0000
0000
1000
0000
0000
0001
0000
0000
0100
0000
0010
0000
0000
0000
0010
0000
0000
1001
0000
0000
0000
0000
0000
,
1000
0001
0010
0100
1000
0000
0001
0100
0010
0000
0002
0000
0000
0000
0003
0000
,
0010
1000
0001
0010
0100
0000
1000
0100
0010
0000
2000
0000
0000
0000
3000
0000
,
0010
0001
0000
0100
1000
0000
0100
0001
0000
0010
1000
0000
,
0110
0000
0000
1000
0100
0000
0001
0010
0000
2002
0000
0000
,
3003
0000
0000
0000
;

//---------------dance-double - ----------------
#NOTEDATA:;
#CHARTNAME:;
#STEPSTYPE:dance-double;
#DESCRIPTION:;
#CHARTSTYLE:;
#DIFFICULTY:Hard;
#METER:14;
#RADARVALUES:0.497926,0.537481,0.162873,0.635205,0.627061,428.000000,408.000000,20.000000,78.000000,0.000000,0.000000,0.000000,0.000000,0.000000,0.497926,0.537481,0.162873,0.635205,0.627061,428.000000,408.000000,20.000000,78.000000,0.000000,0.000000,0.000000,0.000000,0.000000;
#CREDIT:Kekkle;
#NOTES:
00000000
00000000
00000000
00000000
,
00000000
00000000
00000000
00000000
,
00000000
00000000
00000000
00000000
,
20000000
00000000
00000000
00000000
00000000
00000000
00000000
00000000
00000000
00000000
00000000
00000000
30200000
00000000
00000000
00000000
00000000
00000000
00000000
00000000
00000000
00000000
00000000
00000000
00310000
00000000
00000000
00000000
00001000
00000000
00000000
00000000
00000000
00000000
00000000
00000000
00010000
00000000
00000000
00000000
00000000
00000000
00000100
00000000
00000000
00000010
00000000
00000000
,
00000000
00000000
00000000
00000010
00000000
00000000
00000100
00000000
00000000
00000000
00000000
00000000
00001000
00000000
00000000
00000000
00000000
00000000
00000001
00000000
00000000
00000000
00000000
00000000
00000100
00000000
00000000
00000000
00000010
00000000
00000000
00000000
00000000
00000000
00000000
00000000
00001000
00000000
00000000
00000000
00000000
00000000
00000000
00000000
00000000
00000000
00000000
00000000
,
00000002
00000000
00000000
00000000
00000000
00000000
00000000
00000000
00000000
00000000
00000000
00000000
00000023
00000000
00000000
00000000
00000000
00000000
00000000
00000000
00000000
00000000
00000000
00000000
00001030
00000000
00000000
00000000
00010000
00000000
00000000
00000000
00000000
00000000
00000000
00000000
00001000
00000000
00000000
00000000
00000000
00000000
01000000
00000000
00000000
00100000
00000000
00000000
,
00000000
00100000
01000000
00000000
00010000
00000000
10000000
00000000
10000000
00000000
02000000
03000000
00000000
00000000
00000000
00000000
,
20000000
00000000
00000000
00000000
00000000
00000000
00000000
00000000
00000000
00000000
00000000
00000000
32000000
00000000
00000000
00000000
00000000
00000000
00000000
00000000
00000000
00000000
00000000
00000000
03010000
00000000
00000000
00000000
00001000
00000000
00000000
00000000
00000000
00000000
00000000
00000000
00010000
00000000
00000000
00000000
00000000
00000000
00001000
00000000
00000000
00000100
00000000
00000000
,
00000000
00000000
00000000
00000100
00000000
00000000
00000010
00000000
00000000
00000000
00000000
00000000
00001000
00000000
00000000
00000000
00000000
00000000
00000001
00000000
00000000
00000000
00000000
00000000
00000010
00000000
00000000
00000000
00000100
00000000
00000000
00000000
00000000
00000000
00000000
00000000
00001001
00000000
00000000
00000000
00000000
00000000
00000000
00000000
00000000
00000000
00000000
00000000
,
00000002
00000000
00000000
00000000
00000000
00000000
00000000
00000000
00000000
00000000
00000000
00000000
00000203
00000000
00000000
00000000
00000000
00000000
00000000
00000000
00000000
00000000
00000000
00000000
00001300
00000000
00000000
00000000
00010000
00000000
00000000
00000000
00000000
00000000
00000000
00000000
00001000
00000000
00000000
00000000
00000000
00000000
00010000
00000000
00000000
01000000
00000000
00000000
,
00000000
01000000
00100000
00000000
00010000
00000000
10000000
00000000
10000000
00000000
00010000
10000000
02000000
00000000
03000000
00000000
,
10010000
00000000
10000000
00000000
01000000
00000000
00010000
00001000
00000000
00001000
01000000
00000000
00200000
00000000
00310000
00000000
,
00000000
00000000
00001000
00000000
00000100
00000000
00000001
00001000
00000000
00001000
00000100
00000000
00000020
00000000
00000000
00000000
,
00000031
00000000
00001000
00000000
00000100
00000000
00000010
00001000
00000000
00001000
00010000
00000000
00000200
00000000
00010300
00000000
,
00002000
00000000
00000000
00003200
00000000
00000000
00000302
00000000
00000000
00000023
00000000
00000000
00002030
00000000
00000000
00013000
00000000
00001000
01000000
00000000
01000000
00100000
00000000
00000000
,
02000000
00000000
00000000
00000000
00000000
13000000
00000000
00000000
10000000
00000000
00000000
00000000
00200000
00000000
00000000
00000000
00000000
00310000
00000000
00000000
00010000
00000000
00000000
00000000
,
01002000
00000000
00000000
00000000
00000000
00000000
00013000
00000000
00000100
00001000
00000000
00001000
00000002
00000000
00000000
00000000
00000000
00000000
00000013
00000000
00000000
00000000
00000000
00000000
,
00000200
00000000
00000000
00000000
00000000
00000301
00000000
00000000
00000001
00000000
00000000
00000000
00000020
00000000
00000000
00000000
00000000
00001030
00000000
00000000
00001000
00000000
00000000
00000000
,
00000100
00000000
00000000
00010000
00000000
00000000
00001000
00000000
00000000
00000000
00000000
00000000
00020000
00000000
00000000
00000000
00000000
00000000
00000000
00000000
00000000
00000000
00032000
00000000
00000000
00000000
00000000
00000000
00000000
00000000
00000000
00000000
00000000
00000000
00000000
00000000
01003000
00000000
00000000
00000000
00000000
00000000
00010000
00000000
00000000
00000000
10000000
00000000
,
00000000
00000000
10000000
02000000
00000000
00000000
00010000
00000000
00000000
00100000
00000000
00000000
13000000
00000000
00000000
00000000
00000000
00000000
00010000
00000000
01000000
00000000
00000000
00001000
,
00000000
00000000
00010000
00000020
00000000
00000000
00000001
00000000
00000000
00000100
00000000
00000000
00002030
00000000
00000000
00000000
00000000
00000000
00003001
00000000
00000000
00000000
00000000
00000000
,
00000200
00000000
00000000
00000000
00000000
00001300
00000000
00000000
00001000
00000000
00000000
00000000
00000020
00000000
00000000
00000000
00000000
00010030
00000000
00000000
00010000
00000000
00000000
00000000
,
00201000
00000000
00000000
00310000
01000000
00000000
10000000
01000000
00000000
20010000
00000000
00000000
,
30100000
00000000
01000000
00001000
00000000
00001000
00000000
00010000
00000100
00001000
00000000
00000100
00000010
00000001
00001000
00000001
,
00000000
00000000
00000100
00000010
00000000
00000010
00000000
00010000
00001000
01000000
00000000
00010000
01000000
10000000
01000000
00010000
,
00000000
00000000
10000000
00100000
00000000
00100000
00000000
01000000
00001000
00010000
00000000
00000100
00001000
00000100
00000010
00000001
,
00000000
00000000
00000000
00000000
00000000
00000000
00001000
00000000
00000000
00000001
00000000
00000000
00000010
00000000
00000000
00000000
00001000
00000000
00000000
00000000
00000000
00000000
00000000
00000000
00010000
00000000
00000000
00000000
01000000
00000000
00000000
00000000
00000000
00000000
00000000
00000000
20010000
00000000
00000000
00000000
00000000
00000000
00000000
00000000
00000000
00000000
00000000
00000000
,
30100000
00000000
01000000
00001000
00000000
00001000
00000000
00010000
01000000
00100000
00000000
00001000
00010000
00000010
00001000
00000010
,
00000000
00000000
00000100
00000001
00000000
00000001
00000000
00001000
00000100
00000010
00000000
00001000
00010000
01000000
00010000
00001000
,
00000000
00000000
01000000
00100000
00000000
00100000
00000000
10000000
00010000
01000000
00000000
00001000
00100000
00010000
01000000
00001000
,
00020000
00000000
00000000
00031000
00000010
00000000
00000001
00000010
00000000
00001002
00000000
00000000
,
00000103
00000000
00000000
00000000
00000010
00000000
00001000
00000010
00010000
00000000
00001000
00100000
00010000
00000000
00020000
00000000
,
10030000
00000000
00000000
00000000
00010000
01000000
00100000
00000000
01000000
10000000
01000000
00010000
01000000
00000000
02000000
00000000
,
03001000
00000000
00000000
00000000
00010000
00000100
00001000
00000100
00000001
00000100
00001000
00000001
00000100
00000000
00000200
00000000
,
00000300
00000000
00000002
00000103
00000000
00000000
00002000
00000000
00000000
00000000
00013000
00000000
01000000
00000000
00100000
00000000
,
20010000
00000000
00000000
00000000
30100000
00000000
00010000
00000000
00001000
01000000
00001000
00010000
00000100
00000000
00000200
00000000
,
00000300
00000000
00001000
00000100
00000010
00000000
00000001
00000000
00001000
00000010
00000100
00001000
00010000
00000000
00020000
00000000
,
00030000
00000000
00002000
01003000
00010000
10000000
02000000
03010000
10000000
00100000
00020000
10030000
00100000
00000000
00100000
00000000
,
20020000
00000000
00000000
00000000
00000000
00000000
00000000
00000000
00000000
00000000
00000000
00000000
30030000
00000000
00000000
00020000
00000000
00000000
10030000
00000000
00100000
01000000
00000000
01000000
,
00200000
00000000
00000000
00000000
00000000
00310000
00000000
00000000
00010000
00000000
00000000
00000000
02000000
00000000
00000000
00000000
00000000
03001000
00000000
00000000
00001000
00000000
00000000
00000000
,
00010200
00000000
00000000
00000000
00000000
00000000
00000320
00000000
00000000
00000000
00000000
00002030
00000000
00000000
00010000
00000000
00000000
00000100
00000000
00000000
00013000
00000000
00000000
00000000
,
00000200
00000000
00000000
00000000
00000000
00000301
00000000
00000000
00000001
00000000
00000000
00000000
00000020
00000000
00000000
00000000
00000000
00001030
00000000
00000000
00001000
00000000
00000000
00000000
,
00000100
00000000
00000000
00010000
00000000
00000000
00001000
00000000
00000000
00000000
00000000
00000000
02000000
00000000
00000000
00000000
00000000
00000000
00000000
00000000
00000000
00000000
03020000
00000000
00000000
00000000
00000000
00000000
00000000
00000000
00000000
00000000
00000000
00000000
00000000
00000000
10030000
00000000
00000000
00000000
00000000
00000000
00010000
00000000
00000000
00000000
10000000
00000000
,
00000000
00000000
10000000
00200000
00000000
00000000
00010000
00000000
00000000
01000000
00000000
00000000
10300000
00000000
00000000
00000000
00000000
00000000
00010000
00000000
00100000
00000000
00000000
00001000
,
00000000
00000000
00010000
00000200
00000000
00000000
00000001
00000000
00000000
00000010
00000000
00000000
00002300
00000000
00000000
00000000
00000000
00000000
00003001
00000000
00000000
00000000
00000000
00000000
,
00000020
00000000
00000000
00000000
00000000
00001030
00000000
00000000
00001000
00000000
00000000
00000000
00000200
00000000
00000000
00000000
00000000
00010300
00000000
00000000
00010000
00000000
00000000
00000000
,
02001000
00000000
00000000
03010000
00100000
00000000
10000000
00100000
00000000
20010000
00000000
00000000
,
30010000
01000000
02002000
03003000
00001000
00010000
00020200
00030300
,
00000100
00000000
00000000
00001000
00000000
00000000
00000001
00000000
00000000
00000100
00000000
00000010
00000000
00000000
00000000
00000010
00000000
00000000
00001001
00000000
00000000
00000000
00000000
00000000
,
00001000
00000010
00020020
00030030
00010000
00001000
00202000
00303000
,
00100000
00000000
00000000
00010000
00000000
00000000
10000000
00000000
00000000
00100000
00000000
01000000
00000000
00000000
00000000
01000000
00000000
00000000
10010000
00000000
00000000
00000000
00000000
00000000
,
10000000
01000000
00100000
00010000
10000000
00000000
00010000
01000000
00100000
00000000
00020000
00000000
00000000
00000000
00030000
00000000
,
00001000
00000100
00000010
00001000
00000001
00000000
00001000
00000100
00000010
00000000
00002000
00000000
00000000
00000000
00003000
00000000
,
00010000
01000000
00000000
00100000
00001000
00000000
00010000
00100000
00000000
00010000
00000010
00000000
,
00001001
00000000
00000000
00001000
00000100
00000000
00010000
01000000
00000000
20020000
00000000
00000000
,
30030000
00000000
00000000
00000000
;

//---------------dance-single - ----------------
#NOTEDATA:;
#CHARTNAME:;
#STEPSTYPE:dance-single;
#DESCRIPTION:;
#CHARTSTYLE:;
#DIFFICULTY:Medium;
#METER:11;
#RADARVALUES:0.345524,0.380716,0.114011,0.480476,0.016287,297.000000,283.000000,14.000000,59.000000,0.000000,0.000000,0.000000,0.000000,0.000000,0.345524,0.380716,0.114011,0.480476,0.016287,297.000000,283.000000,14.000000,59.000000,0.000000,0.000000,0.000000,0.000000,0.000000;
#CREDIT:Kekkle;
#NOTES:
0000
0000
0000
0000
,
0000
0000
0000
0000
,
0000
0000
0000
0000
,
0002
0000
0023
0000
1030
0000
0010
0001
,
1000
0010
0100
0000
0020
0000
0130
0000
,
0002
0000
0203
0000
1300
0000
0100
0001
,
1000
0100
0010
0001
0001
1000
0000
0000
,
0002
0000
0023
0000
1030
0000
0010
0001
,
0010
0100
1000
0001
0100
0000
1001
0000
,
0002
0000
0203
0000
1300
0000
0100
0001
,
0100
0010
1000
0001
0001
0010
0100
0000
,
1001
1000
0100
0000
0010
0001
0100
0000
,
0001
0010
0100
0000
1000
0100
0020
0000
,
0130
1000
0010
0000
0100
0001
0010
0000
,
0200
0000
2300
0000
3001
0100
0010
0100
,
0002
0103
2000
3010
,
0002
0000
0013
1000
0020
0000
0130
0000
,
2000
3100
0002
0013
,
1000
0010
0200
0000
0301
0000
1001
0000
,
1000
0100
0001
0001
0200
0000
1300
0000
,
0001
0100
1000
1000
0200
0000
0301
0000
,
2000
3010
0002
0103
,
1001
0002
0023
0230
,
0300
0010
0001
0000
0100
0010
1000
0001
,
0000
1000
0100
0000
1000
0010
0001
0010
,
0000
0100
0001
0000
1000
0100
0010
0100
,
0000
1000
0002
0000
0203
0000
0320
0000
,
0030
0100
0001
0100
0010
1000
0001
0010
,
0000
0100
1000
0001
1000
0010
0001
0010
,
0000
0100
0001
1000
0100
0010
0001
0100
,
0002
2003
3020
0230
,
0300
0000
0010
1000
0001
0010
1000
2000
,
0000
0000
3010
0001
1000
0010
0001
0002
,
0000
0000
0013
1000
0001
0010
1000
2000
,
0000
3020
0000
0032
0000
1003
1000
0000
,
1001
0000
0000
0000
0001
0000
0100
0000
0010
0100
0010
0000
0100
0000
0200
0000
,
0000
0000
0301
0000
1000
0000
0001
0000
0010
0100
0010
0000
0100
0000
0200
0000
,
0000
1300
0001
0100
1000
0100
0001
0001
,
2002
0000
0000
0000
3003
1000
1000
0001
,
2000
3100
0002
0013
,
2000
0000
3002
0000
1003
0100
0010
0001
,
2000
3010
0002
0103
,
1000
0001
0020
0000
0130
0000
1001
0000
,
1000
0100
0001
0001
0200
0000
1300
0000
,
0001
0100
1000
1000
0200
0000
0301
0000
,
2000
3010
0002
0103
,
1001
2000
3200
0320
,
0031
1100
1000
0101
,
0001
0100
1000
0100
0001
0000
1001
0000
,
1000
0011
0001
1010
,
1000
0010
0001
0010
1000
0000
1001
0000
,
0001
1000
0001
0000
0010
0000
0100
0000
0100
0000
1000
0000
0000
0000
0000
0000
,
1000
0001
1000
0000
0010
0000
0100
0000
0100
0000
0001
0000
0000
0000
0000
0000
,
1000
0100
0001
0010
,
1000
0002
0203
0020
,
0330
0000
0000
0000
;

//---------------dance-double - ----------------
#NOTEDATA:;
#CHARTNAME:;
#STEPSTYPE:dance-double;
#DESCRIPTION:;
#CHARTSTYLE:;
#DIFFICULTY:Medium;
#METER:11;
#RADARVALUES:0.342033,0.358321,0.057006,0.480476,0.008144,294.000000,287.000000,7.000000,59.000000,0.000000,0.000000,0.000000,0.000000,0.000000,0.342033,0.358321,0.057006,0.480476,0.008144,294.000000,287.000000,7.000000,59.000000,0.000000,0.000000,0.000000,0.000000,0.000000;
#CREDIT:Kekkle;
#NOTES:
00000000
00000000
00000000
00000000
,
00000000
00000000
00000000
00000000
,
00000000
00000000
00000000
00000000
,
20000000
00000000
30020000
00000000
00130000
00000000
00001000
00010000
,
00000010
00001000
00000010
00000100
00000002
00000000
00000103
00000000
,
00000002
00000000
00002003
00000000
00003010
00000000
00010000
00000010
,
00010000
00001000
01000000
00010000
00010000
10000000
00000000
00000000
,
00020000
00000000
20030000
00000000
31000000
00000000
00100000
00001000
,
00010000
00000010
00001000
00000010
00000200
00000000
00000301
00000000
,
00002000
00000000
00003002
00000000
00000103
00000000
00000010
00010000
,
00001000
01000000
00010000
01000000
01000000
00100000
10000000
00000000
,
10010000
00010000
01000000
00000000
00001000
00010000
00000010
00000000
,
00000100
00000010
00001000
00000000
00000001
00001000
00000200
00000000
,
00010300
00001000
01000000
00000000
00010000
01000000
00100000
00000000
,
20000000
00000000
30200000
00000000
01300000
00001000
00010000
00000100
,
00020000
01000000
00032000
00000100
,
00023000
00000000
00130000
10000000
00200000
00000000
01300000
00000000
,
00002000
00000100
00023000
01000000
,
00031000
00000010
00000002
00000000
00001003
00000000
00001001
00000000
,
00000001
00000100
00000010
00000010
00000200
00000000
00001300
00000000
,
00010000
00100000
01000000
01000000
00002000
00000000
00013000
00000000
,
00002000
00000010
00023000
00100000
,
00031000
00200000
02300000
23000000
,
30000000
00010000
00100000
00000000
00001000
00010000
00000010
00001000
,
00000000
00000001
00000010
00000000
00000100
00000010
00001000
00000010
,
00000000
00000100
00010000
00000000
00001000
01000000
00100000
01000000
,
00000000
00010000
20000000
00000000
32000000
00000000
03200000
00000000
,
00300000
00001000
00010000
00000010
00000100
00000010
00001000
00000001
,
00000000
00001000
00000100
00010000
00001000
00010000
00100000
00010000
,
00000000
00001000
01000000
00010000
00100000
01000000
10000000
00010000
,
00200000
00302000
00023000
00030020
,
00000130
00000000
00000001
00000100
00000010
00000100
00001000
00002000
,
00000000
00000000
00013000
00100000
01000000
00100000
10000000
20000000
,
00000000
00000000
30010000
01000000
00100000
01000000
10000000
20000000
,
00000000
32000000
00000000
03002000
00000000
00013000
00000100
00000000
,
00001001
00000000
00000001
00000010
00000100
00000010
00001000
00002000
,
00000000
00013000
01000000
00100000
01000000
10000000
00010000
00020000
,
00000000
00130000
01000000
00010000
00001000
00000100
00001000
00001000
,
00022000
00000000
00000000
00000000
00033000
00010000
00010000
00001000
,
00020000
00100000
00032000
00000010
,
00023000
00000000
00130000
10000000
00010000
00100000
00001000
00000000
,
00020000
01000000
00032000
00000100
,
00013000
00100000
20000000
00000000
30010000
00000000
10010000
00000000
,
10000000
00100000
01000000
01000000
00200000
00000000
00310000
00000000
,
00001000
00000100
00000010
00000010
00002000
00000000
00003010
00000000
,
00020000
00100000
00032000
00000010
,
00013000
02000000
03200000
00320000
,
10030000
00100000
00010000
00000000
00001000
00000100
00000001
00000000
,
00001000
00000100
00000010
00000100
00001000
00000000
00001001
00000000
,
00000001
00000010
00001000
00000000
00010000
01000000
10000000
00000000
,
00010000
01000000
00100000
01000000
00010000
00000000
10010000
00000000
,
10000000
00010000
10000000
00000000
00010000
00000000
01000000
00000000
00001000
00000000
00001000
00000000
00000000
00000000
00000000
00000000
,
00010000
00001000
00010000
00000000
00000010
00000000
00001000
00000000
00001000
00000000
00000001
00000000
00000000
00000000
00000000
00000000
,
00000100
00001000
00010000
01000000
,
00010000
00002000
00003200
00000020
,
00000330
00000000
00000000
00000000
;

//---------------dance-single - ----------------
#NOTEDATA:;
#CHARTNAME:;
#STEPSTYPE:dance-single;
#DESCRIPTION:;
#CHARTSTYLE:;
#DIFFICULTY:Easy;
#METER:7;
#RADARVALUES:0.255943,0.291136,0.040718,0.374608,0.000000,220.000000,215.000000,5.000000,46.000000,0.000000,0.000000,0.000000,0.000000,0.000000,0.255943,0.291136,0.040718,0.374608,0.000000,220.000000,215.000000,5.000000,46.000000,0.000000,0.000000,0.000000,0.000000,0.000000;
#CREDIT:Kekkle;
#NOTES:
0000
0000
0000
0000
,
0000
0000
0000
0000
,
0000
0000
0000
0000
,
0002
2003
3001
0100
,
0001
1000
0200
0310
,
0002
2003
3001
1000
,
0100
0010
0010
0000
,
0002
2003
3001
0100
,
1000
0100
0020
0130
,
0002
2003
3001
0010
,
1000
0010
0010
0000
,
0002
1000
0100
1003
,
2000
0001
0100
3001
,
0002
0010
1000
0013
,
0002
2003
3010
0010
,
2000
0100
3002
0100
,
1003
0010
0020
0130
,
0002
0100
2003
0100
,
3001
0010
0200
0310
,
0002
0010
1003
0001
,
2000
0010
3001
1000
,
0002
0010
2003
0010
,
3001
1000
0001
0200
,
0310
1000
0001
0010
,
0100
1000
0010
0001
,
0100
1000
0001
0010
,
0001
1000
0001
0200
,
0310
1000
0100
0010
,
0001
0100
1000
0010
,
0001
1000
0010
0100
,
0002
1003
0001
0020
,
0130
0000
1000
0000
1000
0000
0001
0010
,
0001
0000
0001
0000
0001
0000
1000
0010
,
1000
0000
1000
0000
1000
0000
0001
0100
,
0001
1000
1000
0002
,
1003
0000
0001
0000
1000
0100
1000
0100
,
0000
0000
1000
0000
0001
0100
0001
0100
,
0000
0001
1000
0001
1000
0001
1000
0000
,
2002
0000
0000
3003
,
0002
0010
2003
0100
,
3001
0200
1000
0310
,
2000
0010
3002
0100
,
1003
0100
0020
0130
,
2000
0100
3001
1000
,
0002
0100
1003
0001
,
2000
0100
3002
0010
,
1003
0001
1000
0020
,
0130
1001
0010
1001
,
1000
0010
0002
0013
,
0100
1001
0010
1001
,
0001
0010
2000
3010
,
0001
1000
0001
1000
0001
0010
0000
0000
,
0001
1000
0001
1000
0001
0100
0000
0000
,
0001
0100
1000
0010
,
0001
1000
0001
0020
,
0030
0000
0000
0000
;

//---------------dance-double - ----------------
#NOTEDATA:;
#CHARTNAME:;
#STEPSTYPE:dance-double;
#DESCRIPTION:;
#CHARTSTYLE:;
#DIFFICULTY:Easy;
#METER:8;
#RADARVALUES:0.261760,0.291136,0.105868,0.236166,0.000000,225.000000,212.000000,13.000000,29.000000,0.000000,0.000000,0.000000,0.000000,0.000000,0.261760,0.291136,0.105868,0.236166,0.000000,225.000000,212.000000,13.000000,29.000000,0.000000,0.000000,0.000000,0.000000,0.000000;
#CREDIT:Kekkle;
#NOTES:
// measure 0
00000000
00000000
00000000
00000000
,  // measure 1
00000000
00000000
00000000
00000000
,  // measure 2
00000000
00000000
00000000
00000000
,  // measure 3
00000002
00002003
00003001
00000100
,  // measure 4
00000001
00000010
00000200
00010300
,  // measure 5
00002000
00023000
00031000
00100000
,  // measure 6
00010000
10000000
10000000
00000000
,  // measure 7
00020000
20030000
30010000
10000000
,  // measure 8
00100000
10000000
02000000
03100000
,  // measure 9
00002000
00023000
00031000
00010000
,  // measure 10
00000010
00001000
00001000
00000000
,  // measure 11
00001002
00000100
00001000
00000103
,  // measure 12
00002000
00100000
00010000
00103000
,  // measure 13
02000000
00100000
10000000
03100000
,  // measure 14
00020000
00000000
00000000
10030000
,  // measure 15
00010000
01000000
00001000
00000100
,  // measure 16
00000002
00001000
00000023
00000030
,  // measure 17
00000100
00010000
01000000
00100000
,  // measure 18
00010000
20000000
30010000
10010000
,  // measure 19
10000000
00001000
00010000
00011000
,  // measure 20
00000001
00010000
00001000
00011000
,  // measure 21
00010000
00100000
00001000
00000010
,  // measure 22
00000100
00000001
00001000
00000200
,  // measure 23
00010300
00001000
00100000
00001000
,  // measure 24
00010000
00000010
00001000
00100000
,  // measure 25
01000000
00010000
10000000
01000000
,  // measure 26
00010000
00001000
00000010
00000200
,  // measure 27
00001300
00000001
00000100
00000010
,  // measure 28
00010000
00000100
00001000
01000000
,  // measure 29
00100000
00010000
10000000
00100000
,  // measure 30
02000000
03001000
00010000
00000020
,  // measure 31
00001030
00000000
00001000
00000000
00000001
00000100
00000001
00000000
,  // measure 32
00001000
00000000
00001000
00000000
00000100
00010000
00000100
00000000
,  // measure 33
00010000
00000000
00010000
00000000
00001000
01000000
00001000
00000000
,  // measure 34
00100000
00100000
00010000
10000000
,  // measure 35
10010000
00000000
00010000
00000000
01000000
00001000
01000000
00001000
,  // measure 36
00000000
00000000
00010000
00000000
00000100
00010000
00000100
00010000
,  // measure 37
00000000
00000100
00000010
00000100
00000010
00000100
00000010
00000000
,  // measure 38
00002002
00000000
00000000
00003003
,  // measure 39
00000001
00000100
00010000
01000000
,  // measure 40
00010000
00200000
01000000
01300000
,  // measure 41
10000000
01000000
00001000
00000100
,  // measure 42
00000010
00000002
00001003
00001001
,  // measure 43
00000001
00010000
00001000
00011000
,  // measure 44
10000000
00001000
00010000
00011000
,  // measure 45
00001000
00000100
00010000
01000000
,  // measure 46
00100000
01000000
00001000
00020000
,  // measure 47
00030100
00011000
01000000
00011000
,  // measure 48
00010000
01000000
00200000
00301000
,  // measure 49
00100000
00011000
00000010
00011000
,  // measure 50
00001000
00000100
00000020
00001030
,  // measure 51
00000001
00001000
00000001
00001000
00000100
00010000
00000000
00000000
,  // measure 52
00001000
01000000
00001000
01000000
00100000
10000000
00000000
00000000
,  // measure 53
01000000
00001000
00000100
00010000
,  // measure 54
00001000
00000100
00000010
00002000
,  // measure 55
00003000
00000000
00000000
00000000
;

//---------------dance-single - ----------------
#NOTEDATA:;
#CHARTNAME:;
#STEPSTYPE:dance-single;
#DESCRIPTION:;
#CHARTSTYLE:;
#DIFFICULTY:Beginner;
#METER:4;
#RADARVALUES:0.138442,0.177532,0.089580,0.260597,0.000000,119.000000,108.000000,11.000000,32.000000,0.000000,0.000000,0.000000,0.000000,0.000000,0.138442,0.177532,0.089580,0.260597,0.000000,119.000000,108.000000,11.000000,32.000000,0.000000,0.000000,0.000000,0.000000,0.000000;
#CREDIT:Kekkle;
#NOTES:
0000
0000
0000
0000
,
0000
0000
0000
0000
,
0000
0000
0000
0000
,
0002
0000
1003
0000
,
0001
0000
0010
0000
,
0200
0000
0310
0000
,
0001
0000
1000
0000
,
0002
0000
0103
0000
,
0010
0000
1000
0000
,
0200
0000
0310
0000
,
0001
0000
1000
0000
,
0002
0000
1003
0000
,
2000
0000
3001
0000
,
0002
0000
1003
0000
,
2000
0000
0000
3000
,
0002
0000
1000
0000
,
2003
0000
3001
0000
,
0020
0000
0100
0000
,
0230
0000
0310
0000
,
0001
0000
1001
0000
,
1000
0000
1001
0000
,
0002
0000
1000
0000
,
1003
0000
1001
0000
,
0002
0000
1003
0000
,
2000
0000
3100
0000
,
0200
0000
0310
0000
,
0020
0000
0031
0000
,
0002
0000
0103
0000
,
2000
0000
3010
0000
,
0002
0000
0013
0000
,
1000
0000
1001
0000
,
0000
0001
0001
0001
,
0000
1000
1000
1000
,
0000
0010
0010
0010
,
0000
0100
0000
1001
,
0000
1000
1000
0001
,
0000
0001
0001
0010
,
0000
0010
0010
0100
,
0200
0000
0000
0300
,
2000
0000
0010
0000
,
3020
0000
0130
0000
,
0002
0000
0010
0000
,
0023
0000
0130
0000
,
1000
0000
1001
0000
,
0001
0000
1001
0000
,
2000
0000
0100
0000
,
3100
0000
1001
0000
,
0002
0000
2003
0000
,
3001
0000
1001
0000
,
0020
0000
0230
0000
,
0310
0000
1001
0000
,
0002
0000
0103
0000
,
2000
0000
3010
0000
,
0001
0000
1000
0000
,
0100
0000
1001
0000
;
