#TITLE:Boom Digi Da;
#SUBTITLE:;
#ARTIST:Bambee;
#TITLETRANSLIT:;
#SUBTITLETRANSLIT:;
#ARTISTTRANSLIT:;
#GENRE:Eurodance;
#CREDIT:tikal.;
#MUSIC:boom digi da.ogg;
#BANNER:Boom Digi Da.png;
#BACKGROUND:Boom Digi Da-bg.png;
#CDTITLE:cdtitle.png;
#SAMPLESTART:34.515;
#SAMPLELENGTH:27.626;
#SELECTABLE:YES;
#OFFSET:-0.037;
#BPMS:0.000=139.000;
#STOPS:;
#BGCHANGES:;
#FGCHANGES:;

//--------------- dance-single - tikal. ----------------
#NOTES:
     dance-single:
     tikal.:
     Hard:
     11:
     0,0,0,0,0:
0000
0000
0000
0000
,
0000
0000
0000
0000
,
0000
0000
0000
0000
,
0000
0000
0000
0000
,
1000
1100
0001
0101
,
1000
0010
0000
0000
0110
0000
0000
0000
0010
0000
0001
0000
1000
0000
0100
0000
,
0002
0000
1003
0100
0020
0000
0130
2000
,
0000
3001
0000
2002
0000
3003
1000
0001
,
0001
0101
1000
1100
,
0001
0010
0000
0000
0110
0000
0000
0000
0010
0000
1000
0000
0001
0000
0100
0000
,
2000
0000
3001
0100
0020
0000
0130
0002
,
0000
1003
0000
2002
0000
3003
0001
1000
,
1000
0000
0100
1000
0010
0100
0010
0100
,
0001
0000
0001
0000
1000
1100
1001
0000
,
0001
0000
0100
0001
0010
0000
0010
0100
,
1000
0000
0000
0000
0001
0000
0000
0000
1001
0000
0000
1000
0010
0000
0100
0000
,
0001
0000
0100
0001
0010
0100
0010
0100
,
1000
0000
1000
0000
0001
0101
1001
0000
,
1000
0000
0100
1000
0010
0000
0010
0100
,
0101
0000
1100
0000
2002
0000
0000
3003
,
0001
0000
0001
0010
0200
0000
0310
2000
,
0000
3020
0000
0032
0000
1003
0010
0100
,
0002
0000
1003
0100
0020
0000
0130
2000
,
0000
3001
0000
2002
0000
3003
0001
1000
,
1000
0000
1000
0010
0200
0000
0310
0002
,
0000
0023
0000
2030
0000
3001
0010
0100
,
2000
0000
3001
0100
0020
0000
0130
0002
,
0000
1003
0000
1001
0000
0001
0001
0001
,
0101
0000
0100
1000
0100
0001
0000
1001
,
1000
0000
1000
0000
0001
0010
0010
0010
,
0100
0020
0000
2030
0000
3020
0000
0031
,
1000
0000
1000
0000
0001
1000
1000
1000
,
1100
0000
0100
0001
0100
1000
0000
1001
,
0001
0000
0001
0000
1000
0010
0010
0010
,
0100
0020
0000
0032
0000
0023
0000
2030
,
0000
3001
0010
0100
1000
0100
0010
0001
,
1000
1010
0001
0011
,
1000
0100
0000
0000
0110
0000
0000
0000
0100
0000
0001
0000
1000
0000
0010
0000
,
0001
0011
1000
1010
,
0001
0100
0000
0000
0010
0000
0010
0000
0100
0000
1000
0000
0100
0000
0001
0000
,
1000
1100
0001
0101
,
1000
0010
0000
0000
0110
0000
0000
0000
0010
0000
0001
0000
1000
0000
0100
0000
,
0001
0101
1000
1100
,
0001
0010
0000
0000
0100
0000
0100
0000
0010
0000
1000
0000
0010
0000
0001
0000
,
2000
0000
0000
0200
0000
0000
3300
0000
,
0002
0000
0000
0200
0000
0000
0303
0000
,
1000
0020
0000
0230
0000
0302
0000
1000
,
2000
0000
0000
3003
,
0001
0000
0010
0100
0001
0000
0100
0000
,
1000
0000
0010
0100
1000
0000
0100
0000
,
0001
0020
0000
0230
0000
2300
0000
0002
,
0000
0000
0000
3003
,
0100
0000
0100
0000
0100
0010
0010
0010
,
1001
0000
1000
0010
0001
0100
0000
2200
,
0000
3300
0001
0000
1000
0100
0100
0100
,
0010
2000
0000
3020
0000
0032
0000
0103
,
0010
0000
1000
0000
0100
0010
0010
0010
,
1001
0000
0001
0010
1000
0100
0000
0202
,
0000
0303
1000
0000
0001
0100
0100
0100
,
0010
0002
0000
0023
0000
2030
0000
3200
,
0000
0301
0100
1000
0001
0100
0010
1000
,
0001
0000
0000
0001
0100
0000
0010
0000
1000
0000
0000
1000
0100
0000
1000
0000
,
0001
0010
0000
0000
0110
0000
0000
0000
0010
0000
1000
0000
0001
0000
0100
0000
,
1000
0000
0000
1000
0100
0000
0010
0000
0001
0000
0000
0001
0100
0000
0001
0000
,
1000
0010
0000
0000
0100
0000
0100
0000
0010
0000
0001
0000
0010
0000
1000
0000
,
0001
0000
0000
0001
0010
0000
0100
0000
1000
0000
0000
1000
0010
0000
1000
0000
,
0001
0100
0000
0000
0110
0000
0000
0000
0100
0000
1000
0000
0001
0000
0010
0000
,
1000
0000
0000
1000
0010
0000
0100
0000
0001
0000
0000
0001
0010
0000
0001
0000
,
1000
0100
0000
0000
0010
0000
0010
0000
0100
0000
0001
0000
0100
0000
1000
0000
,
0002
0000
2000
0003
,
0020
0000
3000
0000
0100
0000
0130
0001
,
2000
0000
0002
3000
,
0020
0000
0003
0000
0130
1000
0100
1000
,
0001
0000
0000
0000
;

//--------------- dance-single - tikal. ----------------
#NOTES:
     dance-single:
     tikal.:
     Challenge:
     13:
     0,0,0,0,0:
0000
0000
0000
0000
,
0000
0000
0000
0000
,
0000
0000
0000
0000
,
0000
0000
0000
0000
,
1000
0000
0000
1000
0010
0000
0100
0000
0001
0000
0000
0001
0010
0000
0001
0000
,
0100
0010
0000
0000
0010
0000
0001
0000
0010
0000
1010
0000
1001
0000
0001
0000
,
0020
0000
0130
1000
0002
0000
0103
0020
,
0000
0032
0000
0013
1000
0001
1000
0001
,
0001
0000
0000
0001
0010
0000
0100
0000
1000
0000
0000
1000
0010
0000
1000
0000
,
0100
0010
0000
0000
0010
0000
1000
0000
0010
0000
0011
0000
1001
0000
1000
0000
,
0020
0000
0130
0001
2000
0000
3100
0020
,
0000
2030
0000
3010
0001
1000
0001
1000
,
1001
0000
0001
0100
0010
0100
1000
0100
,
0010
0000
0010
0000
0100
0101
1001
0000
,
1000
0000
0001
0100
2000
0000
3001
0010
,
0100
0000
0000
0000
0100
0000
0000
0000
0001
0000
1000
0100
0010
0000
0001
0000
,
0001
0000
1000
0100
0010
0100
0001
0100
,
0010
0000
0010
0000
0100
1100
1001
0000
,
0001
0000
1000
0100
0002
0000
1003
0010
,
0110
0000
0000
0000
1100
0000
0000
0000
1001
0000
0001
0100
0010
1000
0100
0010
,
0002
0000
0000
0000
0103
0000
0000
0010
0000
0000
0210
0000
0000
0000
0301
0000
,
2000
0000
0000
0000
3100
0000
0000
0010
0000
0000
0110
0000
0011
0000
1000
0000
,
0020
0000
1030
0100
0002
0000
0103
0020
,
0000
0000
0230
0000
0000
0000
2300
0000
0000
0000
3001
0100
0010
0000
1000
0000
,
2000
0000
0000
0000
3010
0000
0000
0100
0000
0000
0120
0000
0000
0000
1030
0000
,
0002
0000
0000
0000
0013
0000
0000
0100
0000
0000
0110
0000
1100
0000
0001
0000
,
0200
0000
0301
0010
2000
0000
3010
0200
,
0000
0000
0320
0000
0000
0000
0032
0000
0000
0000
0103
0010
0100
0000
0100
0000
,
1010
0000
0001
0010
1000
0100
0000
0101
,
1000
0000
0000
0000
1000
0000
0000
0100
0010
0000
0001
1000
0001
0000
0001
0000
,
0100
2000
0000
3200
0000
0302
0000
0023
,
0130
1000
0000
0000
1100
0000
0000
0001
1000
0000
0010
0100
0010
0000
0010
0000
,
0101
0000
1000
0100
0001
0010
0000
1010
,
0001
0000
0000
0000
0001
0000
0000
0010
0100
0000
1000
0001
1000
0000
1000
0000
,
0010
0002
0000
0023
0000
2030
0000
3200
,
0000
0000
0310
0000
0001
0000
1000
0000
0001
0100
0010
1000
0001
1000
0100
0010
,
0001
0000
0000
0001
0100
0000
0010
0000
1000
0000
0000
1000
0100
0000
1000
0000
,
0010
0100
0000
0000
0100
0000
1000
0000
0100
0000
0101
0000
1001
0000
1000
0000
,
0100
0000
0000
0100
0010
0000
0001
0000
1000
0000
0010
1000
0010
0000
1000
0000
,
0100
0010
0100
0000
0010
0000
0010
0000
0011
0000
1000
0000
0101
0000
1000
0000
,
1000
0000
0000
1000
0100
0000
0010
0000
0001
0000
0000
0001
0100
0000
0001
0000
,
0010
0100
0000
0000
0100
0000
0001
0000
0100
0000
1100
0000
1001
0000
0001
0000
,
0100
0000
0000
0100
0010
0000
1000
0000
0001
0000
0010
0001
0010
0000
0001
0000
,
0100
0010
0100
0000
0010
0000
0010
0000
1010
0000
0001
0000
1100
0000
0001
0000
,
0200
0010
0000
0010
,
0302
1000
0000
1000
,
0013
0200
0000
2300
0000
3002
0000
0203
,
0320
0001
0000
1030
,
0001
0000
0000
0000
0011
0000
0000
0001
1000
0000
0001
0000
0100
0000
0001
0000
,
1000
0000
0010
0000
1010
0000
0000
0010
1000
0000
0001
0000
1000
0000
0100
0000
,
0010
0000
0000
0000
0110
0000
0000
0010
1000
0000
0010
0000
0001
0000
0100
0000
,
0010
0000
0000
0000
0110
0000
0000
0010
0001
0000
0010
0000
1010
0000
1001
0000
,
0002
0000
0000
0000
2003
0000
0000
0000
3002
0000
0013
0100
0010
0000
0010
0000
,
1100
0000
0001
0100
1000
0010
0000
0011
,
1000
0000
0100
0000
1000
0000
0000
0010
0100
0000
0001
1000
0001
0000
0001
0000
,
0010
2000
0000
3020
0000
0032
0000
0203
,
0310
1000
0010
0000
1010
0000
1000
0001
1000
0000
0100
0010
0100
0000
0100
0000
,
0011
0000
1000
0010
0001
0100
0000
1100
,
0001
0000
0010
0000
0001
0000
0000
0100
0010
0000
1000
0001
1000
0000
1000
0000
,
0100
0002
0000
0203
0000
2300
0000
3020
,
0000
0000
0130
0000
0001
0000
1000
0000
0001
0010
0100
1000
0001
1000
0010
0100
,
0001
0000
0100
0001
0010
0000
0100
0000
1000
0000
0100
1000
0010
0000
1000
0000
,
0100
0010
0001
0000
0010
0000
1000
0000
0010
0000
0011
0000
1001
0000
1000
0000
,
0010
0000
0001
0010
0100
0000
0001
0000
1000
0000
0100
1000
0100
0000
1000
0000
,
0010
0100
0010
0000
0100
0000
0100
0000
0101
0000
1000
0000
0011
0000
1000
0000
,
1000
0000
0100
1000
0010
0000
0100
0000
0001
0000
0100
0001
0010
0000
0001
0000
,
0100
0010
1000
0000
0010
0000
0001
0000
0010
0000
1010
0000
1001
0000
0001
0000
,
0010
0000
1000
0010
0100
0000
1000
0000
0001
0000
0100
0001
0100
0000
0001
0000
,
0010
0100
0010
0000
0100
0000
0100
0000
0010
0001
1000
0010
0100
0001
1000
0100
,
0010
0000
0000
0010
0000
0000
0100
0000
1000
0000
0000
1000
0000
0000
1000
0000
,
0000
0001
0000
0000
0001
0000
0100
0000
1000
0000
0100
0000
0010
0000
1000
0000
,
0100
0000
0000
0100
0000
0000
0010
0000
0001
0000
0000
0001
0000
0000
0001
0000
,
0000
1000
0000
0000
1000
0000
1000
0000
0010
0000
0100
0000
0010
0000
0100
0000
,
0001
0000
0000
0000
;
