#TITLE:Blue Forest(NightBounce Remix);
#SUBTITLE:;
#ARTIST:kanone;
#TITLETRANSLIT:;
#SUBTITLETRANSLIT:;
#ARTISTTRANSLIT:;
#GENRE:;
#CREDIT:;
#MUSIC:Blue Forest(NightBounce Remix).ogg;
#BANNER:Blue Forest(NightBounce Remix).png;
#BACKGROUND:Blue Forest(NightBounce Remix)-bg.png;
#CDTITLE:;
#SAMPLESTART:20.112;
#SAMPLELENGTH:15.000;
#SELECTABLE:YES;
#OFFSET:-0.124;
#BPMS:0.000=132.000;
#STOPS:;
#BGCHANGES:;
#FGCHANGES:;

//--------------- dance-single - Chrononical ----------------
#NOTES:
     dance-single:
     Chrononical:
     Challenge:
     15:
     0,0,0,0,0:
0000
0000
0000
0000
,
0000
0000
0000
0000
,
0000
0000
0000
0000
,
0001
0000
1000
0000
0010
0100
0001
0000
,
1000
0000
0001
0000
0010
0100
1000
0000
,
0010
0000
0100
0000
0001
1000
0010
0000
,
0100
0000
0001
0000
0010
0001
0010
0000
,
0011
0000
0011
0000
0001
0100
1000
0100
,
0101
0000
0101
0000
0001
0010
1000
0010
,
0011
0000
0011
0000
0001
1000
0001
1000
,
0010
0000
0000
0000
1000
0000
0100
0000
0000
0000
0010
0000
0001
0000
0000
0000
1000
0000
0010
0000
0000
0000
0100
0000
0001
0000
0000
1000
0000
0000
0001
0000
0000
0000
0000
0000
1001
0000
0000
0000
0000
0000
0000
0000
0000
0000
0000
0000
,
1000
0000
0010
0100
0000
0001
0010
0000
0000
0001
0000
0000
1000
0000
0000
0010
0000
0000
0100
0000
0010
0100
0000
0010
,
0000
0000
1000
0010
0000
1000
0010
0000
0100
0000
0000
0001
0000
0000
0000
1000
0000
0001
1000
0000
0001
1000
0000
0001
,
0000
0000
1000
0100
0000
1000
0000
0000
0010
0100
0000
0000
0001
0000
0100
0000
0000
0100
0001
0000
0000
0000
0000
0001
,
0000
0000
0010
0001
0000
0010
0000
0000
0001
0010
0000
0000
0001
0000
1000
0001
0000
1000
0002
0000
0000
0000
0000
0000
,
0103
0000
0010
1000
0000
0010
1000
0000
0000
0100
0000
0000
0010
0000
0000
0001
0000
0000
1000
0000
0010
0100
0000
0001
,
0000
0000
1000
0100
0000
0100
1000
0000
0010
0100
0000
0010
0000
0000
0000
0100
0000
0010
0100
0000
0010
0100
0000
0010
,
0000
0000
1000
0010
0000
0100
0000
0000
0001
0010
0000
0000
0010
0000
0100
0000
0000
0100
0010
0000
0000
0000
0000
0001
,
0000
0000
1000
0010
0000
1000
0000
0000
0010
1000
0000
0000
1010
0000
0000
1001
0000
0000
0011
0000
0000
1001
0000
0000
,
0001
0000
1000
0100
0000
0010
0001
0000
0000
0010
0000
0000
1000
0000
0000
0001
0000
0000
0100
0000
0010
0100
0000
1000
,
0000
0000
0010
0100
0000
0010
1000
0000
0001
0000
0000
1000
0000
0000
0000
0001
0000
1000
0001
0000
1000
0001
0000
1000
,
0000
0000
0010
0100
0000
0001
0000
0000
0001
0010
0000
0000
0001
0000
1000
0000
0000
1000
0001
0000
0000
0000
0000
1000
,
0000
0000
0100
0010
0000
0001
0000
0000
0001
1000
0000
0000
0010
0000
0100
0010
0000
0100
0020
0000
0000
0000
0000
0000
,
0130
0000
0001
1000
0000
0010
0100
0000
0000
0010
0000
0000
0100
0000
0000
0001
0000
0000
0100
0000
0001
0010
0000
0001
,
0100
0000
0010
1000
0000
0010
0100
0000
0001
1000
0000
0010
0100
0000
0000
0010
0000
1000
0100
0000
1000
0010
0000
1000
,
0100
1000
0100
0001
0100
1000
0100
0001
,
0100
0000
1000
0010
0000
1000
0001
0000
1000
0010
0000
0100
0001
0000
0010
0001
0000
1000
0001
0000
1000
0001
0000
0000
,
1001
0000
1000
0000
0010
0100
0010
0000
,
1000
0000
0001
0000
0010
0100
0010
0000
,
0001
0000
1000
0000
0001
1000
0001
0000
,
1000
0000
0010
0000
0100
0001
1000
0001
,
1001
2000
3200
0010
,
2300
3020
0230
1000
,
0302
0023
0230
2300
,
3002
0100
0203
0010
0320
1000
2030
0001
,
3002
1000
0010
1000
,
2003
3020
0230
2300
,
3200
0320
2030
3200
,
2300
0000
0000
0000
3002
0000
0010
0000
0010
0000
0000
0100
0000
0100
0000
0000
,
1003
0100
0001
0100
1000
0100
0001
0100
,
1000
0010
1000
0010
2000
0000
3002
0000
0013
0100
0010
0100
2000
0000
3002
0000
,
1003
0010
0001
0010
1000
0010
0001
0010
,
2000
0000
0000
3200
0000
0000
0320
0000
0000
0032
0000
0000
0103
0000
0010
0000
0100
0000
0020
0000
0000
2030
0000
0000
,
3001
0010
0100
0001
0100
0010
0001
1000
,
0002
0000
1003
0010
2000
0000
3001
0010
0002
0000
0103
0000
0020
0000
2030
0000
,
3010
0000
1000
0100
0000
1000
0100
0000
1000
0010
0000
1000
0010
0000
0100
0001
0000
0100
0001
0000
0010
0002
0000
0000
,
1003
0000
0010
0100
0000
0010
0100
0000
0010
0100
0000
0001
0000
0000
1000
0100
0000
1000
0200
0000
0000
0000
0000
0000
,
1300
0000
0010
0100
0000
0001
0010
0000
0000
0100
0000
0000
1000
0000
0000
0010
0000
0000
0100
0000
0001
0100
0000
0001
,
0000
0000
1000
0010
0000
0100
0010
0000
1000
0000
0000
1000
0000
0000
0000
0001
0000
1000
0001
0000
1000
0001
0000
1000
,
0000
1001
0000
0110
0000
1001
0000
1100
,
0000
0000
0000
0011
0000
0000
0000
0000
0000
0101
0000
0000
0001
0000
1000
0001
0000
1000
0002
0000
0000
0000
0000
0000
,
1003
0000
0100
1000
0000
0010
1000
0000
0000
0010
0000
0000
0001
0000
0000
1000
0000
0000
0100
0000
0010
0100
0000
0001
,
0000
0000
1000
0010
0000
0010
1000
0000
0100
0010
0000
0001
0000
0000
0000
0100
0000
0010
0100
0000
0010
0100
0000
0010
,
0000
1010
0000
1100
0000
0110
0000
0011
,
0000
0000
0000
0101
0000
0000
0000
0000
0000
1001
0000
0000
1000
0000
0010
0100
0000
0001
1000
0000
0100
0010
0000
0001
,
1000
0100
0001
0100
1000
0010
0001
0010
,
1000
0100
0001
0100
0010
0001
2000
0000
,
3001
0100
1000
0100
0001
0001
0002
0000
,
1003
0100
0001
0100
1000
1000
0002
0100
,
0103
0000
0001
1000
0000
0010
0100
0000
0000
0010
0000
0000
0100
0000
0000
1000
0000
0000
0100
0000
0001
0100
0000
0001
,
0010
0000
0100
0010
0000
0100
0010
0000
0001
0010
0000
0001
0010
0000
0000
0100
0000
1000
0010
0000
0100
0010
0000
1000
,
0010
1000
0010
0001
0010
1000
0010
0001
,
0010
0000
1000
0010
0000
0100
0010
0000
0100
0001
0000
0010
0001
0000
0100
0001
0000
0100
0010
0000
1000
0100
0000
0010
,
0001
0000
1000
0001
0000
0000
MMMM
0000
0000
0000
0000
0000
0100
0000
0010
0100
0000
0000
MMMM
0000
0000
0000
0000
0000
,
0001
0000
0100
0010
0000
1000
0000
0000
0001
0100
0000
0001
0010
0000
0001
0100
0000
0000
0110
0000
0000
0000
0000
0000
,
2002
0000
0000
0000
,
3003
0000
0000
0000
;
