#TITLE:Blossoms for Life;
#SUBTITLE:;
#ARTIST:Shi Kuang Lee & Pico & 林子玹;
#TITLETRANSLIT:;
#SUBTITLETRANSLIT:;
#ARTISTTRANSLIT:;
#GENRE:;
#CREDIT:;
#MUSIC:Blossoms for Life.ogg;
#BANNER:;
#BACKGROUND:;
#CDTITLE:;
#SAMPLESTART:43.597;
#SAMPLELENGTH:16.000;
#SELECTABLE:YES;
#OFFSET:-0.097;
#BPMS:0.000=120.000;
#STOPS:216.000=0.500;
#BGCHANGES:;
#FGCHANGES:;

//--------------- dance-single - eataninja ----------------
#NOTES:
     dance-single:
     eataninja:
     Medium:
     12:
     0,0,0,0,0:
0000
0000
0000
0000
,
0000
0000
0000
0000
,
0000
0000
0000
0000
,
0000
0000
0000
0000
,
0000
0000
0000
0000
,
0000
0000
0000
0000
,
1000
0000
0000
0001
0000
0000
0010
0000
0000
0001
0000
0000
0100
0000
0000
0000
,
0100
0000
0000
0001
0000
0000
0010
0000
0000
0001
0000
0000
1000
0000
0000
0000
,
1000
0000
0000
0001
0000
0000
0100
0000
0000
0001
0000
0000
0010
0000
0000
0000
,
0010
0000
0000
0100
0000
0000
0010
0000
0001
1000
0001
0000
1000
0100
1000
0000
,
0001
0000
0000
0100
0000
0000
1000
0000
0000
0100
0000
0000
0010
0000
0000
1000
,
0000
0000
0100
0000
0000
0010
0000
0000
0001
0000
0000
0001
1000
0000
0010
0000
,
0100
0000
0000
0001
0000
0000
0010
0000
0000
1000
0000
0000
0010
0000
0000
0010
,
0000
0000
0100
0000
0000
1000
0000
0000
0010
0000
0000
0010
0100
0000
0001
0000
,
1000
0000
0000
0100
0000
0000
0010
0000
0000
0001
0000
0000
1000
0000
0010
0100
,
0000
0000
1000
0000
0000
0100
0000
0000
0001
0000
0000
0001
0010
0000
0100
0000
,
0001
0000
0000
1000
0000
0000
0010
0000
0000
0001
0000
0000
0010
0000
0000
1000
,
0000
0000
0001
0000
0000
0100
0000
0000
1000
0000
0000
1000
0001
0000
0100
0000
,
0010
0000
0000
1000
0000
0000
2200
0000
0000
0000
0000
0000
3300
0000
0000
0000
,
1001
0000
0000
0011
0000
0000
0202
0000
0000
0000
0000
0000
0303
0000
0000
0000
,
0100
0000
0000
0001
0000
0000
0021
0000
0000
0000
0000
0000
1000
0000
0000
0000
,
0100
0000
0001
0000
1030
0000
0010
0100
,
1000
0010
0000
1000
0010
0000
0000
0100
0000
0000
0001
0000
0010
0000
0100
0000
,
0001
0100
0000
1000
0000
0000
0010
0000
0100
0001
0000
1000
0000
0000
0010
0000
,
0100
0001
0000
0010
0000
0000
0100
0010
0000
0010
0001
0000
1000
0000
0010
0100
,
0000
0001
1000
0000
0000
0100
0010
0000
0001
0000
0100
0000
1000
0000
0100
0000
,
0001
1000
0000
1000
0000
0000
1100
0000
0000
0102
0000
0000
0000
0000
0013
0000
,
0100
0001
0000
0100
0000
0000
1000
0000
0001
0100
0000
0000
0010
0000
1000
0000
,
0100
0020
0000
1030
0001
0200
0000
1300
,
0020
0000
0000
0000
0230
0000
0000
0000
0301
1000
0001
0000
1000
0000
0010
0000
,
0100
0010
0000
1000
0001
0000
0010
0100
0000
0000
1100
0000
0000
0000
0001
0000
,
0100
1000
0000
0100
0000
0000
0001
0000
0010
0100
0000
1000
0000
0000
1010
0000
,
0010
0100
0000
0001
0000
0000
1000
0100
1000
0000
0010
0000
0100
0010
0000
0010
,
1000
0001
0010
1000
0001
0100
0010
0001
,
1000
0010
0000
0010
0000
0000
1010
0000
0000
0012
0000
0000
0000
0000
1003
0000
,
0010
0100
0000
1000
0000
0000
0100
0000
0001
1000
0000
0000
1000
0000
0100
0000
,
0001
0000
1000
0000
0010
0000
0001
0000
0100
0000
0000
1000
0000
0000
0001
0000
,
0000
0010
0000
0000
1000
0000
0100
0000
0010
0001
0010
0001
1000
0000
0000
0010
,
0000
0000
0110
0000
0000
1001
0000
0000
0001
0000
0000
0010
0000
0000
0110
0000
,
0000
1001
0000
0000
1100
0000
0000
0010
0001
0000
0100
0000
0010
0000
0000
0001
,
0000
0000
0011
0000
0000
1010
0000
0000
1000
0000
0000
0100
0000
0000
0101
0000
,
0000
1100
0000
0000
1001
0000
0000
1000
0010
0000
0100
0000
0001
0000
0000
1000
,
0000
0000
1100
0000
0000
0011
0000
0000
0001
0000
1000
0000
0010
0000
0100
0000
,
0000
0110
0000
0000
1001
0000
0000
0001
0100
0000
0010
0000
0011
0000
0000
1010
,
0000
0000
1100
0000
0000
0110
0000
0000
0011
0000
0000
1001
0000
0000
1010
0000
,
0000
0110
0000
0000
0101
0000
0000
1000
0001
0000
0010
0000
0100
0000
0000
1000
,
0000
0000
2002
0000
0000
0000
0000
0000
3003
0000
0000
0000
0101
0000
0000
1100
,
0000
0000
0220
0000
0000
0000
0000
0000
0330
0000
0000
0000
0010
0000
0000
1000
,
0000
2002
0000
0000
3003
0000
1000
0100
,
0010
0000
0001
0000
0100
0000
0000
0100
0000
0000
0110
0000
0000
0010
0000
0000
,
1001
0000
0000
1000
0010
0000
0000
0010
0000
0000
0110
0000
0000
0100
0000
0000
,
1001
0000
0000
0001
1000
0000
0000
0010
0000
0000
0110
0000
0000
0100
0000
0000
,
0001
0000
0000
0010
0100
0000
0000
0100
0000
0000
2002
0000
0000
0000
0000
0000
,
3003
0000
0000
0000
1010
0000
0000
1010
0000
0000
0101
0000
0000
1100
0000
0000
,
0011
0000
0000
1000
0001
0000
0100
0000
1000
0000
0000
1000
0000
0000
0200
0000
,
0000
0000
0301
0000
0010
0100
0000
0001
0000
0000
0100
0000
0010
0001
0000
1000
,
0000
0000
0010
0000
0100
0001
0000
1000
0000
0000
0100
0001
0000
0100
1000
0000
,
0010
0000
0000
0100
0000
0000
0002
0000
0000
0023
0000
0000
0230
0000
0000
0000
,
1300
0000
0001
0000
0100
0001
0000
0001
0000
0000
0000
0000
1001
0000
0210
0000
,
0000
0000
1300
0000
0010
0100
0000
0001
0000
0000
0010
0000
0100
1000
0000
0000
,
0010
0001
1000
0200
0000
1300
0001
0020
,
0000
0000
1030
0000
0200
0000
0000
0000
0320
0000
0000
0000
0031
1000
0001
0000
,
1000
0000
0010
0000
0100
0001
0000
0001
0000
0000
0101
0000
0000
1200
0000
0000
,
0000
0000
0310
0000
0001
0100
0000
1000
0000
0000
0100
0000
0001
0010
0000
0100
,
0000
0000
0001
0000
0100
0010
0000
0001
0000
0000
1000
0010
1000
0010
1000
0000
,
0001
0010
0000
0100
1000
0000
0010
0000
0001
0000
1000
0000
0100
0000
0001
0000
,
0010
0000
0100
0000
1000
0001
0000
1000
0010
0000
0100
0000
0001
0000
0010
0000
,
0000
0000
0100
0000
0001
0100
0000
1000
0000
0000
0010
0000
0100
0001
0000
0000
,
1000
0000
0010
0000
0001
0000
1000
0000
0100
0000
0001
0000
1000
0000
0000
0100
,
0000
0000
0001
0000
0000
0100
0000
0000
1000
0000
0010
0000
0100
0000
1000
0000
,
0001
0000
0010
0000
0100
0000
0000
0001
0000
0000
1000
0000
1100
0000
0000
0110
,
0000
0022
0000
0000
0000
0000
0000
0000
,
0000
0000
0033
0000
;

//--------------- dance-single - eataninja ----------------
#NOTES:
     dance-single:
     eataninja:
     Hard:
     15:
     0,0,0,0,0:
0000
0000
0000
0000
,
0000
0000
0000
0000
,
0000
0000
0000
0000
,
0000
0000
0000
0000
,
0000
0000
0000
0000
,
0000
0000
0000
0000
,
1000
0000
0000
0010
0000
0000
0100
0000
0000
0010
0000
0000
1000
0001
1000
0100
,
0010
0000
0000
0001
0000
0000
0100
0000
0000
0001
0000
0000
0010
0001
1000
0001
,
0100
0000
0000
0010
0000
0000
0100
0000
0000
0001
0000
0000
0100
0010
0100
0001
,
1000
0000
0000
0100
0000
0000
1000
0000
0000
0001
0100
0010
1000
0100
0010
0001
,
1000
0000
0000
0010
0000
0000
0100
0000
0000
0001
0000
0000
0011
0000
0000
0100
,
0000
0000
1000
0000
0000
0001
0000
0000
1000
0000
0010
0100
0001
1000
0001
0010
,
0100
0000
0000
1000
0000
0000
0010
0000
0000
0100
0000
0000
1001
0000
0000
1100
,
0000
0000
0100
0000
0000
0010
0000
0000
0001
0000
0000
0001
0100
0000
1000
0100
,
0001
0000
0000
1000
0000
0000
0100
0000
0000
1000
0000
0000
1010
0000
0000
0001
,
0000
0000
1000
0000
0000
0001
0000
0000
0010
0000
0100
0010
0001
1000
0010
0100
,
1000
0000
0000
0100
0000
0000
0001
0000
0000
0010
0000
0000
0110
0000
0000
1001
,
0000
0000
1000
0000
0000
0100
0000
0000
0010
0000
0000
0001
0100
0000
0010
0100
,
0110
0000
0000
1001
0000
0000
1200
0000
0000
0000
0310
0001
0100
0010
1000
0001
,
0100
0000
0010
1000
0000
1000
0100
0000
0010
0001
0010
0001
1000
0010
1000
0010
,
0100
0000
1000
0100
0000
0001
1000
0000
0100
0010
0001
1000
0010
0100
0001
1000
,
0100
0001
0100
0010
0001
0100
0010
1000
0001
0100
1000
0100
0010
0000
0100
0000
,
0001
1000
0000
1200
0000
0000
0310
0001
1000
0000
0100
0000
0000
0000
0010
0100
,
1000
0010
0000
0002
0000
0000
0013
0000
1000
0001
0000
0021
0000
0000
0130
0000
,
1000
0010
0000
0210
0000
0000
0301
1000
0000
0100
0001
0100
0010
0000
0001
0100
,
0000
1000
0002
0000
0000
0023
0000
0000
2030
0000
0000
0000
3001
0000
0010
0000
,
0100
1000
0000
1001
0000
0000
1010
0000
0000
0120
0000
0000
0000
0030
1000
0001
,
0010
1000
0000
0020
0000
0000
0130
0000
1000
0001
0000
0100
0010
0000
0001
0000
,
1000
0000
0100
0010
1000
0000
0001
0010
0100
0000
0220
0000
0000
0000
0330
0000
,
0100
0000
1000
0000
0001
0100
0000
0010
0000
1000
0001
0000
0010
0000
0000
0010
,
0100
0000
1000
0000
0001
0100
0001
0100
0010
0000
0210
0000
0000
0000
0301
0000
,
1000
0100
0000
0001
0000
0000
0100
0000
0010
0001
0000
1000
0000
0010
0100
0000
,
0001
0010
0000
1000
0000
0000
0010
0100
1000
0001
1000
0000
0010
0001
0000
1000
,
0100
0010
1000
0001
0010
0100
0001
0100
0010
0001
1000
0010
0100
0000
0001
0000
,
1000
0100
0000
0101
0000
0000
0110
0000
0000
2001
0000
0000
0000
3000
0010
1000
,
0001
0010
0000
1000
0000
0000
0010
0000
0100
1000
0000
0000
0001
0000
0100
0000
,
010M
0000
1000
0000
0010
0000
M010
0000
0001
0000
0000
0100
0000
0000
1M00
0000
,
0000
0010
0000
0000
00M1
1000
0001
0010
0100
1000
0010
0100
0001
0000
1000
0100
,
0000
0010
0001
0000
1000
0010
0000
0100
0001
0000
0010
0100
0000
1000
0001
0000
,
0100
0010
0000
1000
0001
0000
1000
0010
0001
0010
0100
0001
1000
0000
0100
1000
,
0000
0001
0100
0000
0010
1000
0000
0001
0010
0000
0100
0001
0000
0100
0010
0000
,
0001
1000
0000
0010
0100
0000
0001
0010
0100
1000
0001
1000
0010
0000
0100
0010
,
0000
1000
0001
0000
0010
0100
0000
0010
0001
0000
1000
0010
0000
0100
0001
0000
,
0010
0100
0000
1000
0001
0000
0100
0010
1000
0100
0001
0100
0010
0000
0001
0100
,
0000
0010
1000
0000
0100
0001
0000
0100
0010
0000
0001
1000
0000
0010
0001
0000
,
0010
0100
0000
0001
1000
0000
0100
0010
0001
0000
1000
0010
1010
0000
0000
0110
,
0000
0000
0102
0000
0000
0000
1003
0100
0010
0001
1000
0010
0100
0000
0001
1000
,
0000
0100
0001
0000
1000
0000
0010
0000
0001
0000
0100
0000
0010
0000
0100
0001
,
0000
1000
0100
0000
0010
0001
1000
0001
0100
0010
1000
0100
0010
0001
0100
1000
,
0100
0001
0010
0100
1000
0000
0000
1000
0000
0000
0001
0000
0000
0001
0000
0000
,
0010
0100
1000
0001
0100
0000
0000
0100
0000
0000
0001
0000
0000
0001
0000
0000
,
1000
0100
0010
0001
1000
0000
0000
1000
0000
0000
0010
0000
0000
0010
0000
0000
,
0100
0001
1000
0001
0010
0000
0000
0010
0000
0000
1002
0000
0000
0000
0103
0010
,
1000
0100
0010
0001
0100
0000
0000
0100
0000
0000
0101
0000
0000
1001
0000
0000
,
2200
3300
0000
0000
1000
0000
0100
0000
0001
0000
0000
0100
0000
0000
0210
0000
,
0000
0300
1000
0001
0100
1000
0000
0200
0000
0000
0301
0000
1000
0100
0000
1002
,
0000
0000
1003
0000
0001
0100
0000
2001
0000
0000
3010
0100
0000
0001
0010
0100
,
0001
0000
1000
0010
0000
0001
0100
0000
0010
0100
0001
1000
0100
0010
0001
1000
,
0001
0000
0100
0000
1000
0100
0000
0110
0000
0000
0001
1000
0100
0000
2001
0000
,
0000
3000
0010
1000
0010
0001
0000
0020
0000
0000
0130
0000
0001
1000
0000
0100
,
0010
1000
0001
0201
0000
1300
0010
0012
,
0000
0013
0200
0000
0302
0000
0023
0000
,
0130
0000
1000
0000
0001
0100
0000
0110
0000
0000
1001
0000
0000
2100
0000
0000
,
0000
3000
0001
1000
0010
0001
0000
0020
0000
0000
0130
0000
0001
1000
0000
1200
,
0000
0000
0310
0000
0001
1000
0000
1020
0000
0000
0130
0001
0100
0010
0001
0000
,
1000
0100
0000
0001
0010
1000
0010
0100
1000
0010
0001
0010
0100
0001
1000
0100
,
0010
0000
0001
0000
0100
1000
0000
0100
0001
0000
1000
0000
0100
0010
0002
0000
,
0000
0000
1003
0000
0010
0100
0000
1000
0000
0000
0100
0000
0001
0010
0000
0000
,
0001
0000
0010
0000
001M
0000
1000
0000
0100
0000
M100
0000
0001
0010
0001
1000
,
0010
1000
0001
0100
0001
1000
0100
1000
0001
0000
0100
0000
010M
0000
1000
0000
,
0010
0000
M010
0000
0001
1000
0100
0010
0001
0100
0010
1000
1001
0000
0000
0101
,
0000
2200
0000
0000
0000
0000
0000
0000
,
0000
0000
3300
0000
;
