#TITLE:Blooming Day;
#SUBTITLE:;
#ARTIST:EXO-CBX;
#TITLETRANSLIT:;
#SUBTITLETRANSLIT:;
#ARTISTTRANSLIT:;
#GENRE:K-Pop;
#CREDIT:;
#BANNER:Blooming Day.png;
#BACKGROUND:Blooming Day-bg.png;
#LYRICSPATH:;
#CDTITLE:cdtitle.png;
#MUSIC:Blooming Day.ogg;
#OFFSET:0.000000;
#SAMPLESTART:50.305637;
#SAMPLELENGTH:16.371193;
#SELECTABLE:YES;
#BPMS:0.000000=118.000000
;
#STOPS:
;
#BGCHANGES:3.750=Blooming Day.avi=1.000=0=0=1=====,
259.500=Blooming Day-bg.png=1.000=1=0=1===CrossFade==,
99999=-nosongbg-=1.000=0=0=0 // don't automatically add -songbackground-
;
#KEYSOUNDS:;
#ATTACKS:;

//---------------dance-single - ----------------
#NOTES:
     dance-single:
     :
     Challenge:
     14:
     0.580363,0.624089,0.295996,0.406994,0.562392,549.000000,509.000000,40.000000,55.000000,0.000000,0.000000,0.580363,0.624089,0.295996,0.406994,0.562392,549.000000,509.000000,40.000000,55.000000,0.000000,0.000000:
// measure 0
0000
0000
0000
0000
,  // measure 1
0000
0000
0000
0000
,  // measure 2
0000
0000
0000
0000
,  // measure 3
0000
0000
0000
0000
,  // measure 4
0000
0000
0000
0000
0001
0010
0010
0100
,  // measure 5
0010
0000
0010
0000
0011
0000
0000
0000
0100
0000
0000
0000
1010
0000
0010
2000
,  // measure 6
0000
0000
0000
0000
3001
0000
0000
0000
0100
0000
0000
0000
0100
0001
0000
1000
,  // measure 7
0000
1000
0000
0010
0000
0010
0000
1000
0000
0100
0000
0010
0000
0000
0000
0010
,  // measure 8
0000
0010
0000
0001
0000
0001
0000
0100
0000
0010
0000
0100
0000
0002
0000
0000
,  // measure 9
1003
0010
0000
1000
0000
0010
0100
0010
1000
0000
0010
0000
1010
0000
0000
0000
,  // measure 10
0001
0010
0000
0001
0000
0010
0100
0010
0001
0000
0010
0000
0011
0000
0000
0000
,  // measure 11
1000
0010
0000
0100
0000
0010
0100
0001
1000
0000
0100
0000
0001
0000
0100
0000
,  // measure 12
1000
0000
0020
0000
0000
0032
0000
0000
0023
0000
1030
0000
2010
0000
0000
3010
,  // measure 13
0100
0010
0000
1000
0000
0001
0100
0001
0010
0000
0100
0000
0210
0000
0000
0310
,  // measure 14
0001
0010
0000
0001
0000
0100
0010
0100
0001
0000
1000
0000
1200
0000
0000
1300
,  // measure 15
0010
1000
0000
0001
0000
1000
0010
1000
0001
0000
0010
0000
0012
0000
0000
1003
,  // measure 16
0000
0000
0000
0000
0200
0000
0000
0000
0320
0000
0000
0000
0031
0100
0010
1000
,  // measure 17
0001
0000
0010
0000
1000
0000
0001
0000
0100
0000
1000
0000
0001
0000
0010
0200
,  // measure 18
0000
0000
1300
0000
1000
0000
0010
0200
0000
0000
0301
0000
0001
0000
1000
0000
,  // measure 19
0010
0010
0001
0010
1000
1000
0001
0010
,  // measure 20
0100
0010
0001
0100
0010
0110
1010
0001
,  // measure 21
1000
0000
0010
0000
0001
0000
1000
0000
0100
0000
0001
0000
0010
0000
1000
0020
,  // measure 22
0000
0000
0031
0000
0100
0000
1000
0200
0000
0000
0301
0000
0010
0000
0100
0000
,  // measure 23
1000
1000
0010
0001
0010
0010
0100
0001
,  // measure 24
1000
0100
1000
0000
0010
0000
0100
0001
0100
0010
1000
0000
0002
0000
0000
1003
,  // measure 25
0100
1000
0001
0000
0100
0000
0010
0000
0110
0000
0000
0000
2001
0000
0000
3001
,  // measure 26
0010
0001
1000
0000
0010
0000
0100
0000
0120
0000
0000
0000
1030
0010
0000
1000
,  // measure 27
0001
1000
0000
0100
1000
0100
0000
1000
0001
0000
0100
0000
0001
0010
0000
0001
,  // measure 28
0010
0000
0100
0000
1000
0010
0000
1000
0010
0000
0100
0000
0200
0000
0000
0301
,  // measure 29
0010
0001
1000
0000
0010
0000
1000
0000
1010
0000
0000
0000
0102
0000
0000
1003
,  // measure 30
0100
1000
0001
0000
0010
0000
0001
0000
0021
0000
0000
0000
0031
0100
0000
0010
,  // measure 31
1000
0100
0000
0010
0001
0100
0000
2002
0000
0000
3003
0000
1000
0000
0100
0010
,  // measure 32
0001
0000
0100
0000
0010
1000
0010
0000
1000
0000
1001
0000
1100
0000
0000
0000
,  // measure 33
0010
0000
0010
0001
0100
0002
0203
0310
,  // measure 34
1000
0000
0100
0000
0100
0000
0100
0000
0010
0000
0001
0000
0001
0010
0001
0000
,  // measure 35
0100
0000
0000
0000
0100
0000
0010
0000
1000
0000
0010
0000
2000
0000
3100
0010
,  // measure 36
0001
0000
0001
0000
0100
0000
0100
0000
1000
0000
0000
0000
0100
0000
0000
1001
,  // measure 37
0000
0000
0001
0000
1000
0000
0100
0000
0010
0000
0100
0000
0020
0032
0003
0000
,  // measure 38
1000
0000
0010
0100
0000
0010
0000
0001
0000
1000
0000
0100
0000
0001
0000
0020
,  // measure 39
0000
0000
1000
0000
0000
0100
0000
0000
0031
0000
0002
0000
0000
0000
1003
0000
,  // measure 40
0000
0000
0020
0000
0130
0001
2002
3003
,  // measure 41
2000
0000
0010
0000
3020
0000
0001
0000
0032
0000
0013
0000
1010
0000
0000
0101
,  // measure 42
0000
0001
0010
0000
0100
0000
1000
0000
0002
0000
0100
0000
1003
0010
0000
0001
,  // measure 43
0000
0010
0100
0010
1000
0000
1000
0100
0000
0100
0010
0000
0011
0000
0000
1100
,  // measure 44
0000
1000
0010
0000
0100
0000
0001
0000
1000
0001
1000
0001
0200
0000
0000
0000
,  // measure 45
0302
0000
0010
0000
0023
0000
1000
0000
2030
0000
3010
0000
0110
0000
0000
1001
,  // measure 46
0000
0001
0100
0000
0010
0000
1000
0000
0200
0000
0310
0001
0200
0000
0000
0000
,  // measure 47
0301
0000
0010
0000
1000
0000
0010
0001
0000
0000
0002
0000
0100
0000
0203
0000
,  // measure 48
0010
0000
0010
0000
0310
0000
1000
0001
1000
0000
0010
0000
0100
0001
0010
0100
,  // measure 49
1000
0000
0100
0000
0001
0000
1000
0000
0020
0000
0000
0032
0000
0000
0203
0000
,  // measure 50
1300
0000
0000
0000
1100
0000
0000
0000
0101
0000
0000
0001
1000
0000
0100
0000
,  // measure 51
0010
0010
1000
0010
0100
0100
1000
0010
,  // measure 52
0001
1000
0100
0001
0100
1010
0101
1000
,  // measure 53
0001
0000
0010
0000
1000
0000
0001
0000
0100
0000
1000
0000
0001
0000
1000
0020
,  // measure 54
0000
1030
0001
0000
0100
0000
0001
0020
0000
0031
1000
0000
0001
0000
0100
0000
,  // measure 55
0010
0010
0001
0010
0100
0100
0001
1000
,  // measure 56
0100
0010
0001
0000
0001
0000
0010
0001
0100
0010
0100
0010
2000
0000
0000
3010
,  // measure 57
1000
0001
1000
0000
0100
0000
0001
0000
0101
0000
0000
0000
0110
0000
0000
0010
,  // measure 58
0001
1000
0001
0000
0100
0000
1000
0000
1200
0000
0000
0000
0301
0010
0000
0010
,  // measure 59
0100
0010
0000
0010
1000
0010
0000
0010
0001
0000
1000
0000
0010
0100
0000
0100
,  // measure 60
1000
0000
0100
0000
0001
0100
0000
0100
0010
1000
0001
0000
1001
0000
0000
1000
,  // measure 61
0100
1000
0010
0000
0001
0000
0010
0000
1010
0000
0000
0000
0110
0000
0000
0001
,  // measure 62
0100
0001
0010
0000
1000
0000
0010
0000
0021
0000
0000
0000
0031
0010
0000
0010
,  // measure 63
0001
0100
0000
0100
0010
1000
0000
1000
0100
0010
0001
0000
1000
0000
0010
1000
,  // measure 64
0001
0100
0010
0000
0010
1000
0000
1000
0100
0000
0110
0000
2002
0000
3003
0000
;

//---------------dance-single - ----------------
#NOTES:
     dance-single:
     :
     Beginner:
     2:
     0.140598,0.167700,0.000000,0.029600,0.000000,133.000000,133.000000,0.000000,4.000000,0.000000,0.000000,0.140598,0.167700,0.000000,0.029600,0.000000,133.000000,133.000000,0.000000,4.000000,0.000000,0.000000:
// measure 0
0000
0000
0000
0000
,  // measure 1
0000
0000
0000
0000
,  // measure 2
0000
0000
0000
0000
,  // measure 3
0000
0000
0000
0000
,  // measure 4
0000
0000
0000
0000
,  // measure 5
0000
0001
0000
0001
,  // measure 6
0000
1000
0000
1000
,  // measure 7
0000
0001
0000
1000
,  // measure 8
0000
0001
0000
1000
,  // measure 9
1000
0000
0010
0000
,  // measure 10
0100
0000
0010
0000
,  // measure 11
1000
0000
0010
0000
,  // measure 12
0100
0100
0100
0000
,  // measure 13
0001
0000
0010
0000
,  // measure 14
0100
0000
0010
0000
,  // measure 15
0001
0000
0010
0000
,  // measure 16
0000
0100
0100
0000
,  // measure 17
1000
1000
1000
0000
,  // measure 18
1000
0000
1000
0000
,  // measure 19
0010
0000
0100
0000
,  // measure 20
0010
0000
0100
0000
,  // measure 21
0001
0001
0001
0000
,  // measure 22
0001
0000
0001
0000
,  // measure 23
0010
0000
0100
0000
,  // measure 24
0010
0000
0100
0000
,  // measure 25
1000
0000
0010
0000
,  // measure 26
0100
0000
0001
0000
,  // measure 27
0010
0010
0010
0000
,  // measure 28
0010
0010
0010
0000
,  // measure 29
0001
0000
0010
0000
,  // measure 30
0100
0000
1000
0000
,  // measure 31
0010
0010
0020
0000
,  // measure 32
0030
0000
0010
0010
,  // measure 33
0010
0000
0010
0000
,  // measure 34
1000
0000
0001
0000
,  // measure 35
0010
0000
0010
0000
,  // measure 36
0001
0000
1000
0000
,  // measure 37
0010
0000
0010
0000
,  // measure 38
0100
0000
0010
0000
,  // measure 39
0200
0000
0300
0000
,  // measure 40
0100
0000
0000
0000
,  // measure 41
0001
0001
0001
0000
,  // measure 42
0010
0000
0100
0000
,  // measure 43
1000
1000
1000
0000
,  // measure 44
0010
0000
0100
0000
,  // measure 45
0001
0001
0001
0000
,  // measure 46
1000
0000
0100
0000
,  // measure 47
0010
0010
0010
0000
,  // measure 48
0020
0000
0030
0000
,  // measure 49
0001
0001
0001
0000
,  // measure 50
0001
0000
0001
0000
,  // measure 51
0010
0000
0001
0000
,  // measure 52
0100
0000
0010
0000
,  // measure 53
1000
1000
1000
0000
,  // measure 54
1000
0000
1000
0000
,  // measure 55
0010
0000
1000
0000
,  // measure 56
0100
0100
0100
0000
,  // measure 57
1000
0000
0010
0000
,  // measure 58
0001
0000
0010
0000
,  // measure 59
1000
1000
1000
0000
,  // measure 60
1000
1000
1000
0000
,  // measure 61
0001
0000
0010
0000
,  // measure 62
1000
0000
0010
0000
,  // measure 63
0001
0001
0002
0000
,  // measure 64
0003
0000
0001
0001
;

//---------------dance-single - ----------------
#NOTES:
     dance-single:
     :
     Hard:
     12:
     0.480993,0.504072,0.236797,0.384795,0.392195,455.000000,423.000000,32.000000,52.000000,0.000000,0.000000,0.480993,0.504072,0.236797,0.384795,0.392195,455.000000,423.000000,32.000000,52.000000,0.000000,0.000000:
// measure 0
0000
0000
0000
0000
,  // measure 1
0000
0000
0000
0000
,  // measure 2
0000
0000
0000
0000
,  // measure 3
0000
0000
0000
0000
,  // measure 4
0000
0000
0000
0000
,  // measure 5
0001
0000
0010
0000
0001
0000
0000
0000
1000
0000
0000
0000
1000
0000
0000
0020
,  // measure 6
0000
0000
0000
0000
1030
0000
0000
0000
0001
0000
0000
0000
1000
0000
0000
0010
,  // measure 7
0000
0100
0000
0010
0000
0100
0000
0001
0000
1000
0000
0100
0000
0000
0000
0010
,  // measure 8
0000
0001
0000
0100
0000
0010
0000
1000
0000
0100
0000
0010
0000
0002
0000
0000
,  // measure 9
1003
0000
0001
0000
1000
0000
0010
0000
0100
0000
0100
0000
0101
0000
0000
0100
,  // measure 10
0001
0000
1000
0000
0001
0000
0100
0000
0010
0000
0010
0000
1010
0000
0000
0010
,  // measure 11
1000
0000
0010
0000
1000
0000
0100
0000
0010
0000
0010
0000
0011
0000
0000
1000
,  // measure 12
0000
0000
0100
0000
0000
0010
0000
0000
0002
0000
1003
0000
1001
0000
0000
1000
,  // measure 13
0001
0000
0100
0000
0001
0000
0010
0000
0100
0000
0100
0000
0110
0000
0000
0001
,  // measure 14
1000
0000
0100
0000
1000
0000
0010
0000
0100
0000
0100
0000
0110
0000
0000
1000
,  // measure 15
0001
0010
0100
1000
0010
0010
0100
0001
,  // measure 16
0000
0002
0023
0230
,  // measure 17
1300
0000
0010
0000
0001
0000
0010
0000
0100
0000
0100
0000
0002
0000
0000
2003
,  // measure 18
0000
0000
3100
0000
2000
0000
0000
3002
0000
0000
0103
0000
0010
0000
0010
0000
,  // measure 19
1000
1000
0001
1000
0100
0100
0010
0001
,  // measure 20
1000
0001
0100
0010
0100
0001
0001
1000
,  // measure 21
0001
0000
0010
0000
1000
0000
0010
0000
0100
0000
0100
0000
2000
0000
0000
3020
,  // measure 22
0000
0000
0130
0000
0002
0000
0000
0023
0000
0000
0130
0000
1000
0000
1000
0000
,  // measure 23
0001
0001
0100
0010
1000
1000
0100
0010
,  // measure 24
0001
0000
1000
0000
0100
0000
1000
0000
0001
0000
0000
0000
2000
0000
0000
3002
,  // measure 25
0000
0000
0103
0000
0010
0000
1000
0000
1100
0000
0000
0000
0012
0000
0000
2003
,  // measure 26
0000
0000
3010
0000
0100
0000
0001
0000
0101
0000
0000
0000
0001
1000
0000
0010
,  // measure 27
0000
1000
0000
0001
0000
0100
0000
0001
0000
0000
0000
0000
1000
0100
0000
1000
,  // measure 28
0000
0001
0000
0010
0000
0100
0000
1000
0000
0000
0000
0000
0020
0000
0000
2030
,  // measure 29
0000
0000
3001
0000
0100
0000
0010
0000
0110
0000
0000
0000
1002
0000
0000
0023
,  // measure 30
0000
0000
0130
0000
1000
0000
0001
0000
1001
0000
0000
0000
1000
0010
0000
1000
,  // measure 31
0000
0001
0000
0100
0000
0001
0000
0020
0000
0000
0100
0000
0130
0000
1000
0001
,  // measure 32
1000
0000
0010
0000
0100
0000
0002
0000
0103
0010
0100
0000
0110
0000
0000
0000
,  // measure 33
1001
0000
0001
0000
1000
0001
0000
0000
1001
0000
0000
0000
0101
0000
0000
0001
,  // measure 34
1000
0000
0100
0000
0010
0000
0010
0000
0001
0000
0100
0000
0010
1000
0010
0000
,  // measure 35
0100
0000
0010
0000
0100
0010
0000
0000
0110
0000
0000
0000
1010
0000
1000
0100
,  // measure 36
1000
0000
1000
0000
0001
0000
0001
0000
0020
0000
0000
0000
0230
0000
0000
1300
,  // measure 37
0000
0000
0100
0000
1000
0001
0000
0000
1001
0000
0000
0000
2100
0000
0000
3100
,  // measure 38
0010
0000
0001
0100
0000
0001
0000
0010
0000
0100
0000
1000
0000
0010
0000
0200
,  // measure 39
0000
0000
0010
0000
0000
0310
0000
0000
0110
0000
2000
0000
0000
0000
3001
0000
,  // measure 40
0000
0000
0020
0000
0230
1000
1300
0000
,  // measure 41
0001
0000
0100
0000
0001
0000
0100
0000
1000
0000
0100
0000
2000
0000
0000
3100
,  // measure 42
0000
0001
0010
0000
0100
0000
0100
0000
0010
0000
0001
0000
1000
0010
0000
0100
,  // measure 43
0000
0010
0100
0000
0001
0000
0010
0100
0000
0100
0010
0000
2000
0000
0000
3010
,  // measure 44
0000
0001
1000
0000
0001
0000
0000
0000
0100
0000
0010
0000
0110
0000
0000
0000
,  // measure 45
1000
0000
0100
0000
1000
0000
0100
0000
0001
0000
0100
0000
0002
0000
0000
0103
,  // measure 46
0000
1000
0010
0000
0100
0000
0100
0000
0010
0000
1000
0000
0002
0000
0000
0000
,  // measure 47
1003
0000
0010
0000
0001
0000
0010
2000
0000
0000
3100
0000
0010
0000
0001
0000
,  // measure 48
0100
0000
0100
0000
0100
0000
0010
2000
0000
0000
0001
0000
3001
0000
0000
0000
,  // measure 49
1000
0000
0010
0000
0001
0000
0100
0000
1000
0000
0000
0010
0000
0000
0100
0000
,  // measure 50
0001
0000
0101
0000
1100
0000
0010
0001
,  // measure 51
1000
1000
0001
0100
0001
0001
0010
0100
,  // measure 52
0010
0001
0100
0010
1000
0001
0001
1000
,  // measure 53
0001
0000
0010
0000
1000
0000
0010
0000
1000
0000
0100
0000
0002
0000
0000
0023
,  // measure 54
0000
0000
0130
0000
2000
0000
0000
3020
0000
0000
0130
0000
0001
0000
0010
0000
,  // measure 55
0100
0100
1000
0010
0100
0100
0001
1000
,  // measure 56
0100
0000
0010
0000
0001
0000
1001
0000
0000
0000
0001
0000
0200
0000
0000
2300
,  // measure 57
0000
0000
3100
0000
0010
0000
1000
0000
1001
0000
0000
0000
0102
0000
0000
0023
,  // measure 58
0000
0000
1030
0000
0010
0000
0001
0000
0011
0000
0000
0000
1000
0100
0000
0010
,  // measure 59
0000
0001
0000
0100
0000
0010
0000
1000
0000
0000
0000
0000
1000
0010
0000
0001
,  // measure 60
0000
0010
0000
1000
0000
0001
0000
0010
0000
0000
0000
0000
0200
0000
0000
0302
,  // measure 61
0000
0000
0103
0000
0010
0000
0001
0000
1001
0000
0000
0000
1020
0000
0000
0032
,  // measure 62
0000
0000
0013
0000
1000
0000
0100
0000
0110
0000
0000
0000
0001
0010
0000
0100
,  // measure 63
0000
1000
0000
0001
0000
0010
0000
2000
0000
0000
3010
0000
0001
0000
1000
0001
,  // measure 64
1000
0010
0100
0001
0010
0010
2002
3003
;

//---------------dance-single - ----------------
#NOTES:
     dance-single:
     :
     Medium:
     9:
     0.382680,0.360051,0.110998,0.362595,0.040699,362.000000,347.000000,15.000000,49.000000,0.000000,0.000000,0.382680,0.360051,0.110998,0.362595,0.040699,362.000000,347.000000,15.000000,49.000000,0.000000,0.000000:
// measure 0
0000
0000
0000
0000
,  // measure 1
0000
0000
0000
0000
,  // measure 2
0000
0000
0000
0000
,  // measure 3
0000
0000
0000
0000
,  // measure 4
0000
0000
0000
0000
,  // measure 5
0001
0000
1000
0000
0001
0000
0000
0000
0100
0000
0000
0000
0200
0000
0000
0310
,  // measure 6
0000
0000
0000
0000
1000
0000
0000
0000
0001
0000
0000
0000
0002
0000
0000
1003
,  // measure 7
0000
0000
0000
0000
0100
0000
0000
0000
0010
0000
0000
0000
0020
0000
0000
0031
,  // measure 8
0000
0000
0100
0000
0010
0100
0200
0000
,  // measure 9
0301
1000
0001
0000
1000
0100
1000
0000
,  // measure 10
0100
0001
0100
0000
0010
0001
0021
0000
,  // measure 11
0031
0100
0001
0000
0100
0010
0100
0000
,  // measure 12
0010
0000
2000
0000
0000
3002
0000
0000
1003
0000
0000
0000
1002
0000
0000
0000
,  // measure 13
0013
0001
0100
0000
0001
0100
1000
0000
,  // measure 14
0100
0001
0010
0000
1000
0010
0210
0000
,  // measure 15
1300
0001
0100
0000
0010
1000
0002
0020
,  // measure 16
0033
0000
0200
0000
0320
0001
0032
0000
,  // measure 17
1003
0010
0001
0000
1000
0100
0001
0000
,  // measure 18
0010
0000
1200
0000
0320
0000
0031
0001
,  // measure 19
0100
0001
0100
0000
0010
1000
0010
0000
,  // measure 20
1000
0010
0100
0001
0000
1000
1000
0000
,  // measure 21
0001
0010
1000
0000
0001
0100
1000
0000
,  // measure 22
0010
0000
0201
0000
0320
0000
1030
0100
,  // measure 23
0010
0001
0100
0000
0010
1000
0100
0000
,  // measure 24
1000
0100
0010
0001
1000
0000
1002
0000
,  // measure 25
1003
0001
0100
0010
1000
0000
2001
0000
,  // measure 26
3001
1000
0010
0100
0001
0000
1000
0001
,  // measure 27
1000
0100
1000
0000
1000
0001
1000
0000
,  // measure 28
1000
0001
1000
0100
0010
0001
0001
0000
,  // measure 29
1000
0100
0001
0100
1000
0000
0210
0000
,  // measure 30
0301
0010
1000
0010
0001
0000
0001
1000
,  // measure 31
0001
0100
0001
0000
0001
0010
0001
0000
,  // measure 32
0001
0100
0010
1000
0100
1000
1000
0000
,  // measure 33
0010
0010
0010
0010
,  // measure 34
0100
0001
0100
0100
0001
0100
0001
0001
,  // measure 35
0010
0010
0010
0010
,  // measure 36
0100
0000
1000
0000
0100
0000
0100
0000
0020
0000
0000
0000
0130
0000
0000
0110
,  // measure 37
0000
0000
0000
0000
0010
0000
0000
0000
0010
0000
0000
0000
0002
0003
0000
0000
,  // measure 38
0100
0010
1000
0100
0010
0001
0100
0010
,  // measure 39
2000
0000
3200
0000
0310
0002
0000
2000
,  // measure 40
0003
0010
0100
3001
,  // measure 41
1000
0010
0100
0010
2000
0000
3002
0000
,  // measure 42
0013
0001
0100
0000
0020
0000
1030
0001
,  // measure 43
1000
0100
1000
0000
0001
0100
0002
0000
,  // measure 44
0103
0010
0100
0001
1000
0000
0020
0000
,  // measure 45
1030
0100
0010
0100
1000
0000
0010
0000
,  // measure 46
0100
0001
0010
0000
0100
1000
0010
0000
,  // measure 47
1000
0001
1000
0010
0100
0000
0100
0002
,  // measure 48
0010
0010
0013
0100
1000
0000
1002
0000
,  // measure 49
1003
0000
0001
0000
0100
0000
0010
0000
1000
0000
0000
0001
0000
0000
0100
0000
,  // measure 50
0010
0000
0110
0000
1002
0000
0103
1000
,  // measure 51
0100
0001
1000
0000
0100
1000
0001
0000
,  // measure 52
0100
0010
1000
0001
0000
1000
1000
0000
,  // measure 53
0010
0000
0001
0000
0010
0000
1000
0000
0001
0000
0000
0000
2000
0000
0000
3010
,  // measure 54
0000
0000
1010
0000
0011
0000
1000
0001
,  // measure 55
1000
0010
0001
0000
0001
0100
1000
0000
,  // measure 56
1000
0000
0100
0000
0010
0000
0001
0000
1000
0000
0000
0000
2001
0000
0000
3002
,  // measure 57
0000
0000
0203
0000
0000
0000
0010
0000
0310
0000
0000
0000
0200
0000
0000
0302
,  // measure 58
0000
2003
0000
0100
3100
0000
0010
0000
,  // measure 59
0001
1000
0100
1000
0001
0000
0100
0000
,  // measure 60
0010
0000
1000
0000
0010
0000
0100
0000
0001
0000
0010
0000
0020
0000
0000
0230
,  // measure 61
0000
0000
2300
0000
0000
0000
0001
0000
3001
0000
0000
0000
0200
0000
0000
0320
,  // measure 62
0000
2030
0000
0010
3010
0000
0010
1000
,  // measure 63
0001
0100
1000
0000
1000
0100
0001
0000
,  // measure 64
0001
1000
0001
0100
0010
1000
2000
3000
;

//---------------dance-single - ----------------
#NOTES:
     dance-single:
     :
     Easy:
     5:
     0.225168,0.239572,0.073999,0.207197,0.000000,213.000000,203.000000,10.000000,28.000000,0.000000,0.000000,0.225168,0.239572,0.073999,0.207197,0.000000,213.000000,203.000000,10.000000,28.000000,0.000000,0.000000:
// measure 0
0000
0000
0000
0000
,  // measure 1
0000
0000
0000
0000
,  // measure 2
0000
0000
0000
0000
,  // measure 3
0000
0000
0000
0000
,  // measure 4
0000
0000
0001
0010
,  // measure 5
0100
0000
0000
0010
,  // measure 6
0001
0000
0000
0000
,  // measure 7
1000
0010
0100
0000
,  // measure 8
0100
0010
1000
0000
,  // measure 9
0001
0001
0010
0000
,  // measure 10
1000
1000
0010
0000
,  // measure 11
0001
0001
0010
0000
,  // measure 12
0100
1000
0010
1000
,  // measure 13
0001
0001
0100
0000
,  // measure 14
1000
1000
0100
0000
,  // measure 15
0001
0001
0100
0001
,  // measure 16
0000
0100
0010
1000
,  // measure 17
0001
0001
0001
0010
,  // measure 18
0100
0020
0230
1300
,  // measure 19
1000
0010
0100
0001
,  // measure 20
0010
0001
0100
0010
,  // measure 21
1000
1000
1000
0100
,  // measure 22
0010
0200
0320
0031
,  // measure 23
0001
0100
0010
1000
,  // measure 24
0100
0100
0010
0001
,  // measure 25
0202
0303
1000
0010
,  // measure 26
2020
3030
0001
0100
,  // measure 27
1000
0100
0001
0100
,  // measure 28
1000
0100
0010
1000
,  // measure 29
2200
3300
0001
0010
,  // measure 30
0022
0033
1000
0001
,  // measure 31
0010
1000
0020
0000
,  // measure 32
0031
0010
0100
1000
,  // measure 33
0001
0000
0001
0000
,  // measure 34
0001
0001
0100
0100
,  // measure 35
1000
0000
1000
0000
,  // measure 36
1000
1000
0100
0001
,  // measure 37
0001
0000
0010
0000
,  // measure 38
0100
1000
0001
0100
,  // measure 39
0020
0000
0000
0100
,  // measure 40
0130
0000
0000
0110
,  // measure 41
1000
0010
1000
0001
,  // measure 42
0010
0000
0100
0010
,  // measure 43
0001
0001
1000
1000
,  // measure 44
0010
0000
0010
0100
,  // measure 45
0001
0010
0001
1000
,  // measure 46
0010
0000
0100
0010
,  // measure 47
1000
0100
0010
0001
,  // measure 48
2000
0000
0000
3000
,  // measure 49
0001
0010
1000
0010
,  // measure 50
0001
0020
0032
1003
,  // measure 51
1000
0010
0100
0001
,  // measure 52
0010
0100
1000
0001
,  // measure 53
1000
0010
0001
0010
,  // measure 54
1000
0020
2030
3001
,  // measure 55
0001
1000
0100
0010
,  // measure 56
0001
0001
0100
0010
,  // measure 57
2020
3030
0100
0001
,  // measure 58
0202
0303
0001
0010
,  // measure 59
1000
0010
0001
0100
,  // measure 60
1000
0100
0001
0010
,  // measure 61
0022
0033
0100
1000
,  // measure 62
2200
3300
0001
0100
,  // measure 63
1000
0010
0002
0000
,  // measure 64
0103
0010
0100
1001
;
