#TITLE:Bliss;
#SUBTITLE:;
#ARTIST:litmus*;
#TITLETRANSLIT:;
#SUBTITLETRANSLIT:;
#ARTISTTRANSLIT:;
#GENRE:EDM;
#CREDIT:tikal.;
#MUSIC:bliss.ogg;
#BANNER:bliss.png;
#BACKGROUND:bliss-bg.png;
#CDTITLE:cdtitle.png;
#SAMPLESTART:30.039;
#SAMPLELENGTH:15.000;
#SELECTABLE:YES;
#OFFSET:-0.039;
#BPMS:0.000=128.000;
#STOPS:;
#BGCHANGES:;
#FGCHANGES:;

//--------------- dance-single - tikal. ----------------
#NOTES:
     dance-single:
     tikal.:
     Hard:
     12:
     0,0,0,0,0:
0000
0000
0000
0000
,
0000
0000
0000
0000
,
0000
0000
0000
0000
,
0000
0000
0000
0000
,
2000
0000
3100
0000
0002
0000
0013
0200
,
0001
0000
0000
0000
0010
0000
0000
0000
1300
0000
0000
1000
0000
0000
1000
0000
,
0020
0000
0130
0000
0002
0000
1003
0200
,
0000
0000
0010
0000
0010
0000
0010
0000
0310
0100
0010
0000
1001
0000
0000
0000
,
0001
0000
0000
0000
0100
0000
0010
0000
1000
0000
0000
0010
0000
0000
0100
0000
,
0000
0001
0010
1000
0001
0100
0010
0001
,
1000
0000
0000
0000
0100
0000
0010
0000
0001
0000
0000
0010
0000
0000
0100
0000
,
0000
1000
0010
0001
1000
0100
0010
1000
,
0001
0010
0001
0010
1000
0010
1000
0010
,
0001
0100
0001
0100
1000
0100
1000
0100
,
0010
0100
0001
1000
0100
0010
0001
1000
,
0000
0010
0001
0010
1000
0001
1001
0000
,
1100
0000
0000
0000
0100
0000
0010
0000
0001
0000
0000
0000
0010
0000
0000
1000
,
0000
0000
0010
0000
0100
0000
0000
1000
0000
0001
0100
0000
0001
0000
0010
0000
,
0011
0000
0000
0000
0001
0000
0100
0000
0010
0000
0000
0000
1000
0000
0000
0001
,
0000
0000
0010
0000
1000
0000
0010
0000
0001
0000
0100
0000
0010
0000
0000
0220
,
0000
0000
0330
0000
0100
0000
0010
0000
1000
0000
0000
0000
0010
0000
0000
0001
,
0000
0000
0010
0000
0100
0000
0000
0001
0000
1000
0100
0000
1000
0000
0010
0000
,
1010
0000
0000
0000
1000
0000
0100
0000
0010
0000
0000
0000
0001
0000
0000
1001
,
0000
1000
0010
0100
0001
1000
1001
0000
,
0001
0000
0100
0001
1000
0002
0000
0023
,
0000
0000
0230
0000
0000
0000
2300
0000
0000
0000
3001
1000
0020
0000
0230
0000
,
0301
0000
0010
0001
1000
0002
0000
0203
,
0000
0000
0320
0000
0000
0000
2030
0000
0000
0000
3010
0100
0001
0000
0001
0000
,
2000
3000
0010
1000
0200
0000
0310
0002
,
0000
0000
2003
0000
0000
0000
3020
0000
0000
0000
1030
0001
0020
0000
0230
0000
,
1300
0000
0100
1000
0001
0200
0000
0320
,
0000
0000
0100
0000
0100
0000
0100
0000
0130
0010
0100
0000
1001
0000
0000
0000
,
0001
0010
0200
0000
0310
0100
1000
0002
,
0000
0000
1003
0000
0010
0000
0200
0000
0000
0000
0301
0000
0001
0010
0100
0000
,
1000
0010
0200
0000
0310
0100
0001
2000
,
0000
0000
3001
0000
0010
0000
0200
0000
0000
0000
1300
0000
1000
0010
0100
0000
,
0001
0100
0001
0100
1000
0100
1000
0100
,
0001
0010
0001
0010
1000
0010
1000
0010
,
0100
0010
0001
1000
0010
0100
0001
1000
,
0000
0100
0001
0100
1000
0001
1001
0000
,
1010
0000
0000
0000
0010
0000
0100
0000
0001
0000
0000
0000
0100
0000
0000
1000
,
0000
0000
0100
0000
0010
0100
0000
0001
0000
1000
0100
0000
0010
0000
0001
0000
,
0101
0000
0000
0000
0001
0000
0010
0000
0100
0000
0000
0000
1000
0000
0000
0001
,
0000
0000
0100
0000
1000
0000
0100
0000
0001
0000
0010
0000
0100
0000
0000
0220
,
0000
0000
0330
0000
0010
0000
0100
0000
1000
0000
0000
0000
0100
0000
0000
0001
,
0000
0000
0100
0000
0010
0100
0000
1000
0000
0001
0100
0000
0010
0000
1000
0000
,
1100
0000
0000
0000
1000
0000
0010
0000
0100
0000
0000
0000
0001
0000
0000
1001
,
0000
1000
0100
0010
0001
1000
1001
0000
,
0001
0000
0100
0000
1000
0000
0100
0000
0010
0000
0100
0000
0001
0000
0000
1000
,
0000
0000
0100
0000
0010
0100
0000
1000
0000
0001
0100
0000
0010
1000
0010
0000
,
1000
0000
0100
0000
0001
0000
0100
0000
0010
0000
0100
0000
1000
0000
0000
0001
,
0000
0000
0100
0000
0010
0000
0100
0000
0001
0000
1000
0000
1010
0000
0000
0120
,
0000
0000
0000
0000
0031
0000
0010
0000
0100
0000
0010
0000
1000
0000
0000
0001
,
0000
0000
0010
0000
0100
0010
0000
0001
0000
1000
0010
0000
0100
0001
0100
0000
,
0001
0000
0010
0000
1000
0000
0010
0000
0110
0000
0000
0000
1100
0000
0000
1001
,
0000
0001
0100
0010
1000
0001
1001
0000
;

//--------------- dance-single - tikal. ----------------
#NOTES:
     dance-single:
     tikal.:
     Challenge:
     15:
     0,0,0,0,0:
0000
0000
0000
0000
,
0000
0000
0000
0000
,
0000
0000
0000
0000
,
0000
0000
0000
0000
,
2000
0000
3100
0000
0020
0000
0031
0200
,
1000
0000
0000
0000
0010
0000
0000
0000
0301
0000
0000
0001
1000
0000
0001
0000
,
0020
0000
0130
0000
2000
0000
3001
0200
,
0000
0000
0010
0000
0010
0000
0310
0000
0100
0001
1000
0100
0020
0000
0000
0000
,
0031
0000
0000
0001
0010
0000
0100
0000
0001
0100
0000
0100
1000
0000
0010
0000
,
0100
0000
1000
0100
0010
0000
1000
0000
0001
0010
0100
0010
0001
0000
1000
0001
,
1000
0000
0000
1000
0010
0000
0100
0000
1000
0100
0000
0100
0001
0000
0010
0000
,
0100
0000
0001
0100
0010
0000
0001
0000
1000
0010
0100
0010
1000
0000
0001
0000
,
1000
0000
0010
1000
0010
0000
0100
0000
0001
0100
0010
0100
0001
0000
1000
0000
,
0001
0000
0010
0001
0010
0000
0100
0000
1000
0100
0010
0100
1000
0000
0001
0000
,
1000
0010
1000
0010
0100
0001
0100
0001
0010
0100
0010
0100
1000
0001
1000
0001
,
0000
0100
1000
0100
0101
0001
1001
0000
,
1100
0000
0000
0000
0100
0000
1000
0000
0010
0000
0000
0000
0110
0000
0000
0100
,
0001
0000
0010
0000
0100
0010
0000
1000
0000
0001
0100
0000
1000
0000
0001
0000
,
0104
0000
0003
0000
0100
0000
0001
0000
0010
0000
0000
0000
0110
0000
0000
0100
,
1000
0000
0010
0000
0001
0000
0010
1000
0001
0000
0010
0000
0110
0000
0000
2002
,
0000
0000
3003
0000
0001
0000
0100
0000
0010
0000
0000
0000
1010
0000
0000
1000
,
0001
0000
0100
0000
0010
0100
0000
1000
0000
0001
0010
0000
1000
0000
0001
0000
,
0014
0000
0003
0000
1000
0000
0100
0000
0010
0000
0000
0000
0011
0000
0000
1002
,
0000
0000
1003
0040
1030
0004
0013
0001
4000
3010
0100
0001
1001
0000
0000
0000
,
1000
0000
0100
1000
0010
1000
0100
0000
0000
0000
0100
1000
0010
1000
0100
0000
,
M000
0000
0100
0001
0010
0001
0100
0000
0000
0000
0100
0001
0020
0000
0230
0000
,
1300
0000
0010
1000
0100
1000
0010
0000
0000
0000
0010
1000
0100
1000
0010
0000
,
M000
0000
0010
0001
0100
0001
0010
0100
0000
0000
0100
1000
0001
0000
0100
0000
,
0020
0000
0130
0001
0010
0001
0100
0000
0000
0000
0100
0001
0010
0001
0100
0000
,
000M
0000
0100
1000
0010
1000
0100
0010
0000
0000
0010
0100
1000
0010
0200
0000
,
0301
0000
0010
0001
0100
0001
0010
0000
000M
0000
0010
1000
0100
1000
0020
0000
,
0000
0000
0100
0000
0100
0000
0130
0000
0010
1000
0001
0010
0200
0000
0000
0000
,
0301
0100
0020
0000
0031
0100
0010
2000
,
0000
0000
3001
0000
0010
0000
0200
0000
0000
0000
1300
0000
1000
0010
0100
0000
,
1000
0100
0020
0000
1030
0100
0010
0002
,
0000
0000
0103
0000
0001
0000
0020
0000
0130
1000
0001
0100
0010
0100
0001
1000
,
0001
0010
0001
0010
1000
0010
1000
0010
,
0001
0100
0001
0100
1000
0100
1000
0100
,
0001
0100
0001
0100
0010
1000
0010
1000
0100
0010
0100
0010
0001
1000
0001
1000
,
0000
0100
0001
0100
1100
1000
1001
0000
,
0101
0000
0000
0000
0100
0000
0010
0000
1010
0000
0000
0000
1001
0000
0000
0001
,
0100
0000
0010
0000
1000
0010
0000
0001
0000
1000
0100
0000
0001
0000
0010
0000
,
0014
0000
0003
0000
0010
0000
0100
0000
1100
0000
0000
0000
1001
0000
0000
0001
,
0010
0000
0100
0000
0001
0100
0010
0100
1000
0000
0001
0000
1001
0000
0000
0220
,
0000
0000
0330
0000
0001
0000
0100
0000
0101
0000
0000
0000
1001
0000
0000
1000
,
0010
0000
0100
0000
0001
0100
0000
1000
0000
0001
0010
0000
1000
0000
0100
0000
,
4100
0000
3000
0000
0100
0000
0010
0000
0011
0000
0000
0000
1001
0000
0000
1200
,
0000
0000
1300
0040
1030
0004
0013
0001
4000
3010
0100
0001
1001
0000
0000
0000
,
0011
0000
0010
0100
0001
0000
0100
0000
1000
0000
0010
0100
1000
0000
0100
0001
,
1000
0000
0100
1000
0010
0100
0010
1000
0100
0010
0001
0000
0100
0010
0100
0001
,
4000
0000
3010
0100
1000
0000
0100
0000
0001
0000
0010
0100
0001
0000
0100
1000
,
0001
0000
0100
0010
1000
0000
0100
0010
0001
0000
1000
0000
1100
0000
1000
0012
,
0000
0000
0103
0010
0001
0000
0010
0000
1000
0000
0100
0010
1000
0000
0010
0001
,
1000
0000
0010
1000
0100
0010
0100
1000
0010
0100
0001
0000
0010
0100
0010
0001
,
4000
0000
3100
0010
1000
0000
0010
0000
0110
0000
0000
0000
0011
0000
0000
2001
,
0000
0000
3001
0400
0301
4000
3100
1000
0004
0103
0010
1000
1001
0000
0000
0000
;
