#TITLE:Blessed Be;
#SUBTITLE:(Nightcore);
#ARTIST:Spiritbox;
#TITLETRANSLIT:;
#SUBTITLETRANSLIT:;
#ARTISTTRANSLIT:;
#GENRE:;
#CREDIT:;
#BANNER:Blessed Be banner.png;
#BACKGROUND:Blessed Be bg.png;
#LYRICSPATH:;
#CDTITLE:;
#MUSIC:Blessed Be (nightcore cut).mp3;
#OFFSET:-0.020000;
#SAMPLESTART:46.877144;
#SAMPLELENGTH:15.314285;
#SELECTABLE:YES;
#BPMS:0.000000=131.250000
,40.000000=65.625000
,56.000000=131.250000
,84.000000=65.625000
,86.000000=131.250000
,150.000000=65.625000
,165.000000=131.250000
,166.000000=133.750000
,222.000000=65.625000
,228.000000=131.250000
;
#STOPS:165.000000=0.457000
;
#BGCHANGES:;
#KEYSOUNDS:;
#ATTACKS:;

//---------------dance-single - ----------------
#NOTES:
     dance-single:
     :
     Hard:
     14:
     0.431091,0.513149,0.173581,0.827848,0.380543,452.000000,426.000000,26.000000,124.000000,0.000000,0.000000,0.431091,0.513149,0.173581,0.827848,0.380543,452.000000,426.000000,26.000000,124.000000,0.000000,0.000000:
// measure 0
0000
0000
0000
0000
,  // measure 1
0000
0000
0000
0000
,  // measure 2
0010
0000
1000
0000
0200
0000
0000
0000
1300
0200
0000
0000
1300
0200
0000
0000
,  // measure 3
0310
0000
0001
0000
0200
0000
0000
0000
0301
0020
0000
0000
0031
0020
0000
0000
,  // measure 4
0031
0000
0010
0000
0200
0000
0000
0000
1300
0200
0000
0000
1300
0200
0000
0000
,  // measure 5
1300
0000
0010
0000
0100
0000
0001
0000
1000
0001
1000
0000
0102
0000
0000
0000
,  // measure 6
1003
0000
0010
0000
0200
0000
0000
0000
0301
0200
0000
0000
0301
0200
0000
0000
,  // measure 7
0301
0000
0010
0000
0200
0000
0000
0000
1300
0020
0000
0000
1030
0020
0000
0000
,  // measure 8
1030
0000
0001
0000
0200
0000
0000
0000
0301
0200
0000
0000
0301
0200
0000
0000
,  // measure 9
0310
0000
1000
0000
0100
0000
0010
0000
0001
1000
0001
0000
1200
0000
0000
0000
,  // measure 10
0320
0000
0000
0000
0000
0000
0000
0000
0030
0000
0001
0000
1000
0000
0001
0000
1000
0000
0000
0100
0000
0000
0100
0000
2000
0000
0000
0000
3100
0000
0000
0000
,  // measure 11
0000
0000
0000
0000
0000
0000
0000
0000
0000
0000
1000
0000
0001
0000
1000
0000
0001
0000
0000
1000
0000
0000
0010
0000
1000
0000
0000
0000
0200
0000
0000
0000
,  // measure 12
0300
0000
0000
0000
0000
0000
0000
0000
0000
0000
0010
0000
0001
0000
0010
0000
0001
0000
0000
1000
0000
0000
0001
0000
1000
0000
0000
0100
0000
0000
1000
0000
,  // measure 13
0001
0010
0000
0002
0000
0000
0000
0000
0003
0000
1000
0000
0100
0000
1000
0000
0001
0000
0000
0001
0000
0000
1000
0000
0002
0000
0000
0000
2003
0000
0000
0000
,  // measure 14
3010
0000
0000
0001
0000
0000
0100
0000
0002
0000
0000
1003
0000
0000
2000
0000
,  // measure 15
3000
0000
0200
0000
0300
0000
0100
0000
1000
0000
0000
0001
0000
0000
0001
0000
,  // measure 16
0010
0000
0000
0001
0000
0000
0100
0000
0001
0000
0000
1000
0000
0000
0020
0000
,  // measure 17
0030
0000
0200
0000
0300
0000
0100
0000
0001
0000
0000
1000
0000
0000
0001
0000
,  // measure 18
0010
0000
0000
0001
0000
0000
0100
0000
0001
0000
0000
1000
0000
0000
0020
0000
,  // measure 19
0030
0000
0200
0000
0300
0000
0100
0000
0001
0000
0000
0001
0000
0000
0100
0000
,  // measure 20
0001
0000
0000
0001
1000
0000
0000
0000
0000
0000
0001
0000
0100
0000
0001
0000
,  // measure 21
1001
0000
0000
0000
0000
0000
0000
0000
0011
0000
0000
1010
0000
0000
0022
0000
,  // measure 22
0000
0033
0000
0000
0220
0000
0000
0000
0330
0000
0000
0000
0001
0000
0010
0000
,  // measure 23
0001
1000
0100
1000
0002
0000
1003
0001
,  // measure 24
1000
0001
0020
0000
0032
0000
2003
0000
,  // measure 25
3001
0010
0001
0010
0100
1000
0100
1000
0001
0000
0000
1010
0000
0000
0022
0000
,  // measure 26
0000
0033
0000
0000
2002
0000
0000
0000
3003
0000
0001
0000
1000
0000
0010
0000
,  // measure 27
1000
0001
0100
0001
2000
0000
3001
1000
,  // measure 28
0001
1000
0020
0000
0230
0000
0302
0000
,  // measure 29
1003
0000
0000
0000
1000
0010
1000
0010
2000
0000
0000
0000
0000
0000
3002
0000
,  // measure 30
1000
0000
0023
0000
0000
0100
0000
0000
,  // measure 31
0032
1000
0000
1003
0100
0000
1000
0000
0020
0000
0000
2030
0000
0000
3002
0000
,  // measure 32
1000
0000
0000
0000
0103
0000
0001
0000
0020
0000
0000
0032
0000
0000
2003
0000
,  // measure 33
3002
0000
0000
0000
1003
0000
0100
0000
2000
0000
0000
0100
0000
0000
3002
0000
,  // measure 34
1000
0000
0000
0000
0023
0000
0000
0000
0000
0000
0100
0000
0000
0100
0000
0000
,  // measure 35
0031
1000
0000
0000
0100
0000
1000
0100
0020
0000
0000
0032
0000
0000
2003
0000
,  // measure 36
0001
0000
0000
0000
3010
0000
1000
0000
0020
0000
1030
0000
0100
1000
0100
1000
,  // measure 37
0001
0000
1001
0000
1001
0000
2002
0000
3000
0000
0000
0000
0000
0040
0000
0000
,  // measure 38
0000
0000
0000
0000
0000
0000
0000
0000
0000
0000
0000
0000
0000
0000
0030
0000
0000
0000
0000
0000
1000
0000
0000
0000
0000
0000
0000
0000
0000
0000
0000
0000
0000
0000
0000
0000
0000
0000
0000
0040
0000
0000
0000
0000
0000
0000
0000
0000
,  // measure 39
0000
0000
0000
0000
0000
0000
0000
0000
0000
0000
0000
0000
0000
0000
0030
0000
0000
0000
0000
0000
1000
0000
0000
0000
0000
0000
0000
0000
0000
0000
0000
0000
0000
0000
0000
0000
0000
0000
0000
0040
0000
0000
0000
0000
0000
0000
0000
0000
,  // measure 40
0000
0000
0000
0000
0000
0000
0000
0000
0000
0000
0000
0000
0000
0000
0030
0000
0000
0000
0000
0000
0000
0000
0000
0000
0103
0000
0000
1000
0000
0000
0100
0000
0000
1000
0000
0000
0020
0000
0000
0000
0000
0000
0130
0000
0000
0001
0000
0000
,  // measure 41
0100
0001
0100
0001
0000
0000
0000
0000
0220
0000
0000
0000
0030
0000
0020
0000
,  // measure 42
0000
0030
0310
0000
0100
0010
1000
0001
,  // measure 43
2000
0000
0000
3020
0000
0000
1030
0000
0220
0000
0000
0000
0030
0000
0020
0000
,  // measure 44
0000
0000
0000
0000
0330
0000
0000
0000
1000
0100
1000
0000
0001
0000
0001
0100
,  // measure 45
0001
0000
1000
0000
0010
1000
0010
0000
2200
0000
0000
0000
0300
0000
0200
0000
,  // measure 46
0000
0300
3100
0000
0100
1000
1000
0001
,  // measure 47
2000
0000
0000
3002
0000
0000
0103
0000
0202
0000
0000
0000
0003
0000
0002
0000
,  // measure 48
0000
0000
0000
0000
0303
0000
0000
0000
0001
0100
0002
0000
1003
0000
0010
0000
,  // measure 49
0010
0000
1000
0000
0010
0000
0100
0000
0010
0100
0000
0000
0002
0000
0000
0000
,  // measure 50
0020
0000
0003
0000
0031
0100
0000
0000
0000
0000
0010
0001
0010
0000
0001
0000
,  // measure 51
1000
0000
0001
0000
1000
0000
1000
0000
0100
0000
0000
0100
2000
0000
0100
0000
,  // measure 52
3002
0000
0000
0000
0103
0000
0000
0100
0000
0000
0010
0000
0100
0010
0100
0000
,  // measure 53
1010
0000
0010
0000
1000
0010
1000
0001
0200
0000
0000
0000
0000
0000
0000
0000
,  // measure 54
0020
0000
0000
0000
,  // measure 55
0330
0000
0000
0000
0000
0000
0000
0000
1000
0000
0000
0000
0001
0000
0000
0000
0010
0000
0000
0001
0000
0000
2000
0000
0000
0000
0000
0000
0000
0000
0000
0000
,  // measure 56
3000
0000
1000
0010
1000
0001
0100
0001
1000
0000
0001
1000
0001
1000
0020
0000
,  // measure 57
2030
0000
3020
0000
0030
1000
0100
1000
,  // measure 58
0011
0000
0000
1010
0000
0000
0022
0000
0000
0033
0000
0000
2002
0000
0000
0000
,  // measure 59
3003
0001
0001
0010
0001
1000
0100
1000
,  // measure 60
0002
0000
1003
0001
1000
0001
0020
0000
,  // measure 61
0230
0000
0000
0000
0320
0000
0000
0000
0031
0000
0000
0001
0100
0001
1000
0000
,  // measure 62
0200
0000
0000
0010
0000
0000
0302
0000
0000
1000
0000
0000
0023
0000
0000
0000
,  // measure 63
0000
0000
0130
0000
0010
0100
0000
0000
1000
0001
1000
0000
0100
1000
0001
0000
,  // measure 64
0011
0000
0000
1000
0010
0000
2100
0000
0000
0001
0000
0000
3100
0000
1000
0000
,  // measure 65
0020
0000
0030
2000
0000
0000
3002
0000
0103
0000
0000
0000
1000
0000
0100
0000
,  // measure 66
2000
0000
0000
0010
0000
0000
3002
0000
0000
1000
0000
0000
0023
0000
0000
0000
,  // measure 67
0032
0000
0103
0000
0000
0001
0000
0000
0001
1000
0000
0000
0100
1000
0001
0100
,  // measure 68
0020
0000
0000
2030
0000
0000
3002
0000
0000
1000
0000
0000
0103
0000
0001
0000
,  // measure 69
0020
0000
0000
0032
0000
0000
2003
0000
3000
0000
0220
0000
0330
0000
1001
0000
;

//---------------dance-single - ----------------
#NOTES:
     dance-single:
     :
     Challenge:
     16:
     0.654267,0.677633,0.113495,0.901286,0.941343,686.000000,669.000000,17.000000,135.000000,0.000000,0.000000,0.654267,0.677633,0.113495,0.901286,0.941343,686.000000,669.000000,17.000000,135.000000,0.000000,0.000000:
// measure 0
0000
0000
0000
0000
,  // measure 1
0000
0000
0000
0000
,  // measure 2
1000
0100
0010
0001
0200
0000
0000
0000
1300
0200
0000
0000
0301
0200
0000
0000
,  // measure 3
0301
0010
0100
1000
0200
0000
0000
0000
1300
0020
0000
0000
0130
0020
0000
0000
,  // measure 4
1030
0100
0010
0001
0200
0000
0000
0000
1300
0200
0000
0000
0301
0200
0000
0000
,  // measure 5
0301
0010
0100
1000
0001
0000
0010
0100
1000
0010
0100
0001
2000
0000
0000
0000
,  // measure 6
3001
0100
0010
1000
0200
0000
0000
0000
0301
0200
0000
0000
1300
0200
0000
0000
,  // measure 7
1300
0010
0100
0001
0200
0000
0000
0000
0301
0020
0000
0000
0130
0020
0000
0000
,  // measure 8
0031
0100
0010
1000
0200
0000
0000
0000
0301
0200
0000
0000
1300
0200
0000
0000
,  // measure 9
1300
0010
0100
0001
1000
0000
0010
0100
0001
0010
0100
1000
0200
0000
0000
0000
,  // measure 10
0320
0000
0000
0000
0000
0000
0000
0000
0000
0000
0001
0000
0001
0000
0001
0000
0001
0000
0000
0100
0000
0000
0100
0000
0001
0000
0000
0000
0100
0000
0000
0000
,  // measure 11
0032
0000
0000
0000
0000
0000
0000
0000
0000
0000
1000
0000
1000
0000
1000
0000
1000
0000
0000
1000
0000
0000
0010
0000
1000
0000
0000
0000
1000
0000
0100
0000
,  // measure 12
2003
0000
0000
0000
0000
0000
0000
0000
0000
0000
0010
0000
0010
0000
0010
0000
0010
0000
0000
0001
0000
0000
0001
0000
0001
0000
0000
0100
0000
0000
0100
0000
,  // measure 13
3200
0010
0000
1000
0000
0000
0000
0000
0000
0000
1000
0000
1000
0000
0010
0000
0010
0000
0000
0010
0000
0000
1000
0000
0320
0000
0031
0000
2000
0000
3100
0000
,  // measure 14
0020
0000
0000
0032
0000
0000
0203
0000
0001
0000
0000
0010
0000
0000
0020
0000
,  // measure 15
0030
0000
0002
0000
0003
0000
0001
0000
0001
0000
0000
0010
0000
0000
0010
0000
,  // measure 16
0320
0000
0000
2030
0000
0000
3200
0000
1000
0000
0000
0010
0000
0000
0020
0000
,  // measure 17
0030
0000
2000
0000
3000
0000
1000
0000
1000
0000
0000
0010
0000
0000
0320
0000
,  // measure 18
0032
0000
0000
2003
0000
0000
3200
0000
1000
0000
0000
0001
0000
0000
0020
0000
,  // measure 19
0030
0000
2000
0000
3000
0000
1000
0000
0001
0000
0000
0001
0000
0000
1000
0000
,  // measure 20
1300
0000
0000
0001
1000
0000
0000
0000
0000
0000
0001
0000
0100
0000
0001
0000
,  // measure 21
1000
0000
0001
1000
0000
0000
0000
0000
0000
0000
0001
0000
0001
0000
0010
0000
0011
0000
0000
0000
1000
0000
0010
0000
1000
0000
0000
0000
0021
0000
0000
0000
,  // measure 22
0000
1030
0000
0000
0220
0000
0000
0000
0330
0000
0100
0000
1000
0010
0100
0000
,  // measure 23
0001
0000
1000
0001
0100
0001
1000
0000
0020
0000
0000
0000
1030
0000
1000
0000
,  // measure 24
0001
1000
0001
0000
0020
0000
0000
0000
0032
0000
0010
0000
2003
0100
0000
0000
,  // measure 25
3001
1000
0100
1000
0100
1000
0001
0100
0001
0010
0001
1000
0010
0000
0021
0000
,  // measure 26
0000
1030
0000
0000
0022
0000
0000
0000
0033
0000
0100
0000
0001
0100
0010
0000
,  // measure 27
1000
0001
1000
0001
0100
0010
0100
0000
0001
1000
0010
0100
0001
0000
0100
0000
,  // measure 28
0001
1000
0100
0000
0020
0000
0000
0000
0230
0000
0310
0000
0010
0002
0000
0000
,  // measure 29
2003
0000
0000
3001
1000
0010
1000
0001
2000
0001
0000
0010
0000
0000
3002
0000
,  // measure 30
1003
0002
0000
0000
0023
0000
0000
0000
0032
0000
0103
0001
0000
0001
1000
0001
,  // measure 31
2000
0001
0000
3001
0100
0001
1000
0100
0010
0001
0100
0010
0100
0010
1000
0001
,  // measure 32
1000
0002
0000
0000
0203
0000
0301
0000
0020
0000
1030
0001
0100
0001
0100
0001
,  // measure 33
1000
0000
0000
0000
0000
0000
1000
0000
0000
0100
0000
0000
1000
0000
0100
0000
0010
0000
0001
0000
0100
0000
0010
0000
2000
0000
0000
0000
0000
0000
0000
0000
0000
0010
0000
0000
0000
0000
0000
0000
0000
0000
3002
0000
0000
0000
0000
0000
,  // measure 34
1003
0002
0000
0000
0023
0000
0000
0000
0032
0000
0103
0000
0000
0001
1000
0001
,  // measure 35
2000
0001
0000
3000
0100
0000
1000
0100
0010
0001
0010
0100
0010
0100
1000
0001
,  // measure 36
1000
0002
0000
0000
0203
0000
0301
0000
0020
0000
1030
0100
1000
0100
1000
0001
,  // measure 37
1000
0000
0001
0100
0001
0000
2002
0000
3000
0000
0000
0000
0000
0010
0010
0010
,  // measure 38
0000
0000
0010
0000
0000
0000
0010
0000
0000
0000
0010
0000
0000
0000
0010
0000
0000
0000
0000
0000
1000
0000
0000
0000
0000
0000
0000
0000
0000
0000
0000
0000
0000
0000
0000
0000
0000
0000
0000
0010
0000
0000
0010
0000
0000
0010
0000
0000
,  // measure 39
0000
0000
0010
0000
0000
0000
0010
0000
0000
0000
0010
0000
0000
0000
0010
0000
0000
0000
0000
0000
1000
0000
0000
0000
0000
0000
0000
0000
0000
0000
0000
0000
0000
0000
0000
0000
0000
0000
0000
0010
0000
0000
0010
0000
0000
0010
0000
0000
,  // measure 40
0000
0000
0010
0000
0000
0000
0010
0000
0000
0000
0010
0000
0000
0000
0020
0000
0000
0000
0000
0000
0000
0030
0000
0000
0103
0000
0000
0100
0000
0000
0100
0000
0000
0100
0000
0000
0020
0000
0000
0000
0000
0000
0130
0000
0000
0100
0000
0000
,  // measure 41
0100
0010
0100
0010
0100
0010
2000
0002
0000
0000
0000
3003
0000
0000
0000
0000
0220
0000
0000
0000
0000
0000
0000
0000
0330
0000
0000
0000
0010
0000
0100
0000
,  // measure 42
0010
0100
0010
0100
0010
1000
0001
1000
0100
1000
0020
0000
0230
0000
0301
0100
,  // measure 43
0001
1000
0001
1000
0001
0100
0001
0100
0220
0000
0000
0000
0330
0000
0010
0100
,  // measure 44
0010
0100
0010
0100
0010
1000
0001
1000
0100
1000
0200
0000
2300
0000
3001
0100
,  // measure 45
0001
1000
0001
1000
0010
1000
0010
1000
2200
0000
0000
0000
3300
0000
1000
0001
,  // measure 46
1000
0001
1000
0001
1000
0100
0010
0100
1000
0100
2000
0000
3002
0000
0013
0001
,  // measure 47
0010
0100
0010
0100
1000
0010
1000
0100
2200
0000
0000
0000
3300
0000
1000
0001
,  // measure 48
1000
0001
1000
0001
1000
0100
0010
0001
0100
0001
2000
0000
3100
0000
0010
0001
,  // measure 49
0010
0100
0010
0100
1000
0010
1000
0010
1000
0100
0000
0000
0002
0000
0000
0000
,  // measure 50
0020
0000
0003
0000
0031
0100
0000
0000
0000
0000
0010
0100
0001
0000
0010
0000
,  // measure 51
0011
0000
0001
0000
1000
0010
1000
0010
0100
0001
0000
0100
0002
0000
0103
0001
,  // measure 52
0020
0000
0000
0000
0130
1000
0000
0100
1000
0000
0010
0001
0000
0010
0001
0000
,  // measure 53
1000
0000
0010
0000
1000
0000
0000
0000
1000
0100
0010
0001
1000
0000
0001
0000
0200
0000
0000
0000
0000
0000
0000
0000
0000
0000
0000
0000
0301
0000
0100
0000
,  // measure 54
0010
0000
1000
0001
1000
0010
1000
0010
0100
0001
2000
0000
3200
0000
1300
0001
,  // measure 55
1000
0000
0001
0000
1000
0000
0010
0000
1000
0000
0001
0000
1000
0000
0000
0000
0020
0000
0000
2030
0000
0000
3002
0000
0000
0000
0000
0000
0003
0000
0000
0000
,  // measure 56
0000
0000
0001
0010
0001
1000
0100
1000
0001
0000
1000
0001
1000
0001
2000
0000
,  // measure 57
3002
0000
0000
0000
0023
0000
0000
0000
0031
0100
0010
1000
0001
0010
0100
1000
,  // measure 58
0001
0010
0001
1000
0010
0000
0021
0000
0000
1030
0000
0000
0022
0000
0000
0000
,  // measure 59
0033
0000
0100
0000
0001
0100
0010
0000
1000
0001
1000
0001
0100
0010
0100
0000
,  // measure 60
0001
1000
0010
0100
0001
0000
0100
0000
0001
1000
0100
0000
0020
0000
0000
0000
,  // measure 61
0230
0000
0310
0000
0010
0002
0000
0000
2003
0000
0000
3001
1000
0010
1000
0001
,  // measure 62
2000
0001
0000
0010
0000
0000
3002
0000
1003
0002
0000
0000
0023
0000
0000
0000
,  // measure 63
0032
0000
0103
0000
0010
0100
0000
0000
1000
0001
1000
0001
0100
0001
1000
0000
,  // measure 64
0011
0000
1000
0010
1000
0000
2100
0000
0000
3001
0000
0000
0200
0000
0301
0000
,  // measure 65
0020
0000
0130
0010
1000
0001
0000
0000
0001
0100
0001
0100
0001
0000
1000
0100
,  // measure 66
2000
0000
0000
0010
0000
0000
3002
0000
1003
0002
0000
0000
0023
0000
0000
0000
,  // measure 67
0032
0000
0103
0000
0000
0001
1000
0000
0001
1000
0000
0001
0100
0001
1000
0100
,  // measure 68
0010
0001
0010
0100
0010
0100
2000
0000
3001
2000
0000
0000
3200
0000
2300
0000
,  // measure 69
3020
0000
1030
0000
0001
1000
0010
1000
0100
0000
1100
0000
0100
0000
0220
0000
,  // measure 70
0330
0000
0000
0000
;

//---------------dance-single - ----------------
#NOTES:
     dance-single:
     :
     Medium:
     11:
     0.315688,0.396524,0.153552,0.480686,0.103481,331.000000,308.000000,23.000000,72.000000,0.000000,0.000000,0.315688,0.396524,0.153552,0.480686,0.103481,331.000000,308.000000,23.000000,72.000000,0.000000,0.000000:
// measure 0
0000
0000
0000
0000
,  // measure 1
0000
0000
0000
0000
,  // measure 2
0010
1000
0100
0000
1100
0000
0101
0000
,  // measure 3
0010
0001
0100
0000
1010
0000
0011
0000
,  // measure 4
0001
0010
0100
0000
1100
0000
0101
0000
,  // measure 5
1000
0010
0100
0001
1000
0001
0101
0000
,  // measure 6
1000
0010
0100
0000
0101
0000
1100
0000
,  // measure 7
0001
0010
0100
0000
1010
0000
0011
0000
,  // measure 8
1000
0001
0100
0000
0101
0000
1100
0000
,  // measure 9
0010
1000
0100
0010
0001
1000
1100
0000
,  // measure 10
0000
0000
0000
0010
0010
1000
0001
0100
,  // measure 11
0000
0000
0000
0001
0001
0010
0001
1000
,  // measure 12
0000
0000
0000
0010
0010
1000
1000
0100
,  // measure 13
0010
0001
0000
0100
0001
0001
0001
1000
,  // measure 14
0000
0000
0000
0000
0000
0000
0100
0000
0001
0000
0000
1000
0000
0000
1000
0000
,  // measure 15
0000
0000
0100
0000
0000
0000
0100
0000
1000
0000
0000
0001
0000
0000
0002
0000
,  // measure 16
0003
0000
0000
0000
0000
0000
0100
0000
0001
0000
0000
1000
0000
0000
0010
0000
,  // measure 17
0000
0000
0100
0000
0000
0000
0100
0000
0001
0000
0000
1000
0000
0000
0002
0000
,  // measure 18
0003
0000
0000
0000
0000
0000
0100
0000
0001
0000
0000
1000
0000
0000
0010
0000
,  // measure 19
0000
0000
0100
0000
0000
0000
0100
0000
0001
0000
0000
0001
0000
0000
0100
0000
,  // measure 20
0001
0000
1000
0000
0000
0001
0100
0001
,  // measure 21
1000
0000
0000
0000
0000
0000
0000
0000
0001
0000
0000
0010
0000
0000
0020
0000
,  // measure 22
0000
0000
0200
0000
0330
0000
0001
0010
,  // measure 23
0001
0000
1000
0100
2000
0000
3001
1000
,  // measure 24
0001
1000
0010
0000
0002
0000
2003
0000
,  // measure 25
3000
0000
0100
0000
1000
0000
0001
0000
1000
0000
0000
0010
0000
0000
0020
0000
,  // measure 26
0000
0000
2000
0000
3030
0000
1000
0010
,  // measure 27
1000
0000
0001
0100
0002
0000
1003
0001
,  // measure 28
1000
0001
0020
0000
0230
0000
1300
0000
,  // measure 29
0001
0000
0100
0000
0002
0000
0000
2003
,  // measure 30
0000
3020
0000
0000
,  // measure 31
0130
0000
0000
0000
0000
0000
1000
0000
0010
0000
0000
1000
0000
0000
0002
0000
,  // measure 32
0000
0000
0000
0000
0003
0000
1000
0000
0010
0000
0000
1000
0000
0000
0002
0000
,  // measure 33
0003
0000
0002
0000
2003
0000
0000
3002
,  // measure 34
0000
0023
0000
0000
,  // measure 35
0130
0000
0000
0000
0000
0000
0001
0000
0010
0000
0000
0001
0000
0000
2000
0000
,  // measure 36
0000
0000
0000
0000
3000
0000
1000
0000
0010
0000
0000
1000
0000
0000
0200
0000
,  // measure 37
0300
0110
0000
2002
0000
0000
0000
0000
,  // measure 38
0000
0000
0000
0000
,  // measure 39
0000
0000
0000
0000
,  // measure 40
0000
0000
3000
0000
0103
0100
0000
0100
,  // measure 41
0100
0100
0000
0000
0220
0000
0030
0020
,  // measure 42
0000
0030
0310
0000
0100
0010
1000
0001
,  // measure 43
2000
0000
0000
3020
0000
0000
1030
0000
0220
0000
0000
0000
0030
0000
0020
0000
,  // measure 44
0000
0000
0330
0000
1000
1000
0100
0001
,  // measure 45
0001
0100
0010
0000
0202
0000
0300
0200
,  // measure 46
0000
0300
0103
0000
0100
0001
0001
1000
,  // measure 47
0002
0000
0000
2003
0000
0000
3100
0000
2200
0000
0000
0000
3000
0000
2000
0000
,  // measure 48
0000
0000
3300
0000
0001
0000
1000
0010
,  // measure 49
0010
1000
0010
0100
0110
0000
0002
0000
,  // measure 50
0020
0000
0003
0000
0031
0000
0000
0000
0000
0000
0010
0001
0000
0000
0000
0000
,  // measure 51
1000
0000
0001
1000
0100
0000
2000
0000
,  // measure 52
3002
0000
0000
0000
0103
0000
0000
0100
0000
0000
0010
0000
0100
0000
0010
0000
,  // measure 53
1000
0010
1000
0000
0200
0000
0000
0000
,  // measure 54
0020
0000
0000
0000
,  // measure 55
0330
0000
0000
0000
0000
0000
0000
0000
0001
0000
0000
0000
0000
0000
0000
0000
0010
0000
0000
0001
0000
0000
2000
0000
0000
0000
0000
0000
0000
0000
0000
0000
,  // measure 56
3000
0010
0001
0100
0001
0100
0001
1000
,  // measure 57
0002
0000
0023
0000
0030
0001
0100
0001
,  // measure 58
0001
0000
0000
0010
0000
0000
0020
0000
0000
0000
0000
0000
0002
0000
0000
0000
,  // measure 59
0033
0000
0001
0010
0001
0000
1000
0100
,  // measure 60
2000
0000
3001
1000
0001
1000
0020
0000
,  // measure 61
0230
0000
0320
0000
1030
0000
0001
1000
,  // measure 62
0200
0000
0000
0310
0000
0000
0002
0000
0000
1003
0000
0000
0020
0000
0000
0000
,  // measure 63
0000
0000
0130
0000
0000
0100
0000
0000
0001
0000
0000
0000
0100
0000
0001
0000
,  // measure 64
0010
0000
0000
0001
0000
0000
2000
0000
0000
3001
0000
0000
0100
0000
0001
0000
,  // measure 65
0020
0000
0030
0002
0000
0000
2003
0000
3000
0000
0000
0000
1000
0000
0100
0000
,  // measure 66
2000
0000
0000
3010
0000
0000
2000
0000
0000
3001
0000
0000
0020
0000
0000
0000
,  // measure 67
0030
0000
0100
0000
0000
1000
0000
0000
0001
0000
0000
0000
1000
0000
0100
0000
,  // measure 68
0020
0000
0000
0032
0000
0000
2003
0000
0000
3001
0000
0000
0100
0000
0001
0000
,  // measure 69
0020
0000
0000
0032
0000
0000
2003
0000
3000
0000
0110
0000
0000
0000
1001
0000
;

//---------------dance-single - ----------------
#NOTES:
     dance-single:
     :
     Easy:
     9:
     0.195517,0.256574,0.053410,0.333810,0.000000,205.000000,197.000000,8.000000,50.000000,0.000000,0.000000,0.195517,0.256574,0.053410,0.333810,0.000000,205.000000,197.000000,8.000000,50.000000,0.000000,0.000000:
// measure 0
0000
0000
0000
0000
,  // measure 1
0000
0000
0000
0000
,  // measure 2
0010
1000
0100
1000
,  // measure 3
0010
0100
0001
0010
,  // measure 4
0010
0001
0100
0001
,  // measure 5
1000
0010
0100
0001
,  // measure 6
1000
0100
1000
0100
,  // measure 7
0001
0100
0001
0010
,  // measure 8
0001
0100
0100
0001
,  // measure 9
0010
0100
1000
1001
,  // measure 10
0000
0000
0010
0100
,  // measure 11
0000
0000
0001
0001
,  // measure 12
0000
0000
0010
0100
,  // measure 13
0010
0000
1000
0001
,  // measure 14
0000
0000
0001
1000
,  // measure 15
0000
0100
1000
0001
,  // measure 16
0000
0000
0001
1000
,  // measure 17
0000
0100
1000
0001
,  // measure 18
0000
0000
0001
1000
,  // measure 19
0000
0100
1000
0001
,  // measure 20
0100
0001
0000
0100
,  // measure 21
1000
0000
0000
0000
0001
0000
0000
0020
,  // measure 22
0000
0200
0330
0001
,  // measure 23
0001
1000
2000
3001
,  // measure 24
1000
0001
1000
0000
0002
0000
0103
0000
,  // measure 25
0000
0000
0100
0000
0001
0000
0000
0020
,  // measure 26
0000
0002
0033
1000
,  // measure 27
1000
0001
0002
1003
,  // measure 28
0001
1000
0020
0000
0230
0000
0301
0000
,  // measure 29
0001
0000
0100
0000
0002
0000
0000
2003
,  // measure 30
0000
3020
0000
0000
,  // measure 31
0130
0000
0000
0000
0010
0000
0000
2000
,  // measure 32
0000
0000
3000
0000
0010
0000
0000
0100
,  // measure 33
0000
0000
0001
0000
2000
0000
0000
3002
,  // measure 34
0000
0023
0000
0000
,  // measure 35
0030
0000
0000
0000
0010
0000
0000
0002
,  // measure 36
0000
0000
0000
0003
0010
0000
0000
0100
,  // measure 37
0000
0000
2002
0000
,  // measure 38
0000
0000
0000
0000
,  // measure 39
0000
0000
0000
0000
,  // measure 40
0000
0000
3003
0000
0001
0000
0000
0100
,  // measure 41
0000
0000
0000
0000
0210
0000
0000
0010
,  // measure 42
0000
0310
0000
0010
,  // measure 43
2000
0000
3001
0000
0210
0000
0000
0010
,  // measure 44
0000
0300
1000
0100
,  // measure 45
1000
0000
0010
0000
0102
0000
0000
0100
,  // measure 46
0000
0103
0000
1000
,  // measure 47
0001
0000
1000
0000
1200
0000
0000
1000
,  // measure 48
0000
0300
0000
0000
,  // measure 49
0010
0010
0110
0002
,  // measure 50
0020
0003
0031
0000
0000
1000
0000
0000
,  // measure 51
1000
0002
0103
2000
,  // measure 52
0000
3100
0000
0100
,  // measure 53
1000
0001
0200
0000
,  // measure 54
0020
0000
0000
0000
,  // measure 55
0330
0000
0010
0000
,  // measure 56
0000
0000
0001
0100
0001
0000
1000
0000
,  // measure 57
0002
0000
0023
0000
0030
0001
0000
0000
,  // measure 58
0001
0000
0000
0020
0000
0000
0002
0000
,  // measure 59
0033
0001
1000
0001
,  // measure 60
2000
0000
3001
0000
0001
1000
0020
0000
,  // measure 61
0230
0000
0320
0000
1030
0000
0001
1000
,  // measure 62
0200
0000
0000
2300
0000
0000
3020
0000
,  // measure 63
0000
0130
0000
0000
0001
0000
0000
0001
,  // measure 64
0010
0000
0000
0002
0000
0000
0103
0001
,  // measure 65
0020
0000
0000
0032
1003
0000
0100
0000
,  // measure 66
2000
0000
0000
3002
0000
0000
0023
0000
,  // measure 67
0000
0130
0000
0000
1000
0000
1000
0100
,  // measure 68
0020
0000
0000
0030
0000
0000
0002
0000
0000
0000
0003
0000
0100
0000
0000
0000
,  // measure 69
0020
0000
0000
0030
0000
0000
0100
0000
0000
0000
0010
0000
0000
0000
1001
0000
;

//---------------dance-single - ----------------
#NOTES:
     dance-single:
     :
     Beginner:
     4:
     0.114449,0.162983,0.060086,0.180257,0.000000,120.000000,111.000000,9.000000,27.000000,0.000000,0.000000,0.114449,0.162983,0.060086,0.180257,0.000000,120.000000,111.000000,9.000000,27.000000,0.000000,0.000000:
// measure 0
0000
0000
0000
0000
,  // measure 1
0000
0000
0000
0000
,  // measure 2
0010
0000
0100
0000
,  // measure 3
0010
0000
0010
0010
,  // measure 4
0010
0000
0100
0000
,  // measure 5
0010
0000
1000
0000
,  // measure 6
0010
0000
0100
0000
,  // measure 7
0010
0000
0010
0010
,  // measure 8
0010
0000
0100
0000
,  // measure 9
0010
0000
0001
0000
,  // measure 10
1001
0000
0010
0000
,  // measure 11
0000
0000
0001
0000
,  // measure 12
0000
0000
0100
0000
,  // measure 13
1000
0000
1000
0000
,  // measure 14
0010
0000
1000
0000
,  // measure 15
0100
0000
0001
0000
,  // measure 16
0010
0000
0001
0000
,  // measure 17
0100
0000
1000
0000
,  // measure 18
0010
0000
1000
0000
,  // measure 19
0100
0000
0001
0000
,  // measure 20
0010
0000
0100
0100
,  // measure 21
0000
0000
0001
0000
,  // measure 22
0010
0000
0100
0000
,  // measure 23
1000
0000
1000
0000
,  // measure 24
0100
0000
0010
0000
,  // measure 25
0001
0000
0001
0000
,  // measure 26
0010
0000
0100
0000
,  // measure 27
1000
0000
1000
0000
,  // measure 28
0100
0000
0010
0000
,  // measure 29
0001
0000
0002
0000
,  // measure 30
0003
2000
0000
0000
,  // measure 31
3000
0000
0010
0000
,  // measure 32
1000
0000
0010
0000
,  // measure 33
0100
0000
2000
0000
,  // measure 34
3000
0002
0000
0000
,  // measure 35
0003
0000
0010
0000
,  // measure 36
0001
0000
0010
0000
,  // measure 37
0100
0000
2002
0000
,  // measure 38
0000
0000
0000
0000
,  // measure 39
0000
0000
0000
0000
,  // measure 40
0000
0000
0000
0000
,  // measure 41
0000
3003
0220
0000
,  // measure 42
0000
0330
0010
0000
,  // measure 43
0010
0000
0220
0000
,  // measure 44
0000
0330
0000
0100
,  // measure 45
0000
1000
2002
0000
,  // measure 46
0000
3003
0100
0000
,  // measure 47
0100
0000
2002
0000
,  // measure 48
0000
3003
0001
0000
,  // measure 49
0010
0010
0110
0000
,  // measure 50
0000
0001
0000
1000
,  // measure 51
0000
0010
0010
0020
,  // measure 52
0030
1000
0000
0001
,  // measure 53
0001
0001
0000
0000
,  // measure 54
0220
0000
0000
0000
,  // measure 55
0330
0000
0010
0000
,  // measure 56
0000
0000
0001
0000
,  // measure 57
2002
0000
0000
3003
,  // measure 58
0001
0000
0100
0000
,  // measure 59
0010
0000
1000
0000
,  // measure 60
1000
0000
0010
0000
,  // measure 61
0100
0000
0001
0000
,  // measure 62
0200
0000
0000
0300
,  // measure 63
0020
0000
0000
0030
,  // measure 64
0020
0000
0000
0030
,  // measure 65
0200
0000
0000
0300
,  // measure 66
2000
0000
0000
3000
,  // measure 67
0002
0000
0000
0003
,  // measure 68
0200
0000
0000
0300
,  // measure 69
0020
0000
0000
0030
;
