#TITLE:Blacksphere;
#SUBTITLE:;
#ARTIST:Iriss;
#TITLETRANSLIT:;
#SUBTITLETRANSLIT:;
#ARTISTTRANSLIT:;
#GENRE:Hi-tech rave;
#CREDIT:tikal.;
#MUSIC:blacksphere.ogg;
#BANNER:Blacksphere.png;
#BACKGROUND:Blacksphere-bg.png;
#CDTITLE:cdtitle.png;
#SAMPLESTART:14.886;
#SAMPLELENGTH:25.098;
#SELECTABLE:YES;
#OFFSET:-2.337;
#BPMS:0.000=153.000;
#STOPS:;
#BGCHANGES:;
#FGCHANGES:;

//--------------- dance-single - tikal. ----------------
#NOTES:
     dance-single:
     tikal.:
     Medium:
     11:
     0,0,0,0,0:
0000
0000
0000
0000
,
0000
0000
0000
0000
,
0000
0000
0000
0000
,
0000
0000
0000
0000
,
1000
0000
0000
0000
1000
0000
0000
0000
1000
0000
0000
0010
0000
0000
0100
0000
,
0001
0000
0000
0000
0001
0000
0000
0000
0001
0000
0000
0010
0000
0000
0100
0000
,
1000
0001
1000
0001
0100
0010
0100
0010
,
0000
0000
0000
0110
,
1001
0000
1000
1000
0100
0001
0100
0010
,
0001
0000
0100
0100
0010
0000
1000
0000
,
1001
0000
0001
0001
0100
1000
0100
0010
,
1000
0000
0100
0100
0010
0001
1000
0001
,
0010
0000
0100
0100
1000
0010
0001
0010
,
1000
0000
0001
0001
0010
0000
0001
0000
,
0100
0000
0010
0010
1000
0100
0001
0100
,
2000
0000
0000
0000
3001
0100
0010
1000
,
0100
0100
0100
0000
0010
0001
0100
0001
,
0010
0000
0100
0100
1000
0000
0001
0000
,
0100
0000
0010
0010
0100
0001
0010
0001
,
0100
0000
0010
0010
2000
0000
0000
0000
,
3001
0000
0100
0100
0010
1000
0100
1000
,
0010
0000
0100
0100
0002
0000
0000
0000
,
1003
0100
0001
1000
0010
0001
0100
0010
,
1000
0000
0000
0001
0000
0000
1000
0000
0001
0000
0000
0000
1001
0000
0000
0000
,
0220
0000
0000
0000
,
0000
0000
0000
0000
,
0330
0000
0000
0000
,
0000
0000
0000
0000
,
2000
0000
0000
0000
,
3002
0000
0023
0000
,
0032
0000
0000
0000
,
1003
0010
0001
0100
1000
0000
0000
0000
,
0001
0001
0001
0001
,
1000
0100
0010
0001
,
1000
1000
1000
1000
,
0001
0000
0000
0000
0100
0000
0000
0000
0010
0000
0000
1000
0000
0000
0001
0000
,
0010
0011
0001
0101
,
0010
1010
1000
1100
,
0200
0000
0320
0000
,
0032
0000
1003
1001
,
0110
0000
0000
0000
,
0000
1000
0001
1000
0010
0000
1001
0000
,
1000
0100
0010
0000
1000
0100
0010
0000
,
1000
0100
0010
0001
0100
0000
0000
0000
,
0001
0100
0010
0000
0001
0100
0010
0000
,
0001
0100
0010
1000
0100
0000
0000
0000
,
0010
0001
1000
0000
0010
1000
0001
0000
,
0100
0001
1000
0100
0100
0000
0010
0000
,
0011
1010
1000
0100
,
0001
0000
0000
0100
0000
0000
1000
0000
1001
0000
0000
0000
0000
0000
0000
0000
,
0010
0000
0100
0000
0010
0000
0100
0000
0000
1001
0000
0000
,
0001
0010
0100
0000
1000
0001
0100
0010
,
1000
0010
0100
0000
1000
0010
0100
0000
,
1000
0010
0100
0001
0010
0000
0000
0000
,
0100
1000
0001
0000
0100
0001
1000
0000
,
0010
1000
0001
0010
0010
0000
0100
0000
,
1100
0101
0001
0010
,
1000
0010
0001
1000
0010
0000
0110
0000
,
0001
0010
0100
0000
0001
0010
0100
0000
,
0001
0010
0100
1000
0010
0000
0110
0000
,
1000
0010
0100
0000
1000
0010
0100
0000
,
1000
0010
0100
0001
0010
0000
0110
0000
,
0001
0010
1000
0000
0001
0100
1000
0000
,
0001
0100
1000
0001
0010
0010
1000
0000
,
1010
0000
0011
0000
0001
0001
1000
0000
,
0001
0010
1000
0100
0001
0000
0000
0000
,
1000
1000
1000
1000
,
0001
0010
0100
1000
,
0001
0001
0001
0001
,
1000
0000
0000
0000
0010
0000
0000
0000
0100
0000
0000
0001
0000
0000
1000
0000
,
0100
1000
0010
0000
0100
0001
0010
0000
,
0001
1000
0010
0000
1000
0001
0010
0000
,
0100
0100
0010
0010
0001
1000
0010
0100
,
0000
0000
0101
0000
0000
1100
0000
0000
1000
0000
0000
0001
0000
0000
1000
0000
,
1001
0000
0000
0000
;

//--------------- dance-single - tikal. ----------------
#NOTES:
     dance-single:
     tikal.:
     Hard:
     15:
     0,0,0,0,0:
0000
0000
0000
0000
,
0000
0000
0000
0000
,
0000
0000
0000
0000
,
0000
0000
0000
0000
,
0001
0000
0000
0000
0010
0000
0000
0000
0100
0000
0000
1000
0000
0000
1100
0000
,
1000
0000
0000
0000
0010
0000
0000
0000
0100
0000
0000
0001
0000
0000
0101
0000
,
0001
0000
0010
0000
1000
0000
0010
0000
0100
0010
0100
0010
0100
0010
0100
0020
,
0000
0000
0030
0200
,
2300
0000
3010
1000
0100
0000
0200
0000
0000
0000
0001
0000
0000
0000
1300
0000
,
0010
0000
0100
0000
0001
1000
0001
0000
0010
0000
0100
0000
1000
0000
0000
0000
,
0002
0000
0013
0001
0100
0000
0100
0000
0020
0000
0001
0000
0000
0000
1030
0000
,
0002
0000
0013
0010
0100
1000
0010
0100
,
0002
0000
0103
0001
0010
0000
0020
0000
0000
0000
1000
0000
0000
0000
0031
0000
,
0100
0000
0010
0000
1000
0001
1000
0000
0100
0000
0010
0000
0001
0000
0000
0000
,
2000
0000
3100
1000
0010
0000
0010
0000
0200
0000
1000
0000
0000
0000
0301
0000
,
2000
0000
3200
0000
0310
0001
0100
0010
,
1000
1000
0002
0000
0013
2000
3010
0002
,
0103
0000
0010
0000
1000
0001
1000
0000
0100
0000
0010
0000
0001
0000
0000
0000
,
2000
0000
3100
1000
0010
0000
0010
0000
0200
0000
1000
0000
0000
0000
0301
0000
,
2000
0000
0000
0000
3100
0000
0100
0000
0020
0000
0000
0000
0031
1000
0001
0000
,
2000
0000
3010
1000
0100
0000
0100
0000
0010
0000
2000
0000
3010
0000
0002
0000
,
0103
0000
0010
0000
1000
0001
1000
0001
0200
0000
0000
0000
0301
1000
0001
0000
,
2000
0000
3010
1000
0100
0000
0010
0000
0100
1000
0010
0000
0100
0000
0001
0000
,
0010
0000
0100
0010
0000
0100
0010
0000
0001
0000
1000
0000
1001
0000
0000
0000
,
0220
0000
0000
0000
,
0000
0000
0000
0000
,
0330
0000
0000
0000
,
0000
0000
0000
0000
,
0001
0000
1000
0000
0000
1000
0000
0000
1000
0000
0000
1000
0000
0000
1000
0000
,
0000
0000
0010
0000
0000
0010
0000
0000
0100
0000
0000
0100
0000
0000
0100
0000
,
0000
0000
0001
0000
0000
0001
0000
0000
0001
0000
0000
0001
0000
0000
0001
0000
,
1000
0010
0001
0100
1000
0000
0000
0000
,
1010
1010
1010
0010
,
0100
0001
0100
1000
0100
0000
0001
0000
,
0011
0011
0011
0010
,
0100
0000
1000
0000
0100
0000
0001
0000
0100
0000
0000
1000
0000
0000
0001
0000
,
1000
1010
0001
0101
,
1000
1100
0001
0011
,
0020
0000
0200
0030
,
2300
0000
0000
0001
3001
0000
1001
0000
,
0110
0000
0000
0000
,
0000
0001
0100
1000
0010
0001
1001
0000
,
1000
0000
0010
1000
0100
0000
0000
0000
1000
0000
0010
1000
0100
0000
0000
0000
,
1000
0000
0010
1000
0100
0000
0010
0000
0012
0000
0000
0000
1000
0000
0000
0000
,
0013
0000
0001
0010
0100
0000
0000
0000
0010
0000
0001
0010
0100
0000
0010
0000
,
0001
0000
0100
0000
0010
0000
1000
0000
0000
0001
0000
0000
0102
0000
0000
0000
0000
0000
1000
0000
0000
0000
0000
0000
,
0103
0000
000M
0100
1000
0001
1000
0001
0100
0000
000M
0100
1000
0001
1000
0001
,
0010
0000
000M
0010
1000
0001
1000
0001
0020
0000
2030
0000
3020
0000
0031
0000
,
0011
0000
1010
0000
1000
0100
0001
0100
,
1000
0000
0000
1010
0000
0010
0100
0001
2000
0000
3200
0000
0320
0000
0032
0000
,
0103
0000
0100
0000
0100
0000
0110
0000
0000
1001
0000
0000
,
0001
0000
0010
0001
0100
0000
0000
0000
0020
0000
0032
0000
0023
0000
2030
0000
,
3100
0000
1000
0100
0010
0000
0000
0000
0100
0000
1000
0100
0010
0000
0100
0000
,
1000
0000
0010
0000
0100
0000
0001
0000
0000
1000
0000
0000
0200
0000
0000
0000
0000
0000
0000
0000
0000
1300
0000
0000
,
0010
0000
M000
0010
0001
1000
0001
1000
0010
0000
M000
0010
0001
1000
0001
1000
,
0100
0000
M000
0100
0001
1000
0001
1000
0200
0000
0302
0000
0203
0000
1300
0000
,
1100
0000
0101
0000
0001
0010
1000
0010
,
0001
0000
1000
0001
1000
0000
1000
0000
1001
0000
0000
0000
0110
0000
0000
0000
,
1000
0000
0100
1000
0010
0000
0000
0000
1000
0000
0100
1000
0010
0000
0100
0001
,
1000
0000
0100
0010
0001
0000
1000
0000
2100
0000
0000
0000
0001
0000
0000
0000
,
3100
0000
0010
0000
0100
0000
1000
0001
0100
0000
0010
0100
0000
0000
0010
0000
,
1000
0000
0010
0000
0100
0000
0001
0000
0000
1000
0000
0000
0200
0000
0000
0320
0000
0000
0230
0000
0000
2300
0000
0000
,
3010
0000
0M00
0010
0001
0100
0010
1000
0100
0000
M000
0100
0001
0010
0100
1000
,
0010
0000
M000
0010
0001
0100
0010
1000
0020
0000
0230
0000
0320
0000
1030
0000
,
1010
0000
0000
0000
0011
0000
0000
0000
0001
0000
0001
1000
0010
0000
0100
0000
,
0001
0010
1000
0100
0001
0000
0000
0000
,
0011
0011
1000
1000
,
1010
0000
0000
1010
0000
0000
0001
0000
0000
0001
0010
0100
,
1000
1000
1100
1100
,
0001
0000
0000
0000
0001
0000
0000
0000
0101
0000
0000
0101
0000
0000
1000
0000
,
0001
0010
0001
0010
1000
0010
1000
0010
,
0001
0100
0001
0100
1000
0100
1000
0100
,
0010
0000
0010
0000
0010
0000
0010
0000
0010
0100
0010
0100
0010
0100
0010
0100
,
0000
0000
0110
0000
0000
0101
0000
0000
1001
0000
0000
1100
0000
0000
1001
0000
,
0110
0000
0000
0000
;

//--------------- dance-single - tikal. ----------------
#NOTES:
     dance-single:
     tikal.:
     Challenge:
     17:
     0,0,0,0,0:
0000
0000
0000
0000
,
0000
0000
0000
0000
,
0000
0000
0000
0000
,
0000
0000
0000
0000
,
1000
0000
0000
0000
0100
0000
0000
0000
0010
0000
0000
0011
0000
0000
1001
0000
,
0001
0000
0000
0000
0100
0000
0000
0000
0010
0000
0000
1010
0000
0000
1001
0000
,
1000
0000
0100
0000
0001
0000
0100
0000
0010
0001
1000
0010
0100
0001
1000
0200
,
0000
0000
0300
0040
,
0034
0000
1003
0010
0100
0000
0100
0000
0010
0000
0002
0000
0013
0000
2000
0000
,
3001
0000
0010
0000
0100
1000
0100
1000
0010
M000
0010
0000
0004
0000
0000
0000
,
4003
0000
3001
0010
0100
0000
0100
0000
0020
0000
1000
0000
0000
0000
0031
0000
,
1000
0000
0010
0000
0100
0000
0001
0000
0010
0100
0010
0001
1000
0010
0100
0010
,
4000
0000
3001
0100
0010
0000
0010
0000
0100
0000
2000
0000
3100
0000
0002
0000
,
1003
0000
0100
0000
0010
0001
0010
0001
0100
000M
0100
0000
1000
0010
1000
0010
,
0400
0000
0301
1000
0010
0000
0010
0000
0100
0000
1000
0100
0001
0000
0010
0000
,
0400
0000
0000
0000
0340
0000
0000
0000
0130
0010
0001
0010
0100
1000
0001
1000
,
0010
M000
0010
0000
0004
0000
0000
0000
0013
0100
0002
0000
0103
0000
2000
0000
,
3010
0000
0100
0000
0001
0010
0001
0010
0100
1000
0M00
1000
0010
0000
0100
1000
,
0004
0000
1003
0010
0100
0000
0100
0000
0020
0000
0001
0000
0000
0000
1030
0000
,
0001
0000
0010
0000
0100
0000
1000
0000
0040
0000
0000
0000
0130
0010
1000
0000
,
0004
0000
1003
0100
0010
0000
0010
0000
0100
0010
2000
0000
3010
0000
0002
0000
,
1003
0000
0010
0000
0100
0001
0100
0001
0040
0000
0000
0000
0130
0010
0001
0000
,
4000
0000
3001
0100
0010
0000
1000
0000
0004
0000
1003
0010
0100
0010
1000
0001
,
0010
0000
001M
M010
0000
001M
M010
0000
001M
0000
1000
0001
0010
0000
0000
0000
,
0220
0000
0000
0000
,
0000
0000
0000
0000
,
0330
0000
0000
0000
,
0000
0000
0000
0000
,
1000
0000
0001
0000
0000
0001
0000
0000
0001
0000
0000
0001
0000
0000
0001
1000
,
0000
0000
0010
0000
0000
0010
0000
0000
0100
0000
0000
0100
0000
0000
0100
0001
,
0000
0000
1000
0000
0000
1000
0000
0000
1000
0000
0000
1000
0000
0000
1000
0000
,
0001
0010
1000
0100
0001
0000
0000
0000
,
1000
0100
1000
0100
,
0010
0000
0001
0000
0010
0000
0001
1000
,
0001
0100
0001
0100
,
0010
0000
0000
0000
1000
0000
0000
0000
0010
0000
0000
1010
0000
0000
1001
0000
,
1000
0100
1000
0010
0100
0001
0010
0001
,
0100
1000
0100
0001
0010
1000
0010
0001
,
2000
0000
0002
3000
,
0203
0000
0000
0010
0310
0000
0110
0000
,
1001
0000
0000
0000
,
0000
1000
0010
0001
0100
1000
1001
0000
,
0001
0000
1000
0001
0010
000M
0010
0000
1000
0000
0001
1000
0100
M000
0100
0001
,
1000
0000
0100
0010
0001
0000
1000
0000
2010
0000
0000
0000
0101
0000
0000
0000
,
3010
0000
1000
0001
0100
0000
0010
0M10
0001
1000
0100
0010
0001
0000
0100
0000
,
1000
0000
0000
0000
0100
0000
0000
0000
0001
0000
0000
0000
0010
0000
0000
0000
0000
0000
0100
0000
0000
0010
0000
0000
0002
0000
0000
0000
0000
0000
2003
0000
0000
0000
0000
0000
3020
0000
0000
0000
0000
0000
0230
0000
0000
0000
0000
0000
,
0301
0000
0010
0100
1000
0010
M010
0010
1000
0000
0100
0010
0001
0100
010M
0100
,
0001
0010
0001
0010
0100
1000
0100
M100
0002
0000
0023
0000
0032
0000
0103
010M
,
1100
0000
0000
0000
0101
0000
0001
1000
0001
0000
0010
0000
1000
0000
0010
0000
,
0100
0000
0000
1100
0000
1000
0001
0100
0020
0000
0230
0000
0302
0000
2003
0000
,
3100
0000
0000
0000
0000
0000
0000
0000
1100
0000
0000
0000
0000
0000
0000
0000
0101
0000
0000
0000
0000
0000
0000
0000
0010
0000
0000
0000
0000
0000
0100
0000
0000
0000
0000
0000
1001
0000
0000
0000
0000
0000
0001
0000
0000
1000
0000
0000
,
0010
0000
0010
M010
0001
0000
0100
0000
0010
1000
0001
1000
0100
0000
0010
0001
,
1000
0000
0001
1000
0100
0000
0010
0M10
1000
0001
0100
0010
1000
0000
0100
0000
,
0001
0000
0000
0000
0100
0000
0000
0000
1000
0000
0000
0000
0010
0000
0000
0000
0000
0000
0100
0000
0000
0010
0000
0000
4000
0000
0000
0000
0000
0000
0000
0000
0000
0000
0000
0000
0000
0000
0000
0000
0000
0000
3001
0000
1000
0000
0001
0000
,
1000
0000
0010
0100
0001
0010
001M
0010
0001
0000
0100
0010
1000
0100
M100
0100
,
1000
0010
1000
0010
0100
0001
0100
010M
2000
0000
3020
0000
2030
0000
3100
M100
,
0101
0000
0000
0000
1100
0000
1000
0001
1000
0000
0010
0000
0001
0000
0010
0000
,
0100
0000
0000
0000
0000
0000
0001
0000
0000
1000
0000
0000
0100
0000
0000
0000
0000
0000
0001
0000
0000
0000
0000
0000
0100
0000
0000
0000
0000
0000
1000
0000
0001
0000
1000
0000
0001
0000
0000
0000
0000
0000
0000
0000
0000
0000
0000
0000
,
1000
0000
0010
M010
0001
0000
0100
0000
0001
0000
0010
001M
1000
0000
0100
M100
,
0001
0000
0010
001M
0M10
0000
0100
0000
2100
0000
0000
0000
0011
0000
0000
0000
,
3200
0000
0310
0000
0200
0000
1300
1M00
0010
0000
0100
1000
0001
0000
0100
0000
,
1000
0000
0000
0000
0100
0000
0000
0000
0001
0000
0000
0000
0010
0000
0000
0000
0000
0000
0100
0000
0000
0010
0000
0000
0001
0000
0000
1000
0000
0000
0010
0000
0000
0100
0000
0000
0001
0000
0000
0000
0000
0000
0100
0000
0000
0010
0000
0000
,
1000
0100
0010
0001
0100
010M
M100
010M
1000
0010
0100
0001
0010
001M
M010
001M
,
1000
0100
0010
0001
0100
010M
1000
1M00
2000
0000
3020
0000
2030
0000
3100
M100
,
0101
0000
0000
0000
1100
0000
1000
0001
1000
0000
0100
0000
0001
0000
0100
0000
,
1000
0000
0000
0000
0000
0000
0010
0000
0000
0000
0000
0000
0001
0000
0000
0000
0000
0000
0100
0000
0000
0000
0000
0000
1000
0000
0000
0000
0000
0000
0000
0000
0000
1000
0000
0000
0000
0000
0000
0000
0000
0000
0001
0000
1000
0000
0001
0000
,
1000
0010
1000
0010
,
0100
0000
0000
0001
0000
0000
0100
0000
0000
0001
1000
0001
,
1000
0010
0001
0010
,
0100
0000
0000
0000
1000
0000
0000
0000
0100
0000
0000
0101
0000
0000
1001
0000
,
1000
0100
1000
0010
0100
0001
0010
0001
,
0100
1000
0100
0001
0010
1000
0010
0001
,
0100
0000
0100
0000
0100
0000
0100
0000
0100
0010
1000
0001
0010
0100
1000
0001
,
0000
0000
1001
0000
0000
1100
0000
0000
0110
0000
0000
0011
0000
0000
0110
0000
,
1001
0000
0000
0000
;
