#TITLE:Black Swan;
#SUBTITLE:;
#ARTIST:TAK;
#TITLETRANSLIT:;
#SUBTITLETRANSLIT:;
#ARTISTTRANSLIT:;
#GENRE:;
#CREDIT:;
#BANNER:;
#BACKGROUND:;
#LYRICSPATH:;
#CDTITLE:;
#MUSIC:black.mp3;
#OFFSET:0.358000;
#SAMPLESTART:80.504074;
#SAMPLELENGTH:9.310349;
#SELECTABLE:YES;
#DISPLAYBPM:116.000000:232.000000;
#BPMS:0.000000=116.000000
,33.000000=87.000000
,36.000000=174.000000
,116.000000=116.000000
,182.000000=232.000000
,246.000000=116.000000
;
#STOPS:
;
#BGCHANGES:0.688=black.mp4=1.000=0=0=1=====,
99999=-nosongbg-=1.000=0=0=0 // don't automatically add -songbackground-
;
#KEYSOUNDS:;
#ATTACKS:;

//---------------dance-single - ----------------
#NOTES:
     dance-single:
     :
     Beginner:
     4:
     0.124374,0.191225,0.097722,0.000000,0.008884,98.000000,87.000000,11.000000,0.000000,0.000000,0.000000,0.124374,0.191225,0.097722,0.000000,0.008884,98.000000,87.000000,11.000000,0.000000,0.000000,0.000000:
0000
0000
0000
0000
,
0000
0000
0000
0000
,
0000
0000
0000
0000
,
0000
0000
0000
0000
,
0000
1000
0000
0000
,
0000
0001
0000
0001
,
0000
0100
0000
0000
,
0000
1001
0000
0001
,
0000
1000
0000
0000
,
0010
0000
0010
0000
,
1000
0000
1000
0000
,
0001
0000
0001
0000
,
0100
0001
0100
0001
,
1000
0000
1000
0000
,
0010
0000
0010
0000
,
0100
0000
0100
0000
,
0001
1000
0001
0000
,
0100
0000
0100
0000
,
0001
0000
0010
0000
,
0001
0000
0001
0000
,
1000
0000
0100
0000
,
0010
0000
0010
0000
,
0001
0000
1000
0000
,
0010
0000
0010
0000
,
0110
0000
0000
0000
,
0001
0000
0000
0000
,
0001
0000
0000
0000
,
1000
0000
0000
0000
,
1000
0000
0000
0000
,
0110
0000
0000
0000
,
0001
0000
0000
0000
,
0100
0000
0000
0000
,
1000
0000
0000
0000
,
0010
0000
0010
0000
,
0001
0000
0000
0000
,
0100
0000
0100
0000
,
1001
0000
0000
0000
0000
0000
0000
0000
0000
0000
0110
0000
,
0000
0000
0000
0000
0000
0000
0000
0000
1001
0000
0000
0000
,
0000
0000
0110
0000
,
0000
0000
1001
0000
,
0001
0000
1000
0000
,
0000
0000
1001
0000
,
1000
0000
0001
0000
,
0000
0000
0100
0000
,
0100
0000
0010
0000
,
0010
0000
1000
0000
,
0000
0000
1000
0000
,
0000
0000
0001
0000
,
0000
0000
0001
0000
,
0000
0000
0010
0000
,
0000
0000
0010
0000
,
0000
0000
0110
0000
,
0000
0000
1000
0000
,
1000
0000
0010
0000
,
0000
0000
0010
0000
,
0000
0000
0100
0000
,
0000
0000
0100
0000
,
0000
0000
0001
0000
,
0000
0000
0001
0000
,
0000
0000
0010
0000
,
0000
0000
0100
0000
,
0100
0000
1001
0000
;

//---------------dance-single - ----------------
#NOTES:
     dance-single:
     :
     Easy:
     6:
     0.209405,0.273178,0.204328,0.000000,0.115490,165.000000,142.000000,23.000000,0.000000,0.000000,0.000000,0.209405,0.273178,0.204328,0.000000,0.115490,165.000000,142.000000,23.000000,0.000000,0.000000,0.000000:
0000
0000
0000
0000
,
0000
0000
0000
0000
,
0000
0000
0000
0000
,
0000
0000
0000
0000
,
0000
0000
0000
0001
0000
0000
0000
0000
0000
1000
0000
0100
,
0000
0010
0000
0010
,
0000
0000
0000
0001
0000
0000
0000
0000
0000
0001
0000
0100
,
0000
0010
0000
0010
,
0000
1000
0000
0000
,
0001
0000
0010
0000
,
0100
0000
1000
0000
,
0010
0000
0100
0000
,
0010
0010
1000
0001
,
1000
0100
0010
0000
,
0001
0100
0010
0000
,
1000
0001
0010
0000
,
0100
0000
1001
0000
,
0001
0000
1000
0000
,
1000
0100
0010
0001
,
0001
0000
1000
0000
,
0001
0010
0100
1000
,
0001
0000
1000
0000
,
0001
0100
0010
1000
,
0001
0000
1000
0000
,
0001
0010
0110
1001
,
1000
0000
0010
0000
,
0100
0000
0001
0000
,
0010
0000
0001
0000
,
1000
0010
0100
0001
,
1001
0000
0000
0000
0000
0000
1000
0000
0000
0000
0100
0000
,
0010
0000
0000
0000
0000
0000
0001
0000
0000
0000
1000
0000
,
0010
0000
0000
0000
0000
0000
0100
0000
0000
0000
0001
0000
,
1000
0000
0000
0100
0000
0000
0110
0000
0000
0000
0001
0000
,
1000
0000
0000
0000
0000
0000
0001
0000
0010
0000
0100
0000
,
1000
0000
0000
0000
0000
0000
0010
0000
1000
0000
0001
0000
,
0100
0000
0000
0000
0000
0000
0001
0000
0100
0000
0010
0000
,
1000
0000
0000
0000
0000
0000
1001
0000
0000
0000
0010
0000
,
0000
0000
0000
0000
1001
0000
0000
0000
0100
0000
0000
0000
,
0000
0000
0110
0000
0000
0000
1000
0000
0000
0000
0000
0000
,
0001
0000
1000
0000
0001
0000
1000
0000
0000
0000
0000
0000
,
0110
0000
1001
0000
,
0011
0000
1100
0000
,
1010
0000
0101
0000
,
0011
0000
1000
0100
,
0001
0010
1000
0100
,
0001
0010
1000
0000
,
0000
0000
0000
0000
0000
0000
0010
0000
0000
0000
1000
0000
,
0000
0000
0001
0000
0000
0000
0100
0000
0000
0000
0000
0000
,
0000
0000
0101
0000
,
0000
0000
1010
0000
,
0000
0000
0000
0000
0000
0000
0001
0000
0000
0000
0010
0000
,
0000
0000
0100
0000
0000
0000
1000
0000
0000
0000
0000
0000
,
0000
0000
1010
0000
,
0000
0000
0101
0000
,
0000
0000
0000
0000
0000
0000
1000
0000
0000
0000
0100
0000
,
0000
0000
0010
0000
0000
0000
0001
0000
0000
0000
0000
0000
,
0000
0000
0011
0000
,
0000
0000
1100
0000
,
0000
0000
0000
0000
0000
0000
0001
0000
0000
0000
1000
0000
,
0000
0000
0010
0000
0000
0000
0100
0000
0000
0000
0000
0000
,
0000
0000
0110
0000
,
0000
0000
1001
0000
;

//---------------dance-single - ----------------
#NOTES:
     dance-single:
     :
     Medium:
     11:
     0.331240,0.437085,0.213212,0.142141,0.328702,261.000000,237.000000,24.000000,16.000000,0.000000,0.000000,0.331240,0.437085,0.213212,0.142141,0.328702,261.000000,237.000000,24.000000,16.000000,0.000000,0.000000:
0000
0000
0000
0000
,
0000
0000
0000
0000
,
0000
0000
0000
0000
,
0000
0000
0000
0000
,
0000
0000
0000
1001
0000
0000
0000
0000
0000
0010
0000
1000
,
0000
0001
0100
0010
0000
0000
0000
1000
0000
0101
0000
0000
,
0000
0001
0000
1010
0000
0000
0000
1000
0000
0001
0000
0010
,
0000
0100
0010
0001
0000
0100
0000
0001
0000
1000
0000
0010
,
0000
0000
1000
0000
0000
0000
0000
0000
0000
0000
0000
0000
0000
0000
0000
2002
0000
0000
3003
0000
0000
0000
0000
0000
,
0001
0000
0000
1001
0000
0000
1000
0000
,
0100
0000
0000
0110
0000
0000
0010
0000
,
0001
1000
0010
0100
,
0001
0010
0100
1000
,
0010
0010
0100
0100
,
0001
1000
0001
1000
,
0100
0010
0001
1000
,
0010
0100
0010
0000
1000
0000
0101
0000
,
0001
0000
0010
0000
0100
0010
0001
0100
,
2000
3200
0302
0023
,
0031
0000
1000
0000
0100
0001
0100
1000
,
0200
0000
0310
0000
0001
1000
1001
0000
,
0001
0000
0100
0000
0010
1000
0010
0100
,
0002
2003
3020
0230
,
0301
0000
1000
0000
0010
0001
0010
1000
,
1010
0000
0001
0000
1000
0001
1000
0000
,
0100
0100
0010
0010
,
0001
0001
1000
1000
,
0010
0010
0100
0100
,
0001
0000
0001
0000
1000
0010
1000
0000
,
0101
0000
0000
0000
0000
0000
1000
0000
0100
0000
0010
0000
,
0001
0000
0000
0000
0000
0000
0100
0000
0001
0000
1000
0000
,
0010
0000
0000
0000
0000
0000
0100
0000
0010
0000
1000
0000
,
0010
0101
1100
1001
,
0011
0000
0000
0000
0001
0000
0100
0000
1000
0000
0100
0000
,
0001
0000
0000
0000
1000
0000
0100
0000
0001
0000
0100
0000
,
1000
0000
0000
0000
0010
0000
0100
0000
0001
0000
0100
0000
,
0110
0000
0010
0000
1000
0000
1001
0000
0000
0000
1100
0000
,
0100
0000
0010
0000
0011
0000
0000
0000
1001
0000
0001
0000
,
0100
0000
0110
0000
0000
0000
1010
0000
1000
0000
0100
0000
,
0010
0000
0001
0000
1000
0010
2000
0000
0000
0000
0000
0000
,
3001
0000
1000
0000
0100
0000
0010
0000
0000
0000
0000
0000
,
0020
0000
0032
0000
,
0103
0000
0001
0000
1000
0000
0010
0000
0000
0000
0000
0000
,
2000
0000
3200
0000
,
0310
0000
0001
1000
0001
0000
0100
0000
0001
1000
0001
0000
,
0110
0000
0001
0000
,
1000
0000
0001
0000
0000
0000
0100
0000
0000
0000
0010
0000
,
0000
0000
1000
0000
0000
0000
0010
0000
0000
0000
0000
0000
,
0100
0000
0001
0000
0000
0000
0010
0000
0000
0000
0000
0000
,
0100
0000
1000
0000
0000
0000
0001
0000
0000
0000
0000
0000
,
1000
0000
0100
0000
0000
0000
0010
0000
0000
0000
0001
0000
,
0000
0000
0100
0000
0000
0000
0010
0000
0000
0000
0000
0000
,
0010
0000
0100
0000
0000
0000
0001
0000
0000
0000
0010
0000
,
0000
0000
0001
0000
0000
0000
1001
0000
0000
0000
0000
0000
,
0001
0000
0100
0000
0000
0000
0010
0000
0000
0000
1000
0000
,
0000
0000
0010
0000
0100
0000
0001
0000
0000
0000
0000
0000
,
0001
0000
0100
0000
0000
0000
0010
0000
0000
0000
0000
0000
,
1000
0000
0010
0000
0000
0000
1000
0000
0000
0000
0000
0000
,
0100
0000
1000
0000
0000
0000
0001
0000
0000
0000
0010
0000
,
0000
0000
0100
0000
0010
0000
0001
0000
0000
0000
0000
0000
,
0001
0000
1000
0000
0000
0000
0010
0000
0100
0000
0010
0000
,
0100
0000
0010
0000
0000
0000
1001
0000
0000
0000
0000
0000
;

//---------------dance-single - ----------------
#NOTES:
     dance-single:
     :
     Hard:
     13:
     0.465767,0.543395,0.444192,0.168793,0.506379,367.000000,317.000000,50.000000,19.000000,0.000000,0.000000,0.465767,0.543395,0.444192,0.168793,0.506379,367.000000,317.000000,50.000000,19.000000,0.000000,0.000000:
0000
0000
0000
0000
,
0000
0000
0000
0000
,
0000
0000
0000
0000
,
0000
0000
0000
0000
,
0000
0000
0000
2000
0000
0000
0000
0000
0000
3010
0000
0100
,
0000
0001
0010
0002
0000
1003
0000
0100
0000
0002
0000
1003
,
0000
0010
0000
0002
0000
1003
0000
0100
0000
0010
0001
0010
,
0000
0001
1000
0002
0000
0100
0000
1003
0000
0102
0000
0000
,
0000
0000
1003
0000
0000
0000
0000
0000
0000
0000
0000
0000
0000
0000
0000
2002
0000
0000
3003
0000
0000
0000
0000
0000
,
0001
0100
0010
2000
0000
3010
1000
0100
,
1000
0010
0100
0002
0000
1003
0100
0010
,
0000
0001
0100
0001
1000
0000
0001
0000
,
1010
0101
0011
1100
,
0001
1000
0100
0001
1000
0010
0001
0010
,
0100
1000
0100
0010
0001
0100
0010
1000
,
0001
0010
0001
0100
0010
1000
0001
0100
,
0101
0000
0000
0000
0001
0010
0001
0010
0001
0000
1000
0000
0010
0000
1000
0000
,
1100
0000
0001
0010
0100
1000
0100
0001
,
0100
0010
0000
0000
0100
1000
0000
0000
0100
0010
0000
0000
0100
1000
0000
0000
,
1001
0000
0001
0100
0010
1000
0010
0100
,
0010
1000
0000
0000
0010
0100
0000
0000
0010
1000
0000
0000
0010
0100
0000
0000
,
0011
0000
1000
0001
0010
0100
1000
0001
,
1000
0100
0000
0000
1000
0010
0000
0000
1000
0100
0000
0000
1000
0010
0000
0000
,
0101
0000
1000
0001
0100
0010
0100
0001
,
0010
0000
0001
0100
0001
0000
1000
0100
1000
0000
0001
0100
0001
0000
0000
0000
,
1001
0000
0000
1000
0000
1000
0000
0010
,
0000
0100
0000
0001
0010
0001
1000
0000
,
0001
0010
0100
0010
0000
0001
0000
0100
,
0010
0010
1000
0001
0110
0000
0000
0000
,
1001
0000
0000
0000
0000
0000
1000
0000
0100
0000
0010
0000
,
0011
0000
0000
0000
0000
0000
0001
0000
0100
0000
0010
0000
,
1010
0000
0000
0000
0001
0000
1000
0000
0010
0000
0100
0000
,
0120
1000
0001
1030
,
0011
0000
0000
0000
1000
0000
0101
0000
0100
0000
0010
0000
,
1010
0000
0000
0000
0001
0000
1100
0000
0100
0000
0010
0000
,
0011
0000
0000
0000
0001
0000
1001
0000
0001
0000
0100
0000
,
0110
0000
1000
0000
0001
0000
0110
0000
0000
0000
0110
0000
,
0001
0000
1000
0000
0110
0000
0000
0000
0011
0000
0100
0000
,
1000
0000
0101
0000
0000
0000
1010
0000
0100
0000
0001
0000
,
2000
0000
0000
0000
0000
0000
0000
0000
0000
0000
0000
0000
0000
0000
0000
0000
3020
0000
0000
0000
0000
0000
0000
0000
0000
0000
0000
0000
0000
0000
0000
0000
0230
0000
0000
0000
0000
0000
0000
0000
0000
0000
0000
0301
0000
0000
0000
0000
1000
0000
0000
0000
0000
0000
0000
0000
0000
0000
0000
0000
0000
0000
0000
0000
0000
0000
0000
0000
0000
0000
0000
0000
0000
0000
0000
0000
0000
0000
0000
0000
0000
0000
0000
0000
0000
0000
0000
0000
0000
0000
0000
0000
0000
0000
0000
0000
,
1100
0000
0110
0000
0011
0000
2001
0000
0000
3100
0000
0000
,
1002
0103
1010
0000
,
0101
0000
0110
0000
1010
0000
1200
0000
0000
0310
0000
0000
,
0201
0310
2000
3000
,
0001
0010
0100
1000
0010
0100
1000
0100
0001
0010
0100
0010
,
0001
0000
0000
1100
0000
0000
0001
0000
0100
0000
1000
0000
,
0100
0000
0001
0000
0000
0000
1000
0000
0000
0000
0001
0000
,
0010
0000
0001
0000
0000
0000
0110
0000
0000
0000
1000
0000
,
0100
0000
0001
0000
0000
0000
0110
0000
0000
0000
0001
0000
,
0100
0000
1000
0000
0000
0000
0110
0000
0000
0000
1000
0000
,
0100
0000
0001
0000
0000
0000
1000
0000
0010
0000
0100
0000
,
1000
0000
0001
0000
0000
0000
0001
0000
1000
0000
0010
0000
,
0100
0000
0001
0000
0010
0000
0001
0000
1000
0000
0010
0000
,
1000
0000
0001
0000
0000
0000
0101
0000
0000
0000
1000
0000
,
0010
0000
1000
0000
0000
0000
0001
0000
0000
0000
1000
0000
,
0100
0000
0010
0000
0000
0000
0110
0000
0000
0000
0001
0000
,
0010
0000
1000
0000
0000
0000
0110
0000
0000
0000
1000
0000
,
0010
0000
0001
0000
0000
0000
0110
0000
0000
0000
0001
0000
,
0010
0000
1000
0000
0000
0000
0010
0000
0100
0000
1000
0000
,
0100
0000
0010
0000
0001
0000
0100
0000
0001
0000
1000
0000
,
0010
0000
1000
0000
0001
0000
0100
0000
0000
0000
0000
0000
,
0010
0000
1001
0000
0000
0000
0000
0000
0000
0000
0000
0000
;

//---------------dance-single - ----------------
#NOTES:
     dance-single:
     :
     Challenge:
     15:
     0.591410,1.032450,0.275399,0.390889,0.915035,466.000000,435.000000,31.000000,44.000000,0.000000,0.000000,0.591410,1.032450,0.275399,0.390889,0.915035,466.000000,435.000000,31.000000,44.000000,0.000000,0.000000:
// measure 0
0000
0000
0000
0000
,  // measure 1
0000
0000
0000
0000
,  // measure 2
0000
0000
0000
0000
,  // measure 3
0000
0000
0000
0000
,  // measure 4
0000
0000
0000
2000
0000
3001
1000
0100
0010
0001
0000
0010
,  // measure 5
0000
1000
0001
0200
0000
1000
0000
0301
1000
0020
0000
0001
,  // measure 6
0000
0000
1030
0000
0001
0000
0200
0000
0000
0000
1000
0000
0000
0000
0310
0000
0001
0000
1000
0000
0010
0100
0010
0000
,  // measure 7
1000
0001
0100
0002
0010
0013
2000
0100
3100
0001
0000
0000
,  // measure 8
0020
0000
0200
0000
0000
0000
0330
0000
0000
0000
0000
0000
0000
0000
0000
2002
0000
0000
3003
0000
0000
0000
0000
0000
,  // measure 9
1100
0000
0001
0000
1000
0000
0200
0000
0000
0000
0310
0000
0001
1000
0001
1000
,  // measure 10
0010
0100
0001
2000
0000
3001
0100
0001
,  // measure 11
0000
1000
0010
0100
0002
0000
1003
0000
,  // measure 12
0011
1010
0101
1100
,  // measure 13
0001
1000
0010
0001
1000
0100
0010
0100
,  // measure 14
0001
0000
0010
0000
0100
1000
0001
1000
0001
0000
1000
0000
0100
0000
0010
0000
,  // measure 15
0001
1000
0010
0100
0001
0100
0010
1000
,  // measure 16
0001
0010
0001
0010
0100
1000
0100
1000
0010
0100
0010
0100
0001
0010
0100
1000
,  // measure 17
0002
0000
0000
0000
1003
0000
0001
0000
0100
0010
0100
0000
0001
0000
0010
0000
,  // measure 18
0100
1000
0000
0000
1000
0010
0000
0000
0010
0001
0000
0000
0001
0010
1000
0000
,  // measure 19
2000
0000
0000
0000
3001
0000
1000
0000
0100
0010
0100
0000
1000
0000
0010
0000
,  // measure 20
1000
0100
0000
0000
0100
0010
0000
0000
0010
0001
0000
0000
0001
1000
0001
0000
,  // measure 21
1001
0000
0000
0000
0001
0000
1000
0000
0001
0010
0001
0000
0100
0000
0001
0000
,  // measure 22
0010
0001
0000
0000
0001
0100
0000
0000
0100
1000
0000
0000
1000
0100
0001
0000
,  // measure 23
0002
0000
0000
0000
1003
0000
0001
0000
0010
0100
0010
0000
1000
0000
0010
0000
,  // measure 24
0001
0000
1000
0100
0010
0000
0001
0100
0010
0000
1000
0100
0010
0000
0001
0000
,  // measure 25
2000
0000
0000
3020
0000
0130
0000
0100
,  // measure 26
0000
0000
0001
0000
0010
0000
0001
0000
1000
0000
1000
0010
0100
0000
0001
0000
,  // measure 27
0020
0000
0130
1000
0000
1000
0000
0001
,  // measure 28
1000
0000
2020
3030
2020
3030
0001
0000
1000
0000
0000
0000
0001
0000
0000
0000
,  // measure 29
1001
0000
0000
0000
0001
0000
0011
0000
0010
0000
0100
0000
,  // measure 30
1100
0000
0000
0000
1000
0000
1010
0000
0010
0000
0100
0000
,  // measure 31
0101
0000
0000
0000
0001
0000
0101
0000
0100
0000
0010
0000
,  // measure 32
2001
0000
0000
3002
0000
0000
0023
0000
0230
0000
1300
0001
,  // measure 33
2000
0000
0100
0000
3200
0000
0320
0000
0032
0000
2003
0000
,  // measure 34
3020
0000
0001
0000
0032
0000
0023
0000
2030
0000
3200
0000
,  // measure 35
0320
0000
1000
0000
0032
0000
2003
0000
3020
0000
0130
0000
,  // measure 36
1100
0000
0100
0010
0100
0000
0001
0100
0010
0100
0101
0000
,  // measure 37
0001
1000
0001
0000
0100
0001
0100
0010
1010
0000
0010
1000
,  // measure 38
0001
0000
0100
0001
1000
0100
0110
0000
0001
1000
0001
0000
,  // measure 39
0001
0000
0000
0000
0000
0000
0000
0000
0000
0000
0000
0010
0000
0000
0000
0000
0000
0000
0000
0000
0000
0000
0100
0000
0000
0000
0000
0000
0000
0000
0000
0000
0010
0000
0000
0000
0000
0000
0000
0000
0000
0000
0000
0001
0000
0000
0000
0000
0000
0000
0000
0000
0000
0000
0100
0000
0000
0000
0000
0000
0000
0000
0000
0000
0010
0000
0000
0000
0000
0000
0000
0000
0000
0000
0000
1000
0000
0000
0000
0000
0000
0000
0000
0000
0000
0000
0001
0000
0000
0000
0000
0000
0000
0000
0000
0000
2000
0000
0000
0000
0000
0000
0000
0000
0000
0000
0000
0000
0000
0000
0000
0000
0000
0000
0000
0000
0000
0000
0000
0000
0000
0000
0000
0000
0000
0000
0000
0000
0000
0000
0000
0000
0000
0000
0000
0000
0000
0000
0000
0000
0000
0000
0000
0000
3000
0000
0000
0000
0000
0000
0000
0000
0000
0000
0000
0000
0000
0000
0000
0000
0000
0000
0000
0000
0000
0000
0000
0000
0000
0000
0000
0000
0000
0000
0000
0000
0000
0000
0000
0000
0000
0000
0000
0000
0000
0000
0000
0000
0000
0000
0000
0000
,  // measure 40
1001
0000
1000
0000
0100
0000
0110
0000
0010
0001
0100
0010
,  // measure 41
1010
1000
0001
1000
0100
1000
1001
0000
0001
1000
0100
0010
,  // measure 42
1001
0000
0000
0000
1010
0000
0000
0000
0101
0000
0000
0000
0001
0000
1000
0000
0100
0000
0010
0000
0001
1000
0001
0000
,  // measure 43
0100
0001
0100
0001
1000
0100
1000
0100
0010
0001
0010
0001
2000
0000
0000
0000
0000
0000
0000
0000
0000
3000
0000
0000
,  // measure 44
0001
0010
0001
0010
0100
1000
0100
0010
0001
0100
0010
1000
0001
0100
0001
0100
0010
1000
0010
0100
0001
1000
0100
0010
,  // measure 45
0001
0000
0000
1001
0000
0000
1010
0000
0000
0000
0001
0000
,  // measure 46
1000
0100
0001
0000
0100
0000
0010
0000
0000
0000
0001
0000
,  // measure 47
0010
0000
0100
0000
1000
0000
0001
0000
0000
0000
0010
0000
,  // measure 48
0001
0100
1000
0000
0100
0000
0010
0000
0000
0000
0010
0000
,  // measure 49
1000
0100
0001
0000
0100
0000
0010
0000
0000
0000
0010
0000
,  // measure 50
0001
0010
1000
0000
0010
0000
0001
0000
0100
0000
0100
0000
,  // measure 51
0010
0000
1000
0000
0001
0000
0010
0000
0100
1000
0100
0000
,  // measure 52
0010
0000
0100
0010
0100
0000
0010
0000
0001
0000
0001
0000
,  // measure 53
0100
0000
1000
0000
0100
0000
0001
0000
0000
0000
1000
0000
,  // measure 54
0010
0100
1000
0000
0100
0000
0001
0000
0000
0000
0011
0000
,  // measure 55
0000
0000
0001
0000
1000
0000
0100
0000
0000
0000
0001
0000
,  // measure 56
0100
0010
0001
0000
0100
0000
0010
0000
0000
0000
1000
0000
,  // measure 57
0010
0100
1000
0000
0001
0000
0010
0000
0110
0000
0000
0000
,  // measure 58
1000
0000
0100
0000
0010
0000
0001
0000
1000
0010
0001
0000
,  // measure 59
0010
0000
0010
0000
1000
0000
0100
0000
0010
0000
0001
0000
,  // measure 60
0100
0000
0001
0000
0010
0000
0002
0000
0000
0000
0000
0000
,  // measure 61
1003
0000
0001
0000
0000
0000
0000
0000
0000
0000
0000
0000
;
