#VERSION:0.83;
#TITLE:Black Out;
#SUBTITLE:;
#ARTIST:OBSYDIA;
#TITLETRANSLIT:;
#SUBTITLETRANSLIT:;
#ARTISTTRANSLIT:;
#GENRE:;
#ORIGIN:;
#CREDIT:MEGAtive;
#BANNER:Black Out.png;
#BACKGROUND:Black Out-bg.png;
#PREVIEWVID:;
#JACKET:Black Out-jacket.png;
#CDIMAGE:;
#DISCIMAGE:;
#LYRICSPATH:;
#CDTITLE:cdtitle.png;
#MUSIC:Black Out.ogg;
#OFFSET:-0.001000;
#SAMPLESTART:90.801003;
#SAMPLELENGTH:11.200000;
#SELECTABLE:YES;
#BPMS:0.000=150.000;
#STOPS:;
#DELAYS:;
#WARPS:;
#TIMESIGNATURES:0.000=4=4;
#TICKCOUNTS:0.000=4;
#COMBOS:0.000=1;
#SPEEDS:0.000=1.000=0.000=0;
#SCROLLS:0.000=1.000;
#FAKES:;
#LABELS:0.000=Song Start;
#BGCHANGES:0.000=Black Out.avi=1.000=0=0=0=StretchNoLoop====,
99999=-nosongbg-=1.000=0=0=0 // don't automatically add -songbackground-
;
#KEYSOUNDS:;
#ATTACKS:
;

//---------------dance-single - MEGAtive----------------
#NOTEDATA:;
#CHARTNAME:;
#STEPSTYPE:dance-single;
#DESCRIPTION:MEGAtive;
#CHARTSTYLE:;
#DIFFICULTY:Beginner;
#METER:2;
#RADARVALUES:0.092288,0.177876,0.115044,0.088496,0.000000,73.000000,60.000000,13.000000,10.000000,0.000000,0.000000,0.000000,0.000000,0.000000,0.092288,0.177876,0.115044,0.088496,0.000000,73.000000,60.000000,13.000000,10.000000,0.000000,0.000000,0.000000,0.000000,0.000000;
#CREDIT:;
#NOTES:
0000
0000
0000
0000
,
0000
0000
0000
0000
,
0000
0000
0000
0000
,
0000
0000
0000
0000
,
0000
0000
0000
0000
,
0000
0000
0000
0000
,
0000
0000
0000
0000
,
0000
0000
0000
0000
,
1000
0000
0000
0000
,
0000
0000
0000
0000
,
0001
0000
0000
0000
,
0100
0000
0000
0000
,
0010
0000
0000
0000
,
0000
0000
0000
0000
,
1000
0000
0000
0000
,
0100
0000
0000
0000
,
1000
0000
0000
1000
,
0000
0000
0000
0000
,
0010
0000
0000
0010
,
0000
0000
0000
0000
,
0100
0000
0100
0000
,
0100
0000
0000
0000
,
0001
0000
0001
0000
,
0002
0000
0000
0000
,
1003
0000
0000
0000
,
0100
0000
0000
0000
,
0010
0000
0000
0000
,
0001
0000
0000
0000
,
1001
0000
0000
0000
,
1000
0000
0000
0000
,
0110
0000
0000
0000
,
0010
0000
0000
0000
,
2001
0000
0000
0000
,
3000
0000
0000
0000
,
0002
0000
0000
0000
,
0003
0000
0000
0000
,
0200
0000
0000
0000
,
0300
0000
0000
0000
,
0020
0000
0000
0000
,
0030
0000
0000
0000
,
1001
0000
0000
0000
,
1000
0000
1000
0000
,
1000
0000
0000
0000
,
0100
0000
0000
0200
,
0000
0000
0300
0000
,
0010
0000
0010
0000
,
0010
0000
0000
0000
,
0001
0000
0000
0002
,
0000
0000
0003
0000
,
0100
0000
0100
0000
,
0100
0000
0000
0000
,
0010
0000
0010
0000
,
0010
0000
0000
0000
,
2000
0000
0000
0000
,
3200
0000
0000
0000
,
0320
0000
0000
0000
,
0031
0000
0000
0000
,
1001
0000
0000
0000
,
1000
0000
0000
0000
,
0110
0000
0000
0000
,
0010
0000
0000
0000
,
1001
0000
0000
0000
,
1001
0000
0000
0000
,
0110
0000
0000
0000
,
0110
0000
0000
0000
,
1001
0000
0000
0000
,
1001
0000
0000
0000
,
1001
0000
0000
0000
;

//---------------dance-single - MEGAtive----------------
#NOTEDATA:;
#CHARTNAME:;
#STEPSTYPE:dance-single;
#DESCRIPTION:MEGAtive;
#CHARTSTYLE:;
#DIFFICULTY:Easy;
#METER:5;
#RADARVALUES:0.189633,0.297566,0.070796,0.150442,0.000000,150.000000,142.000000,8.000000,17.000000,0.000000,0.000000,0.000000,0.000000,0.000000,0.189633,0.297566,0.070796,0.150442,0.000000,150.000000,142.000000,8.000000,17.000000,0.000000,0.000000,0.000000,0.000000,0.000000;
#CREDIT:;
#NOTES:
0000
0000
0000
0000
,
0000
0000
0000
0000
,
0000
0000
0000
0000
,
0000
0000
0000
0000
,
0000
0000
0000
0000
,
0000
0000
0000
0000
,
0000
0000
0000
0000
,
0000
0000
0000
0000
,
1000
0000
0000
0000
,
0020
0000
0000
0000
,
0130
0000
0000
0000
,
0002
0000
0000
0000
,
0013
0000
0000
0000
,
0200
0000
0000
0000
,
1300
0000
0000
0000
,
0001
0000
0100
0000
,
0001
0000
0000
1000
0000
0000
0100
0000
,
0000
0000
0010
0100
,
1000
0000
0000
0001
0000
0000
0100
0000
,
0000
0000
0010
1000
,
0001
0010
0001
0010
,
1000
0010
0001
0000
,
1000
0010
1000
0010
,
0200
0000
0000
0300
,
0110
0000
0000
0010
0100
0000
0001
0000
,
0000
1000
0001
0000
0010
0000
0001
0000
,
1000
0000
0000
0100
0010
0000
0100
0000
,
0000
1000
0001
0000
0100
0000
0001
0000
,
1000
0000
0000
0010
0100
0000
0001
0000
,
0000
1000
0001
0000
0010
0000
0001
0000
,
1000
0000
0000
0100
0010
0000
0100
0000
,
0000
1000
0001
0000
0100
0000
0001
0000
,
2000
0000
0000
0000
,
0000
0000
0000
0000
,
3200
0000
0000
0000
,
0000
0000
0000
0000
,
0320
0000
0000
0000
,
0000
0000
0000
0000
,
0032
0000
0000
0000
,
0000
0000
0003
0000
,
1000
1000
1000
1000
,
0001
0100
0001
0100
,
1000
0100
0001
1000
,
0100
0000
0000
0010
0000
0000
0200
0000
,
0000
0000
0000
0000
,
1300
0100
1000
0100
,
0001
0100
1000
0001
,
0100
0000
0000
0010
0000
0000
0200
0000
,
0000
0000
0300
0000
,
0001
0010
1000
0010
,
0001
1000
0001
0000
,
1000
0010
0001
0010
,
1000
0001
1000
0000
,
0100
0010
0100
1000
,
0010
0100
0001
0000
,
0100
0010
1000
0100
,
0020
0000
0000
0030
,
1001
0000
0001
1000
,
0010
0000
0100
0000
,
0110
0000
0010
0100
,
0001
0000
1000
0000
,
1001
0000
0001
0010
,
0100
0000
0010
0000
,
0110
0000
0100
1000
,
0010
0000
1000
0000
,
2002
3003
0000
0000
,
0220
0330
0000
0000
,
2002
3003
0000
0000
;

//---------------dance-single - MEGAtive----------------
#NOTEDATA:;
#CHARTNAME:;
#STEPSTYPE:dance-single;
#DESCRIPTION:MEGAtive;
#CHARTSTYLE:;
#DIFFICULTY:Medium;
#METER:9;
#RADARVALUES:0.326169,0.416593,0.115044,0.292035,0.017699,258.000000,245.000000,13.000000,33.000000,0.000000,0.000000,0.000000,0.000000,0.000000,0.326169,0.416593,0.115044,0.292035,0.017699,258.000000,245.000000,13.000000,33.000000,0.000000,0.000000,0.000000,0.000000,0.000000;
#CREDIT:;
#NOTES:
0000
0000
0000
0000
,
0000
0000
0000
0000
,
0000
0000
0000
0000
,
0000
0000
0000
0000
,
0000
0000
0000
0000
,
0000
0000
0000
0000
,
0000
0000
0000
0000
,
0000
0000
0000
0000
,
1000
0000
0100
0010
0000
0001
0010
0000
,
0200
0000
1000
0000
,
1300
0000
0010
0100
0000
0001
0100
0000
,
0020
0000
1030
0001
,
0010
0000
0100
1000
0000
0100
0010
0000
,
0002
0000
1000
0000
,
0103
0000
0010
1000
0000
0001
1000
0000
,
0100
0000
0000
0100
0000
0000
0010
0000
0100
0000
0000
0000
1000
0000
0000
0000
,
1001
0000
0001
0100
0000
1000
0100
0000
,
0010
0000
1000
0000
0100
0010
0100
0000
,
1000
0000
0001
0010
0000
1000
0010
0000
,
0100
1000
0001
0000
0100
0010
1000
0000
,
0001
0000
0001
0010
0001
0000
1000
0010
,
0100
0010
0100
0001
1000
0000
0100
0000
,
1000
0100
0010
0000
0001
0100
0010
0000
,
2000
3000
0000
2000
3000
0000
0001
0000
,
0001
0010
0000
0100
0010
0000
1000
0010
,
0000
0100
0010
0000
0001
0000
0001
0000
,
0100
1000
0000
0100
0010
0000
0100
0001
,
0000
0100
0010
0000
1000
0000
1000
0000
,
0001
0010
0000
0100
0010
0000
1000
0010
,
0000
0100
0010
0000
0001
0000
0001
0000
,
1000
0010
0000
0100
0010
0000
0001
0010
,
0000
0100
0010
0000
1000
0000
1000
0000
,
2100
0000
0000
0000
,
0010
0000
0000
0000
,
3002
0000
0000
0000
,
0010
0000
0000
0000
,
2003
0000
0000
3100
,
0010
0001
1000
0010
,
0200
0000
0000
0000
0320
0000
0000
2030
,
0000
0000
3000
0000
,
0001
1000
0000
0000
0001
1000
0000
0000
0001
1000
0000
0000
1001
0000
0000
0000
,
0001
0000
0010
0000
0100
0000
0010
0001
,
1000
0000
0010
0000
0100
0000
0010
1000
,
0002
0000
0013
2000
0000
3010
0002
0000
,
0000
0000
0000
0000
1003
0010
1000
0010
,
1000
0000
0010
0000
0100
0000
0010
1000
,
0001
0000
0010
0000
0100
0000
0010
0001
,
2000
0000
3010
0002
0000
0013
2000
0000
,
0000
0000
0000
0000
3001
0010
0000
0010
,
0001
0100
0001
0100
,
0010
1000
0010
1000
,
0001
0010
1000
0010
,
0001
0100
1000
0100
,
0001
0010
0001
0000
1000
0010
1000
0000
,
0001
0100
0001
0000
1000
0100
1000
0000
,
0001
0010
0100
0000
1000
0010
0100
0000
,
0002
0003
0000
0002
0003
0000
1000
0000
,
2200
3300
0000
1000
0020
0000
0100
0000
,
0001
0100
1030
0001
,
0202
0303
0000
0001
0020
0000
0100
0000
,
1000
0100
0031
1000
,
1200
1000
0010
0001
,
0010
1000
0310
0001
,
0201
0001
0010
1000
,
0010
0301
1000
1100
,
2200
3300
0000
0101
,
0202
0303
0000
1001
,
2002
3003
0000
0000
;

//---------------dance-single - MEGAtive----------------
#NOTEDATA:;
#CHARTNAME:;
#STEPSTYPE:dance-single;
#DESCRIPTION:MEGAtive;
#CHARTSTYLE:;
#DIFFICULTY:Hard;
#METER:13;
#RADARVALUES:0.453856,0.624889,0.185841,0.752212,0.097345,359.000000,338.000000,21.000000,85.000000,2.000000,1.000000,0.000000,0.000000,0.000000,0.453856,0.624889,0.185841,0.752212,0.097345,359.000000,338.000000,21.000000,85.000000,2.000000,1.000000,0.000000,0.000000,0.000000;
#CREDIT:;
#NOTES:
// measure 0
0000
0000
0000
0000
,  // measure 1
0000
0000
0000
0000
,  // measure 2
0000
0000
0000
0000
,  // measure 3
0000
0000
0000
0000
,  // measure 4
0000
0000
0000
0000
,  // measure 5
0000
0000
0000
0000
,  // measure 6
0000
0000
0000
0000
,  // measure 7
0000
0000
0000
0000
,  // measure 8
1000
0000
0010
0100
0000
1000
0100
0000
,  // measure 9
0002
0000
1000
1000
,  // measure 10
1003
0000
0100
0010
0000
1000
0010
0000
,  // measure 11
0001
0000
0100
0010
0100
0000
1000
0000
,  // measure 12
0100
0000
0001
0010
0000
1000
0010
0000
,  // measure 13
0002
0000
0000
0000
,  // measure 14
1003
0000
0010
0100
0000
0010
0001
0000
,  // measure 15
0010
0000
0000
0100
0000
0000
0001
0000
1000
0000
0000
0000
1001
0000
0000
0000
,  // measure 16
1000
0000
0100
0000
0001
0000
0100
0000
1000
0000
0010
0000
0100
0000
0001
1000
,  // measure 17
0001
0000
0010
0000
0100
0000
0010
0000
0001
0000
0001
0000
0100
0010
0100
0000
,  // measure 18
0001
0000
0010
0000
1000
0000
0010
0000
0001
0010
0001
0000
01M0
0000
0100
0000
,  // measure 19
1000
0010
M100
0100
1000
0001
0100
0010
,  // measure 20
1000
0100
0001
0100
0010
0001
0100
1000
,  // measure 21
0100
0010
1000
0001
0010
0100
1000
0001
,  // measure 22
1000
0010
1000
0000
0001
0010
0001
0000
1000
0100
1000
0000
0001
0100
0001
0000
,  // measure 23
0200
0000
1300
0002
0013
0100
0001
0000
,  // measure 24
2000
0010
3001
0010
0100
0010
0001
1000
,  // measure 25
0020
0100
1030
0001
0010
0000
0110
0000
,  // measure 26
0200
1000
0310
0001
0100
0010
1000
0001
,  // measure 27
0020
0100
1030
0020
0100
0031
1000
0010
,  // measure 28
0200
0010
0301
1000
0100
0010
0200
1000
,  // measure 29
0320
0001
0230
1000
0320
0001
0130
1000
,  // measure 30
0002
0100
1003
0010
0100
0001
1000
0100
,  // measure 31
2000
0010
3002
0100
2003
0010
3002
0000
,  // measure 32
0023
0000
0000
0000
,  // measure 33
0100
0100
0100
0100
,  // measure 34
0230
1000
1000
1000
,  // measure 35
1000
0000
1000
1000
0000
1000
0000
1000
,  // measure 36
2300
0000
0000
0000
0000
0000
3010
0100
,  // measure 37
0010
1000
0001
0010
0002
0000
1003
0100
,  // measure 38
0020
0000
0000
0230
0000
0000
2300
0000
3002
0000
0000
0000
0103
0000
0020
0000
,  // measure 39
0000
0000
0030
0000
,  // measure 40
0100
0010
0000
0000
1000
0001
0000
0000
0010
0100
0000
0000
1001
0000
0000
0000
,  // measure 41
2000
0000
3200
0000
0302
0000
1003
0010
,  // measure 42
0200
0000
2300
0000
3020
0000
0031
0010
,  // measure 43
2000
0000
3100
0002
0000
0013
2000
0000
,  // measure 44
0000
0010
3010
0000
1010
0010
0100
0001
,  // measure 45
2000
0000
3020
0000
0032
0000
1003
0100
,  // measure 46
0020
0000
2030
0000
3200
0000
0301
0100
,  // measure 47
2000
0000
3010
0002
0000
0103
2000
0000
,  // measure 48
0000
0100
3100
0000
1100
0100
0000
1000
,  // measure 49
2001
0010
0001
0010
,  // measure 50
3002
0010
1000
0010
,  // measure 51
2003
0100
3002
0100
,  // measure 52
2003
3200
0320
0032
,  // measure 53
1003
0010
0100
0010
1000
0010
0100
0010
,  // measure 54
1000
0001
0010
0001
1000
0001
0010
0001
,  // measure 55
1000
0100
1000
0000
0001
0100
0001
0000
1000
0010
1000
0000
0001
0010
0001
0000
,  // measure 56
2000
3000
0010
0002
0003
1000
0200
0300
,  // measure 57
0022
0033
0000
0100
2020
3030
0200
0300
,  // measure 58
0022
0033
1000
0100
0001
1000
0010
0000
,  // measure 59
0202
0303
0000
0010
2200
3300
0020
0030
,  // measure 60
0001
0100
0000
0000
0010
0100
0000
0000
1000
0100
0000
0000
0020
0000
0030
0000
,  // measure 61
1200
0000
0000
0310
0102
0000
0023
0000
,  // measure 62
2130
0000
3100
0001
1000
0010
0200
0300
,  // measure 63
2020
3000
0000
0130
0021
0000
0230
0000
,  // measure 64
1300
0001
0000
0000
0100
0010
0000
0000
1000
0001
0000
0000
0010
0000
0000
0000
,  // measure 65
0202
0000
0000
0303
0000
0000
0000
0000
0000
0000
0000
0000
1001
0000
0000
0000
,  // measure 66
2020
3030
0000
1001
,  // measure 67
0022
0033
0000
0000
;
