#TITLE:Black Or White;
#SUBTITLE:;
#ARTIST:Dreamcatcher;
#TITLETRANSLIT:;
#SUBTITLETRANSLIT:;
#ARTISTTRANSLIT:;
#GENRE:;
#CREDIT:;
#BANNER:;
#BACKGROUND:;
#LYRICSPATH:;
#CDTITLE:;
#MUSIC:Black Or White.ogg;
#OFFSET:0.724500;
#SAMPLESTART:49.049999;
#SAMPLELENGTH:12.000000;
#SELECTABLE:YES;
#BPMS:0.000000=100.039001
,34.000000=99.537003
,36.000000=100.037003
,52.000000=99.696999
,60.000000=100.027000
,76.000000=98.199997
,78.000000=101.000000
,80.000000=101.248001
,83.000000=100.027000
,116.000000=99.836998
,147.000000=102.360001
,148.000000=100.099998
,175.500000=99.879997
,180.000000=100.000000
;
#STOPS:
;
#BGCHANGES:;
#KEYSOUNDS:;
#ATTACKS:;

//---------------dance-single - ----------------
#NOTES:
     dance-single:
     :
     Hard:
     13:
     0.474484,0.642018,0.387108,0.371623,0.367752,429.000000,379.000000,50.000000,48.000000,0.000000,0.000000,0.474484,0.642018,0.387108,0.371623,0.367752,429.000000,379.000000,50.000000,48.000000,0.000000,0.000000:
0000
0000
0000
0000
,
0000
0000
0000
0000
,
0000
0000
0000
0000
,
0000
0000
0000
0000
,
0000
0000
0000
0000
0000
0000
0001
0100
,
0020
0000
0000
0000
1030
0000
0100
0000
0020
0000
0000
0000
0031
0000
0000
1000
,
0001
0100
0001
0100
0010
0000
1000
0000
0002
0000
0000
0000
0013
0000
0000
0001
,
1000
0100
1000
0100
0010
0000
0001
0000
1000
0000
0000
0000
0020
0000
0000
0000
,
0230
0000
0302
0000
0023
0000
0130
1000
,
0010
1000
0000
0010
1000
0000
0001
0000
1000
0100
0010
0000
0011
0000
0000
0000
,
0010
0001
0000
0010
0001
0000
1000
0000
0001
0100
0010
0000
1010
0000
1000
0000
,
0001
0000
0000
0000
0101
0000
0000
0000
1100
0000
1000
0001
0000
0000
0100
0000
,
0001
0000
0001
0000
0010
0000
0010
0000
0100
0000
1000
0001
0000
0000
1000
0000
,
0010
0000
0100
0001
0020
0000
2030
0000
,
3010
0001
0100
0010
2000
0000
3100
0010
,
0001
0100
1000
0100
0001
0000
0020
0000
,
0130
2000
3001
0000
,
0100
0000
0010
1000
0200
0000
0302
0000
,
0103
1000
0010
0001
0020
0000
1030
0000
,
0001
0000
0010
0100
0000
0000
1000
0000
0001
0000
0000
0000
0020
0000
0000
0031
,
2000
0000
0000
0000
3000
0000
0010
0010
,
0101
0000
0010
0010
1100
0000
0010
0010
,
0101
1000
1000
0001
0100
0110
0101
1100
,
0110
0000
0010
0002
0000
0000
0103
0000
0000
0101
0000
0000
0110
0000
0010
2000
0000
0000
3100
0000
0000
1100
0000
0000
,
0110
0000
0010
0002
0000
0000
0103
0000
0000
0110
0000
0000
0001
0000
0100
0010
0000
1000
0001
0000
0000
0000
0000
0000
,
0001
0000
1000
0100
0010
0100
1000
0000
0010
0000
0100
0001
1000
0001
0100
0000
,
0010
0000
1000
0100
0010
0001
0100
0010
1000
0000
1010
0000
0101
0000
1100
0000
,
0110
0000
0010
0002
0000
0000
0103
0000
0000
0101
0000
0000
0110
0000
0010
2000
0000
0000
3100
0000
0000
1100
0000
0000
,
0110
0000
0010
0002
0000
0000
1003
0000
0000
1001
0000
0000
1000
0000
0010
0100
0000
0001
1000
0000
0000
0000
0000
0000
,
0001
0000
0000
1000
0000
0000
0100
0000
0010
0000
0000
0001
0000
0000
0010
0000
,
0001
0000
0000
0100
0000
0000
0010
0000
2000
0000
0000
0000
3000
0000
0001
0000
,
0200
0000
0300
1000
0200
0000
0300
0001
,
0020
0000
0000
0230
0000
0000
0000
0000
0000
0000
0000
0000
0300
0000
1000
0000
,
0002
0000
0000
0103
0000
0000
0010
0000
2000
0000
0000
3100
0000
0000
1000
0000
,
0020
0000
0000
0130
0000
0000
0001
0000
2000
0000
0000
0000
3000
0000
0001
0000
,
0020
0000
0030
1000
0020
0000
0030
0001
,
0200
0000
0000
0310
2000
0000
0000
0000
0000
0000
3000
0000
0200
0000
0000
0000
,
0310
0000
0000
0000
0000
0000
0001
0000
0000
1000
0000
0000
0000
0000
0000
0000
0001
0000
1000
0000
0000
0000
0000
0000
0010
0000
0000
0000
0100
0000
0010
0000
0000
0000
0010
0000
0100
0000
0000
0000
0100
0000
0001
0000
0000
0000
0000
0000
,
0010
0000
0000
0000
0000
0000
0100
0000
0000
1000
0000
0000
0000
0000
0000
0000
0100
0000
1000
0000
0000
0000
0000
0000
0001
0000
0000
0000
0100
0000
0001
0000
0000
0000
0001
0000
0100
0000
0000
0000
0100
0000
0010
0000
0000
0000
0000
0000
,
0010
0000
0000
0000
0000
0000
1000
0000
0000
0001
0000
0000
0000
0000
0000
0000
1000
0000
0100
0000
0000
0000
0000
0000
0010
0000
0000
0000
0001
0000
0010
0000
0000
0000
0010
0000
0001
0000
0000
0000
0001
0000
1000
0000
0000
0000
0000
0000
,
0010
0000
0000
0000
0000
0000
1000
0000
0000
0010
0000
0000
0000
0000
0000
0000
0100
0000
0010
0000
0000
0000
0000
0000
0100
0000
0000
0000
0001
0000
1000
0000
0000
0000
1000
0000
0200
0000
0000
0000
0000
0000
0000
0000
0000
0000
0000
0000
,
0310
0000
0000
0000
0000
0000
0001
0000
0000
1000
0000
0000
0000
0000
0000
0000
0001
0000
0100
0000
0000
0000
0000
0000
0010
0000
0000
0000
1000
0000
0100
0000
0000
0000
0100
0000
1000
0000
0000
0000
1000
0000
0001
0000
0000
0000
0000
0000
,
0010
0000
0000
0000
0000
0000
0100
0000
0000
1000
0000
0000
0000
0000
0000
0000
0001
0000
1000
0000
0000
0000
0000
0000
0010
0000
0000
0000
0100
0000
0010
0000
0000
0000
0010
0000
0100
0000
0000
0000
0100
0000
0001
0000
0000
0000
0000
0000
,
1000
0000
0100
0000
0001
0000
0100
0000
1000
0000
0000
0010
0000
0000
2002
0000
,
0000
0000
0000
0000
3003
0000
0010
0010
,
0101
0000
0000
0000
0000
0000
0011
0000
0000
0010
0000
0000
1100
0000
0000
0000
0000
0001
1000
0000
0000
0010
0000
0000
,
0120
0001
0100
1000
0130
0110
0101
1010
,
0110
0000
0001
2000
0000
0000
3100
0000
0000
1100
0000
0000
0110
0000
0001
2000
0000
0000
3010
0000
0000
0110
0000
0000
,
0101
0000
1000
0200
0000
0000
0310
0000
0000
0110
0000
0000
0001
0000
1000
0100
0000
1000
0010
0000
0000
0010
0000
0000
,
0101
0000
0001
1000
0010
1000
0001
0000
1100
0000
1000
0100
0010
0100
1000
0000
,
0110
0000
0010
0001
0100
0010
1000
0100
0010
0000
0110
0000
1001
0000
0110
0000
,
1001
0000
0001
0200
0000
0000
0310
0000
0000
0110
0000
0000
1010
0000
1000
0200
0000
0000
0310
0000
0000
0110
0000
0000
,
0011
0000
0000
0000
0000
0000
0000
0000
0000
0000
0000
0000
0000
0000
0000
0000
0001
0000
0000
0000
0000
0000
0000
0000
0200
0000
0000
0000
0000
0000
0000
0000
0000
0000
0000
0000
0000
0000
0000
0000
0000
0000
0000
0000
0000
0000
0000
0000
0310
0000
0000
0000
0000
0000
0000
0000
0000
0000
0000
0000
0000
0000
0000
0000
1000
0000
0000
0000
0000
0000
0000
0000
0000
0000
0000
0000
0000
0000
0000
0000
0000
0000
0000
0000
0000
0000
0001
0000
0000
0000
0000
0000
0000
0000
0000
0000
0000
0000
0000
0000
0000
0000
0000
0000
0000
0000
0000
0000
0000
0000
0010
0000
0000
0000
0000
0000
0000
0000
0000
0000
0000
0000
0000
0000
0000
0000
0000
0000
0000
0000
0000
0000
0000
0000
0100
0000
0000
0000
0000
0000
0000
0000
0000
0000
0000
0000
0000
0000
0000
0000
0000
0000
0000
0000
0000
0000
0000
0000
0000
1000
0000
0000
0000
0000
0000
0000
0000
0000
0000
0000
0000
0000
0000
0000
0000
0000
0000
0000
0000
0000
0000
0000
0000
0000
0000
0000
0001
0000
0000
0000
0000
0000
,
0000
0000
0000
0000
0000
0000
0000
0000
0000
0000
0000
0000
0000
0000
0000
0000
0000
0000
0000
0000
0000
0100
0000
0000
0000
0000
0000
0000
0000
0002
0000
0000
0000
0000
0000
0000
0000
0000
0000
0000
0000
0000
0000
0000
0000
0000
0000
0000
0000
0000
0000
0000
0000
0000
0000
0000
0000
0000
0000
0000
0000
0000
0000
0000
0000
0000
0000
0000
0000
0000
0000
0000
0000
0000
0000
0000
0000
0000
0000
0000
0000
0000
0000
0000
0000
0000
0000
0000
0000
0000
0000
0000
0000
0000
0000
0000
0003
0000
0000
0000
0000
0000
0000
0000
0000
0000
0000
0000
0000
0000
0000
0000
0000
0000
0000
0000
0000
0000
0000
0000
0000
0000
0000
0000
0000
0000
0000
0000
0000
0000
0000
0000
0000
0000
0000
0000
0000
0000
0000
0000
0000
0000
0000
0000
0000
0000
0000
0000
0000
0000
0000
0000
0000
0000
0000
0000
0000
0000
0000
0000
0000
0000
0000
0000
0000
0000
0000
0000
0000
0000
0000
0000
0000
0000
0000
0000
0000
0000
0000
0000
0000
0000
0000
0000
0000
0000
0000
0000
0000
0000
0000
0000
;

//---------------dance-single - ----------------
#NOTES:
     dance-single:
     :
     Medium:
     9:
     0.300838,0.368430,0.131617,0.286460,0.050324,272.000000,255.000000,17.000000,37.000000,0.000000,0.000000,0.300838,0.368430,0.131617,0.286460,0.050324,272.000000,255.000000,17.000000,37.000000,0.000000,0.000000:
0000
0000
0000
0000
,
0000
0000
0000
0000
,
0000
0000
0000
0000
,
0000
0000
0000
0000
,
0000
0000
0000
0000
0000
0000
1000
0100
,
0020
0000
0031
0100
0020
0000
1030
0000
,
0001
0010
0001
1000
0100
0000
0100
0000
,
1000
0010
1000
0001
0100
0000
0200
0000
,
0320
0000
2030
0000
3002
0000
1003
0100
,
0020
0000
0031
0100
0020
0000
1030
0000
,
1000
0010
1000
0001
0100
0000
0001
0010
,
0100
0000
0100
0000
1000
0100
0001
0000
,
0001
0100
1000
0001
0100
0001
1000
0000
,
2000
0000
0000
0000
3001
0100
0001
0000
0000
0000
0000
0000
1000
0100
1000
0000
,
0000
0000
0000
0000
0001
0100
0001
0000
0000
0000
0000
0000
0000
0000
0000
0000
,
0200
0000
0302
0000
,
2003
0000
0000
0000
3001
0010
0100
1000
,
0001
0000
0001
0000
0010
0100
0010
0000
1000
0000
1000
0000
0010
0100
0010
0000
,
0002
0203
0320
2030
,
3200
0000
0320
0000
,
0032
0000
0000
0000
0003
0000
1000
1000
,
0010
0000
1001
0001
0100
0000
1001
1000
,
0100
1000
0001
0100
0010
0100
0100
0100
,
0020
0000
1030
0100
0020
0000
0031
0100
,
0020
0000
1030
0000
0001
1000
0100
0000
,
1000
0000
1100
0010
0001
0000
0101
0010
,
1000
0100
0001
0100
1000
0010
0010
0010
,
0100
0000
0101
1000
0100
0000
1100
0001
,
0010
0000
0011
0000
1000
0010
0100
0000
,
0002
0000
2003
0000
,
3001
0000
0000
0010
0000
0000
0100
0000
1000
0000
0000
0000
0000
0000
0001
0000
,
0002
0000
0003
1000
2000
0000
3000
0010
,
0020
0000
0000
0030
,
2000
0000
3200
0000
,
0310
0000
0000
0100
0000
0000
1000
0000
0001
0000
0000
0000
0000
0000
0001
0000
,
0200
0000
0300
0100
0020
0000
0030
0010
,
2000
0002
3000
0023
,
0031
0000
0000
0010
0000
0000
0001
0000
1000
0000
0010
0000
1000
0000
0000
0000
,
1000
0000
0000
0010
0000
0000
1000
0000
0001
0000
0010
0000
0001
0000
0000
0000
,
0001
0000
0010
0000
0100
0000
0010
0000
0001
0000
0000
1000
0000
0000
0001
0000
,
0200
0000
0000
0310
,
1000
0000
0000
0001
0000
0000
1000
0000
0100
0000
0010
0000
0001
0000
1000
0000
,
0001
0000
0000
0100
0000
0000
0010
0000
1000
0000
0001
0000
0100
0000
0001
0000
,
1000
0000
0100
0000
0010
0000
0001
0000
0100
0000
0000
0010
0000
0000
2000
0000
,
0000
0000
0000
0000
3000
0000
0010
0010
,
1001
0000
1100
0000
0101
0000
1000
1000
,
0001
0100
1000
0100
0001
0010
0010
0010
,
0100
0000
1001
0100
0010
0000
0110
1000
,
0001
0000
1001
0000
0001
0010
1000
0000
,
0010
0000
1001
0001
0100
0000
1001
1000
,
0100
0001
0100
1000
0010
0100
0100
0100
,
0010
0000
1010
0001
0100
0000
0101
1000
,
0100
0000
1000
0100
0010
0001
2000
3001
;

//---------------dance-single - ----------------
#NOTES:
     dance-single:
     :
     Easy:
     6:
     0.205720,0.307751,0.216780,0.216780,0.000000,186.000000,158.000000,28.000000,28.000000,0.000000,0.000000,0.205720,0.307751,0.216780,0.216780,0.000000,186.000000,158.000000,28.000000,28.000000,0.000000,0.000000:
0000
0000
0000
0000
,
0000
0000
0000
0000
,
0000
0000
0000
0000
,
0000
0000
0000
0000
,
0000
0000
0000
0000
,
1000
0100
1000
0000
,
0001
0100
0001
0000
,
1000
0010
1000
0002
,
1003
2000
3001
0000
,
0001
1001
1000
1001
,
0100
0110
0100
0110
,
0001
0001
0001
1000
,
0001
0100
0001
0000
,
2000
3000
0200
0300
,
0020
0000
0000
0030
,
0002
0003
0200
0300
,
0020
0000
0000
0000
1030
1000
1000
0000
,
0001
1000
0000
0010
,
2000
3200
0320
0032
,
2003
0000
3020
0000
,
0230
0000
0300
0000
,
1001
0100
1001
0100
,
1001
0000
0010
0000
0100
0010
0100
0010
,
0100
0110
0001
1001
,
0010
0000
0110
0000
1000
0001
1000
0000
,
0010
0110
0100
0110
,
1000
0000
1001
0000
0001
1000
0001
1000
,
0001
0101
1000
1100
,
2002
0000
3003
0000
1000
0001
1000
0000
,
0002
0000
0000
0000
,
0203
0000
0000
0000
,
0320
0000
0000
0000
,
2030
0000
0000
3001
,
2000
0000
0000
0000
,
3200
0000
0000
0000
,
0320
0000
0000
0000
,
0032
0000
0000
1003
,
0001
0100
0001
0001
,
1000
0100
1000
1000
,
0001
0010
0100
1000
,
0002
0000
0000
1003
,
1000
0010
1000
1000
,
0001
0100
0001
0001
,
1000
0100
0010
0001
,
2000
0000
3000
0000
,
1001
1001
1001
0000
,
1001
0000
0100
0000
0010
0100
0010
0100
,
0010
1001
0100
1001
,
0010
0000
1001
0000
1000
0001
1000
0000
,
0100
0110
0010
0110
,
1000
0000
1001
0000
0001
0100
0001
0100
,
0001
0101
1000
1100
,
0001
0000
0010
0000
0100
1000
0002
0000
,
0003
0000
0000
0000
;

//---------------dance-double - ----------------
#NOTES:
     dance-double:
     :
     Hard:
     12:
     0.432455,0.621308,0.209038,0.418076,0.332913,391.000000,364.000000,27.000000,54.000000,0.000000,0.000000,0.432455,0.621308,0.209038,0.418076,0.332913,391.000000,364.000000,27.000000,54.000000,0.000000,0.000000:
// measure 0
00000000
00000000
00000000
00000000
,  // measure 1
00000000
00000000
00000000
00000000
,  // measure 2
00000000
00000000
00000000
00000000
,  // measure 3
00000000
00000000
00000000
00000000
,  // measure 4
00000000
00000000
00000000
00000000
00000000
00000000
00010000
00001000
,  // measure 5
00000200
00000000
00000000
00000000
00001300
00000000
00010000
00000000
02000000
00000000
00000000
00000000
13000000
00000000
00000000
00100000
,  // measure 6
01000000
00010000
01000000
00001000
00010000
00000000
00000100
00000000
00000020
00000000
00000000
00000000
00000031
00000000
00000000
00000100
,  // measure 7
00000010
00001000
00000010
00010000
00001000
00000000
00100000
00000000
02000000
00000000
00000000
00000000
23000000
00000000
00000000
00000000
,  // measure 8
30020000
00032000
00003002
00001003
,  // measure 9
00000010
00000100
00000000
00000001
00000100
00000000
00001000
00000000
00010000
00000100
00010000
00000000
00011000
00000000
00000000
00000000
,  // measure 10
00100000
01000000
00000000
10000000
01000000
00000000
00100000
00000000
00001000
00010000
00001000
00000000
00011000
00000000
00010000
00000000
,  // measure 11
00000100
00000000
00000000
00000000
00000110
00000000
00000000
00000000
00000011
00000000
00001000
00000001
00000000
00000000
00000100
00000000
,  // measure 12
00000010
00000000
00000100
00000000
00001000
00000000
00010000
00000000
00100000
00000000
10000000
00010000
00000000
00000000
10000000
00000000
,  // measure 13
00100000
00000000
01000000
00010000
00200000
00000000
02300000
00000000
,  // measure 14
03010000
00001000
00000010
00000001
00002000
00000000
00003001
00000100
,  // measure 15
00000010
00000100
00001000
00010000
00100000
00000000
20000000
00000000
,  // measure 16
31000000
00020000
00030100
00000000
,  // measure 17
00000010
00000000
00000100
00001000
00000020
00000000
00000230
00000000
,  // measure 18
00001300
00010000
00100000
10000000
00020000
00000000
02030000
00000000
,  // measure 19
03100000
00000000
01000000
00001000
00000000
00000000
00010000
00000000
00000100
00000000
00000000
00000000
00000020
00000000
00000000
00000031
,  // measure 20
00000200
00000000
00000000
00000000
00000300
00000000
00000010
00000100
,  // measure 21
00001001
00000000
00000001
00000010
00001100
00000000
00001000
00000100
,  // measure 22
00011000
01000000
00100000
00010000
00001000
00101000
00011000
01001000
,  // measure 23
01000000
00000000
00010000
02000000
00000000
00000000
03100000
00000000
00000000
10000000
00000000
00000000
01000000
00000000
00100000
00002000
00000000
00000000
00013000
00000000
00000000
00000100
00000000
00000000
,  // measure 24
00000010
00000000
00000001
00000200
00000000
00000000
00000310
00000000
00000000
00001000
00000000
00000000
00000100
00000000
00010000
00001000
00000000
00010000
01000000
00000000
00000000
00000000
00000000
00000000
,  // measure 25
10000000
00000000
00100000
00010000
00001000
00010000
00100000
00000000
10000000
00000000
01000000
00010000
00001000
00010000
01000000
00000000
,  // measure 26
00100000
00000000
00001000
00010000
00000100
00000010
00000001
00000100
00000010
00000000
00010010
00000000
00011000
00000000
00010100
00000000
,  // measure 27
00000100
00000000
00001000
00000200
00000000
00000000
00000310
00000000
00000000
00000001
00000000
00000000
00000100
00000000
00000010
00020000
00000000
00000000
00031000
00000000
00000000
01000000
00000000
00000000
,  // measure 28
00100000
00000000
10000000
02000000
00000000
00000000
03100000
00000000
00000000
00010000
00000000
00000000
01000000
00000000
00001000
00010000
00000000
00001000
00000100
00000000
00000000
00000000
00000000
00000000
,  // measure 29
00000002
00000000
00000000
00000103
00000000
00000000
00001000
00000000
00020000
00000000
00000000
00031000
00000000
00000000
00010000
00000000
,  // measure 30
02000000
00000000
00000000
13000000
00000000
00000000
00010000
00000000
02000000
00000000
00000000
00000000
03000000
00000000
00100000
00000000
,  // measure 31
02000000
00000000
03000000
10000000
02000000
00000000
03000000
00010000
,  // measure 32
00200000
00000000
00000000
02300000
00000000
00000000
00000000
00000000
00000000
00000000
00000000
00000000
13000000
00000000
00010000
00000000
,  // measure 33
20000000
00000000
00000000
31000000
00000000
00000000
00010000
00000000
00002000
00000000
00000000
00013000
00000000
00000000
00001000
00000000
,  // measure 34
00000200
00000000
00000000
00000301
00000000
00000000
00001000
00000000
00000200
00000000
00000000
00000000
00000300
00000000
00000010
00000000
,  // measure 35
00000200
00000000
00000300
00000001
00000200
00000000
00000300
00001000
,  // measure 36
00000020
00000000
00000000
00000130
00002000
00000000
00000000
00000000
00000000
00000000
00000000
00000000
00023000
00000000
00000000
00000000
,  // measure 37
00030100
00000000
00000000
00000000
00000000
00000000
00000000
00000000
00000000
00000010
00000000
00000000
00000000
00000000
00000000
00000000
00000000
00000000
00000001
00000000
00000000
00000000
00000000
00000000
00001000
00000000
00000000
00000000
00000001
00000000
00000100
00000000
00000000
00000000
00000001
00000000
00000100
00000000
00000000
00000000
00000001
00000000
00001000
00000000
00000000
00000000
00000000
00000000
,  // measure 38
00000001
00000000
00000000
00000000
00000000
00000000
00000000
00000000
00000000
00000100
00000000
00000000
00000000
00000000
00000000
00000000
00000000
00000000
00001000
00000000
00000000
00000000
00000000
00000000
00010000
00000000
00000000
00000000
00001000
00000000
00100000
00000000
00000000
00000000
00001000
00000000
00100000
00000000
00000000
00000000
00001000
00000000
00010000
00000000
00000000
00000000
00000000
00000000
,  // measure 39
00001000
00000000
00000100
00000000
00000001
00000000
00000100
00000000
00001000
00000000
00000000
00010000
00000000
00000000
00100000
00000000
,  // measure 40
10000000
00000000
00000000
00000000
00000000
00000000
00010000
00000000
00000000
20000000
00000000
00000000
00000000
00000000
00000000
00000000
00000000
00000000
00000000
00000000
00000000
00000000
00000000
00000000
31000000
00000000
00000000
00000000
00100000
00000000
00010000
00000000
00000000
00000000
00100000
00000000
00002000
00000000
00000000
00000000
00000000
00000000
00000000
00000000
00000000
00000000
00000000
00000000
,  // measure 41
01003000
00000000
00000000
00000000
00000000
00000000
00000000
00000000
00000000
00100000
00000000
00000000
00000000
00000000
00000000
00000000
00000000
00000000
10000000
00000000
00000000
00000000
00000000
00000000
00010000
00000000
00000000
00000000
10000000
00000000
01000000
00000000
00000000
00000000
00100000
00000000
00010000
00000000
00000000
00000000
00100000
00000000
00001000
00000000
00000000
00000000
00000000
00000000
,  // measure 42
00010000
00000000
00000000
00000000
00000000
00000000
00000000
00000000
00000000
01000000
00000000
00000000
00000000
00000000
00000000
00000000
00000000
00000000
00010000
00000000
00000000
00000000
00000000
00000000
00001000
00000000
00000000
00000000
00010000
00000000
00000100
00000000
00000000
00000000
00001000
00000000
00000100
00000000
00000000
00000000
00000010
00000000
00001000
00000000
00000000
00000000
00000000
00000000
,  // measure 43
00010000
00000000
00100000
00000000
10000000
00000000
01000000
00000000
00010000
00000000
00000000
00001000
00000000
00000000
00022000
00000000
,  // measure 44
00000000
00000000
00000000
00000000
00033000
00000000
00010000
00010000
,  // measure 45
00011000
00000000
00000000
00000000
00000000
00000000
00001100
00000000
00000000
00000100
00000000
00000000
00010100
00000000
00000000
00000000
00000000
00001000
00100000
00000000
00000000
00010000
00000000
00000000
,  // measure 46
00201000
00010000
01000000
10000000
01300000
00110000
00101000
01100000
,  // measure 47
00100000
00000000
00010000
02000000
00000000
00000000
03100000
00000000
00000000
00010000
00000000
00000000
00001000
00000000
00010000
00000200
00000000
00000000
00000310
00000000
00000000
00000001
00000000
00000000
,  // measure 48
00000100
00000000
00000010
00002000
00000000
00000000
00003100
00000000
00000000
00000010
00000000
00000000
00000100
00000000
00010000
00001000
00000000
00010000
00001000
00000000
00000000
00010000
00000000
00000000
,  // measure 49
00011000
00000000
00010000
00001000
00000100
00001000
00010000
00000000
00011000
00000000
00001000
00010000
01000000
00010000
00001000
00000000
,  // measure 50
00011000
00000000
00010000
00001000
00000010
00000100
00001000
00000100
00000010
00000000
00001100
00000000
00010100
00000000
00000110
00000000
,  // measure 51
00000100
00000000
00001000
00000020
00000000
00000000
00000130
00000000
00000000
00001000
00000000
00000000
00010000
00000000
00001000
00200000
00000000
00000000
01300000
00000000
00000000
10000000
00000000
00000000
,  // measure 52
00100000
00000000
00000000
00000000
00000000
00000000
00000000
00000000
00000000
00000000
00000000
00000000
00000000
00000000
00000000
00000000
01000000
00000000
00000000
00000000
00000000
00000000
00000000
00000000
00020000
00000000
00000000
00000000
00000000
00000000
00000000
00000000
00000000
00000000
00000000
00000000
00000000
00000000
00000000
00000000
00000000
00000000
00000000
00000000
00000000
00000000
00000000
00000000
10030000
00000000
00000000
00000000
00000000
00000000
00000000
00000000
00000000
00000000
00000000
00000000
00000000
00000000
00000000
00000000
01000000
00000000
00000000
00000000
00000000
00000000
00000000
00000000
00000000
00000000
00000000
00000000
00000000
00000000
00000000
00000000
00000000
00000000
00000000
00000000
00000000
00000000
00010000
00000000
00000000
00000000
00000000
00000000
00000000
00000000
00000000
00000000
00000000
00000000
00000000
00000000
00000000
00000000
00000000
00000000
00000000
00000000
00000000
00000000
00000000
00000000
00001000
00000000
00000000
00000000
00000000
00000000
00000000
00000000
00000000
00000000
00000000
00000000
00000000
00000000
00000000
00000000
00000000
00000000
00000000
00000000
00000000
00000000
00000000
00000000
00000010
00000000
00000000
00000000
00000000
00000000
00000000
00000000
00000000
00000000
00000000
00000000
00000000
00000000
00000000
00000000
00000000
00000000
00000000
00000000
00000000
00000000
00000000
00000000
00000000
00000001
00000000
00000000
00000000
00000000
00000000
00000000
00000000
00000000
00000000
00000000
00000000
00000000
00000000
00000000
00000000
00000000
00000000
00000000
00000000
00000000
00000000
00000000
00000000
00000000
00000000
00000000
00000100
00000000
00000000
00000000
00000000
00000000
,  // measure 53
00000000
00000000
00000000
00000000
00000000
00000000
00000000
00000000
00000000
00000000
00000000
00000000
00000000
00000000
00000000
00000000
00000000
00000000
00000000
00000000
00000000
00000001
00000000
00000000
00000000
00000000
00000000
00000000
00000000
00000200
00000000
00000000
00000000
00000000
00000000
00000000
00000000
00000000
00000000
00000000
00000000
00000000
00000000
00000000
00000000
00000000
00000000
00000000
00000000
00000000
00000000
00000000
00000000
00000000
00000000
00000000
00000000
00000000
00000000
00000000
00000000
00000000
00000000
00000000
00000000
00000000
00000000
00000000
00000000
00000000
00000000
00000000
00000000
00000000
00000000
00000000
00000000
00000000
00000000
00000000
00000000
00000000
00000000
00000000
00000000
00000000
00000000
00000000
00000000
00000000
00000000
00000000
00000000
00000000
00000000
00000000
00000300
00000000
00000000
00000000
00000000
00000000
00000000
00000000
00000000
00000000
00000000
00000000
00000000
00000000
00000000
00000000
00000000
00000000
00000000
00000000
00000000
00000000
00000000
00000000
00000000
00000000
00000000
00000000
00000000
00000000
00000000
00000000
00000000
00000000
00000000
00000000
00000000
00000000
00000000
00000000
00000000
00000000
00000000
00000000
00000000
00000000
00000000
00000000
00000000
00000000
00000000
00000000
00000000
00000000
00000000
00000000
00000000
00000000
00000000
00000000
00000000
00000000
00000000
00000000
00000000
00000000
00000000
00000000
00000000
00000000
00000000
00000000
00000000
00000000
00000000
00000000
00000000
00000000
00000000
00000000
00000000
00000000
00000000
00000000
00000000
00000000
00000000
00000000
00000000
00000000
00000000
00000000
00000000
00000000
00000000
00000000
;
