#TITLE:Big Yellow Taxi;
#SUBTITLE:;
#ARTIST:Counting Crows ft. Vanessa Carlton;
#TITLETRANSLIT:;
#SUBTITLETRANSLIT:;
#ARTISTTRANSLIT:;
#GENRE:;
#CREDIT:;
#BANNER:Big Yellow Taxi-bn.png;
#BACKGROUND:Big Yellow Taxi-bg.png;
#LYRICSPATH:;
#CDTITLE:;
#MUSIC:Big Yellow Taxi.ogg;
#OFFSET:2.400000;
#SAMPLESTART:45.449001;
#SAMPLELENGTH:20.000000;
#LASTBEATHINT:2.055433;
#SELECTABLE:YES;
#DISPLAYBPM:88.000000;
#BPMS:0.000000=88.089996
;
#STOPS:
;
#BGCHANGES:;
#KEYSOUNDS:;
#ATTACKS:;

//---------------dance-single - ----------------
#NOTES:
     dance-single:
     :
     Hard:
     12:
     0.488473,0.530761,0.385769,0.210419,0.683863,390.000000,346.000000,44.000000,24.000000,0.000000,0.000000,0.488473,0.530761,0.385769,0.210419,0.683863,390.000000,346.000000,44.000000,24.000000,0.000000,0.000000:
0000
0000
0000
0000
,
0000
0000
0000
0000
,
0000
0000
0000
0000
,
0000
0000
0000
0000
,
0000
0000
0000
0000
,
1000
0000
0010
0100
0001
0000
0000
0000
0010
0001
1000
0001
0000
1000
0000
0100
,
0010
0000
0000
0001
1000
0001
0200
0000
0000
0000
0010
0000
0310
0000
1000
0100
,
1000
0000
0010
0000
1000
0000
0001
0000
0100
0010
1000
0010
0100
0001
0000
1000
,
0000
0000
0010
0000
1000
0001
0100
0000
0001
0010
0001
1000
0100
0010
0100
0000
,
2001
0000
0000
0001
3002
0000
0100
0203
0000
0010
0320
0000
1030
0000
0001
1000
,
0100
0000
0100
0000
0100
0000
1000
0010
0000
1000
0001
0000
0011
0000
0000
0001
,
1000
0000
0010
0100
0001
0000
0000
0000
0010
0001
1000
0010
0000
1000
0000
0100
,
0000
0000
2010
0000
0010
0000
0100
0000
3001
0101
0000
0110
0000
1010
0000
1000
,
0001
0000
0012
0000
1000
0000
0010
0000
0103
0101
0000
1001
0000
1100
0000
0010
,
1000
0001
0000
0001
0100
0000
0000
0000
0010
1000
0010
0100
0010
0001
0010
0000
,
1000
0100
0000
1000
0010
0100
0002
0000
0000
0000
0010
0000
0013
0001
1000
0000
,
0010
0000
1000
0100
0000
0100
1000
0000
0001
0100
0010
0100
0001
0000
0010
0100
,
0000
1000
0000
0001
1000
0010
0100
0001
0000
0011
0000
0110
0000
1100
0000
0000
,
2001
0000
0000
0100
3200
0000
0010
0320
0000
0001
0032
0000
1003
0001
0000
0100
,
0010
1000
0000
0001
0000
1000
0100
0000
0010
0001
0100
0000
0110
0000
0000
0010
,
1000
0000
0100
0010
0001
0000
0000
0000
0100
0001
1000
0001
0000
0100
0000
0010
,
0000
0000
0201
0000
1000
0000
0001
0000
0310
0110
0000
1010
0000
1001
0000
0001
,
0010
0000
0021
0000
1000
0000
0001
0000
0130
1100
0000
1001
0000
0101
0000
0001
,
1000
0000
0010
0000
0100
0000
0001
0000
0010
0001
0000
0001
1000
0010
0100
0000
,
0001
1000
0000
0001
1000
0000
0001
1000
0000
0010
0100
0001
0000
0100
0000
0010
,
0000
1000
0000
0100
1000
0010
0100
0000
0001
0010
0001
0100
0000
0001
0000
1000
,
0010
0100
0001
0101
1001
1020
1030
0000
,
1002
0000
0000
0100
0203
0000
0010
0320
0000
1000
2030
0000
3100
1000
0000
0001
,
0010
0001
0000
0100
0000
0010
1000
0000
0100
1000
0001
0000
0011
0000
0000
1000
,
0001
0000
1000
0100
0010
0000
0000
0000
0001
0100
0001
1000
0000
0010
0000
0100
,
0000
0001
0100
0010
1000
0100
0010
0001
,
1000
0000
0001
1000
0100
0000
0000
0000
0010
0001
1000
0001
0000
0100
0000
0010
,
0000
0000
0210
0000
0010
0000
1000
0000
0301
0101
0000
1100
0000
0011
0000
1000
,
0001
0000
2001
0000
0100
0000
0010
0000
3001
0011
0000
0110
0000
1100
1000
0001
,
1000
0010
0100
0010
1000
0000
0000
0000
0001
0010
0000
0001
0000
1000
0010
0100
,
0001
0000
0000
0000
0002
1000
0000
0010
0000
0010
0000
0103
0001
0000
1000
0010
,
1000
0100
0010
0100
1000
0000
0000
0000
0001
1000
0000
0001
0000
0010
0001
1000
,
0100
0000
1000
0000
0010
0000
1001
0000
0010
0000
1000
0001
0100
0000
0001
1000
,
0001
0100
0010
0100
0001
0000
0000
0000
1000
0001
0000
1000
0000
0010
1000
0100
,
0010
0000
0000
0000
0001
1000
0000
0010
0000
0100
0000
0010
1000
0000
0000
0000
,
1100
0000
0000
1010
0000
0000
1001
0000
0101
0000
0000
0011
0000
0000
0110
0000
,
2002
0000
0000
3003
;

//---------------dance-single - ----------------
#NOTES:
     dance-single:
     :
     Medium:
     9:
     0.300599,0.311136,0.184117,0.227954,0.140280,240.000000,219.000000,21.000000,26.000000,0.000000,0.000000,0.300599,0.311136,0.184117,0.227954,0.140280,240.000000,219.000000,21.000000,26.000000,0.000000,0.000000:
0000
0000
0000
0000
,
0000
0000
0000
0000
,
0000
0000
0000
0000
,
0000
0000
0000
0000
,
0000
0000
0000
0000
,
1000
0010
1001
0000
0001
0100
0001
1000
,
0100
0000
1000
0002
0000
0100
0103
0010
,
1000
0001
0010
0001
0100
0010
1000
0100
,
1000
0001
0100
0000
0010
1000
0001
0000
,
1002
0000
0000
0000
2003
0000
0000
3020
0000
0000
0230
0000
0000
0000
0301
0000
,
1000
1000
1000
0010
0100
0001
0101
0000
,
1000
0001
0110
0000
0010
0100
0001
1000
,
0100
0000
2000
0000
0000
0000
0000
0000
0000
0001
0000
0001
0000
3001
0000
0000
,
0010
0000
0002
0000
0000
0000
0000
0000
0000
1000
0000
1000
0000
1003
0000
0000
,
0010
0100
0101
0000
0001
0010
0001
1000
,
0010
0100
0001
0000
1000
0100
1000
0000
,
1010
0000
0010
1000
0001
0010
0100
1000
,
0010
0000
0100
0000
0001
0000
0000
0000
0000
1000
0000
0001
0000
1000
0000
0000
,
2001
0000
0000
0000
3020
0000
0000
0230
0000
0000
0302
0000
0000
0000
1003
0000
,
0010
0000
0000
1000
0000
0000
0001
0000
0000
0000
0100
0000
0110
0000
0000
0000
,
1000
0010
1010
0000
1000
0001
0010
0100
,
1000
0000
0002
0000
0000
0000
0000
0000
0000
0100
0000
0100
0000
0103
0000
0000
,
0001
0000
2000
0000
0000
0000
0000
0000
0000
0010
0000
0010
0000
3010
0000
0000
,
1000
0001
1000
0001
0010
0100
1000
0001
,
0100
0010
1000
0000
0100
0010
0001
0000
,
1001
0100
0001
0000
1000
0001
1000
0100
,
0010
0000
0000
0002
2003
0200
3300
0000
,
2001
0000
0000
0000
3200
0000
0000
0320
0000
0000
0032
0000
0000
0000
0013
0000
,
0001
0000
0000
0100
0000
0000
0010
0000
0000
0000
1000
0000
1100
0000
0000
0000
,
0010
0100
0110
0000
0001
0010
0001
1000
,
0100
1000
0001
0000
0100
0010
1000
0001
,
1000
0100
0011
0000
0001
1000
0001
1000
,
0010
0000
0200
0000
0000
0000
0000
0000
0000
0001
0000
1000
0000
0301
0000
0000
,
0100
0000
0020
0000
0000
0000
0000
0000
0000
1000
0000
0001
0000
1030
0000
0000
,
0001
0001
0101
0000
1000
0010
1000
0100
,
0010
0000
0000
0000
1002
0000
0000
0100
0000
1003
0000
0000
0001
0000
0000
0000
,
1000
1000
1100
0000
0010
0100
0001
0100
,
0010
0000
1000
1001
0000
0010
0100
0001
,
1000
1000
1010
0000
0010
0100
0001
1000
,
0100
0000
0000
0000
2100
0000
0000
0001
0000
3100
0000
0000
1000
0000
0000
0000
,
0010
0000
0000
1000
0000
0000
0001
0000
0100
0000
0000
0001
0000
0000
1000
0000
,
2002
0000
0000
3003
;

//---------------dance-single - ----------------
#NOTES:
     dance-single:
     :
     Easy:
     6:
     0.195389,0.237927,0.210419,0.122745,0.000000,156.000000,132.000000,24.000000,14.000000,0.000000,0.000000,0.195389,0.237927,0.210419,0.122745,0.000000,156.000000,132.000000,24.000000,14.000000,0.000000,0.000000:
0000
0000
0000
0000
,
0000
0000
0000
0000
,
0000
0000
0000
0000
,
0000
0000
0000
0000
,
0000
0000
0000
0000
,
1000
1000
0001
0100
,
0010
0100
0001
1000
,
0100
0100
0010
0001
,
1000
0001
1000
0100
,
1001
1000
0001
0100
,
0001
0001
1000
0110
,
1000
0001
0010
0100
,
2200
0000
0000
0300
0000
0001
3001
0000
,
0202
0000
0000
0300
0000
1000
1003
0000
,
0001
0011
0001
1000
,
0010
0100
0010
1000
,
0100
0100
1000
0001
,
1000
0010
0100
0101
,
1001
0010
0100
0001
,
1000
0100
0010
0110
,
0010
0001
1000
0010
,
2020
0000
0000
0030
0000
0100
3100
0000
,
0022
0000
0000
0030
0000
0010
0013
0000
,
0011
1100
0001
0100
,
0010
1000
0100
1000
,
0001
1001
1000
1001
,
0010
0100
0110
1000
,
1001
1000
0001
0010
,
0100
0010
0001
0110
,
1000
0010
1000
0001
,
0100
0000
0010
0000
,
1000
0001
0010
0100
,
2002
0000
0000
0003
0000
0010
3010
0000
,
0220
0000
0000
0030
0000
0001
0301
0000
,
1000
1100
1000
0001
,
0100
0000
0010
0000
,
1000
1010
0010
1000
,
0001
0000
0000
1001
0000
0000
0000
0000
,
0010
0110
0100
0001
,
1000
0000
0100
1000
,
0001
0001
1000
1000
,
2002
0000
0000
3003
;

//---------------dance-single - ----------------
#NOTES:
     dance-single:
     :
     Beginner:
     1:
     0.081412,0.107840,0.061372,0.000000,0.000000,65.000000,58.000000,7.000000,0.000000,0.000000,0.000000,0.081412,0.107840,0.061372,0.000000,0.000000,65.000000,58.000000,7.000000,0.000000,0.000000,0.000000:
// measure 0
0000
0000
0000
0000
,  // measure 1
0000
0000
0000
0000
,  // measure 2
0000
0000
0000
0000
,  // measure 3
0000
0000
0000
0000
,  // measure 4
0000
0000
0000
0000
,  // measure 5
1000
0000
0001
0000
,  // measure 6
0100
0000
0000
0000
,  // measure 7
0001
0000
1000
0000
,  // measure 8
0010
0000
0000
0000
,  // measure 9
1000
0000
1000
0000
,  // measure 10
0001
0000
0001
0000
,  // measure 11
0100
0000
0010
0000
,  // measure 12
0110
0000
0000
0000
,  // measure 13
1001
0000
0000
0000
,  // measure 14
1000
0000
0010
0000
,  // measure 15
0100
0000
0000
0000
,  // measure 16
0001
0000
0010
0000
,  // measure 17
0100
0000
0000
0000
,  // measure 18
1000
0000
1000
0000
,  // measure 19
0001
0000
0001
0000
,  // measure 20
0100
0000
0010
0000
,  // measure 21
0110
0000
0000
0000
,  // measure 22
1001
0000
0000
0000
,  // measure 23
0001
0000
1000
0000
,  // measure 24
0100
0000
0000
0000
,  // measure 25
1000
0000
0010
0000
,  // measure 26
0100
0000
0001
0000
,  // measure 27
0010
0000
0010
0000
,  // measure 28
0001
0000
0001
0000
,  // measure 29
1000
0000
0001
0000
,  // measure 30
0100
0000
0000
0000
,  // measure 31
0100
0000
0010
0000
,  // measure 32
0110
0000
0000
0000
,  // measure 33
1001
0000
0000
0000
,  // measure 34
1000
0000
0100
0000
,  // measure 35
0001
0000
0000
0000
,  // measure 36
0010
0000
0001
0000
,  // measure 37
0100
0000
0000
0000
,  // measure 38
0010
0000
1000
0000
,  // measure 39
0001
0000
0000
0000
,  // measure 40
1000
0000
0001
0000
,  // measure 41
1001
0000
0000
0000
;
