#VERSION:0.83;
#TITLE:BETTER;
#SUBTITLE:;
#ARTIST:BoA;
#TITLETRANSLIT:;
#SUBTITLETRANSLIT:;
#ARTISTTRANSLIT:;
#GENRE:;
#ORIGIN:;
#CREDIT:;
#BANNER:BETTER.png;
#BACKGROUND:BETTER-bg.png;
#PREVIEWVID:;
#JACKET:BETTER-jacket.png;
#CDIMAGE:;
#DISCIMAGE:;
#LYRICSPATH:;
#CDTITLE:;
#MUSIC:Better.ogg;
#OFFSET:0.000000;
#SAMPLESTART:44.329128;
#SAMPLELENGTH:20.869564;
#SELECTABLE:YES;
#BPMS:0.000=92.000;
#STOPS:;
#DELAYS:;
#WARPS:;
#TIMESIGNATURES:0.000=4=4;
#TICKCOUNTS:0.000=4;
#COMBOS:0.000=1;
#SPEEDS:0.000=1.000=0.000=0;
#SCROLLS:0.000=1.000,
66.000=0.500,
68.000=1.000,
100.000=1.050,
101.000=1.100,
102.000=1.150,
103.000=1.200,
104.000=1.250,
136.000=1.300,
136.500=1.400,
137.000=1.500,
137.500=1.400,
138.000=1.300,
140.000=1.250,
141.000=1.200,
142.000=1.150,
143.000=1.100,
144.000=1.000,
174.000=0.500,
176.000=1.000;
#FAKES:;
#LABELS:0.000=Song Start;
#BGCHANGES:0.000=BETTER-v.mp4=1.000=0=0=0=StretchNoLoop====,
99999=-nosongbg-=1.000=0=0=0 // don't automatically add -songbackground-
;
#KEYSOUNDS:;
#ATTACKS:
;

//---------------dance-single - Classic 9 | Modern 14----------------
#NOTEDATA:;
#CHARTNAME:;
#STEPSTYPE:dance-single;
#DESCRIPTION:Classic 9 | Modern 14;
#CHARTSTYLE:;
#DIFFICULTY:Hard;
#METER:14;
#RADARVALUES:0.590037,0.589499,0.154333,0.558540,0.988469,562.000000,541.000000,21.000000,76.000000,0.000000,0.000000,0.000000,0.000000,0.000000,0.590037,0.589499,0.154333,0.558540,0.988469,562.000000,541.000000,21.000000,76.000000,0.000000,0.000000,0.000000,0.000000,0.000000;
#CREDIT:DDRDAIKENKAI;
#NOTES:
// measure 0
0000
0000
0000
0000
0000
0000
0000
0000
0000
0000
0000
0000
0000
0000
0000
0000
0000
0000
0000
0000
0000
1000
0000
0001
,  // measure 1
1000
0000
0001
0200
0000
0000
0310
0000
1000
0010
0000
1000
0100
0000
1000
0100
0000
1000
0001
0000
0100
0001
0000
0100
,  // measure 2
0001
0000
0010
0100
0000
0000
0110
0000
0000
0000
0000
1000
0001
0000
0010
0001
0000
0010
0001
0000
0100
0001
0000
0100
,  // measure 3
0010
0000
0100
0010
0000
0000
0110
0000
0000
0000
0000
0100
0010
0000
0000
0010
0000
1000
0001
0000
1000
0100
0000
1000
,  // measure 4
0100
0000
0010
0001
0000
0000
1001
0000
0000
0000
0000
0001
0100
0000
0000
0010
0000
0000
0110
0000
0100
0000
0000
0020
,  // measure 5
0000
0000
0000
1030
0000
0001
1000
0000
0100
0010
0000
0100
1000
0000
0100
0010
0000
0000
0012
0000
0000
1003
0000
0001
,  // measure 6
0100
0000
0001
0010
0000
0000
0011
0000
0000
0000
0000
0010
0100
0000
0100
1000
0000
1000
0010
0000
1000
0020
0000
0000
,  // measure 7
1030
0000
0001
1000
0000
0000
1001
0000
0000
0000
0000
0001
0100
0000
0000
0001
0000
1000
0010
0000
0000
0010
0000
0100
,  // measure 8
0001
0000
0010
0001
0000
0000
0011
0000
0000
0001
0000
0000
0200
0000
0000
0310
0000
0000
0120
0000
0000
0000
0000
0000
,  // measure 9
1030
0000
0001
0000
0000
1000
0000
0000
0010
0000
0000
0001
0000
0000
0010
0000
0000
1000
0000
0000
0001
0000
0000
1000
,  // measure 10
0000
0000
0100
0000
0000
0001
0000
0000
0100
0000
0000
2000
0000
0000
0000
3000
0000
0000
0001
0000
0100
0000
0000
0020
,  // measure 11
0000
0000
0031
0010
0000
1000
0002
0000
0000
0013
0000
0000
2000
0000
0000
3010
0000
0000
0100
0000
0001
0000
0000
0200
,  // measure 12
1000
0000
0000
0000
0000
0320
0000
0000
0000
0032
0000
0000
2003
0000
0000
0000
0000
0000
3001
0000
1000
0000
0000
0010
,  // measure 13
1000
0000
0010
0000
0000
0100
0001
0000
0100
0000
0000
0010
0001
0000
0010
0000
0000
2000
0000
0000
0000
3001
0000
0010
,  // measure 14
0001
0000
0100
0000
0000
0010
0001
0000
0010
0000
0000
0100
1000
0000
0100
0000
0000
0002
0000
0000
0003
0000
0000
0020
,  // measure 15
0000
0000
0031
1000
0000
0001
0100
0000
0000
0010
0000
0000
0100
0000
0001
0000
0000
2000
0000
0000
0000
0000
0000
0000
,  // measure 16
3200
0000
0010
0000
0000
1000
0000
0000
0010
0000
0000
2000
0000
0000
0000
0000
0000
0000
3300
0000
0000
0000
0000
0000
,  // measure 17
1000
0000
0010
0000
0000
0010
1000
0000
0010
0000
0000
0010
0001
0000
0010
0000
0000
0010
0001
0000
0010
0000
0000
0010
,  // measure 18
0100
0000
0010
0000
0000
0010
1000
0000
0010
0000
0000
0010
1000
0000
0002
0000
0000
0000
1003
0000
0000
0000
0000
0000
,  // measure 19
0001
0000
0010
0001
0000
0010
0200
0000
0000
1300
0000
0001
0200
0000
0000
0310
0000
0000
1010
0000
0000
0000
0000
1000
,  // measure 20
0001
0000
1000
0000
0000
0100
0010
0000
0100
0000
0000
1000
0001
0000
0100
0000
0000
0010
0000
0000
2000
0000
0000
0000
,  // measure 21
3001
0000
0100
0000
0000
0100
1000
0000
0100
0000
0000
0100
0001
0000
0100
0000
0000
0100
0010
0000
0100
0000
0000
0002
,  // measure 22
1003
0000
0200
0300
0000
0020
0031
0000
2000
3000
0000
0020
1030
0000
0200
0300
0000
2000
3001
0000
2000
0000
0000
0000
,  // measure 23
3001
0000
0100
0001
0000
0100
0020
0000
0000
0130
0000
0001
1000
0000
0000
0100
0000
0010
0001
0000
0010
0100
0000
1000
,  // measure 24
0010
0000
0100
0001
0000
1000
0000
0000
0001
0000
0000
1000
0001
0000
0100
0010
0000
1000
0002
0000
0000
0000
0000
1003
,  // measure 25
0200
0000
0000
0000
0000
1300
0200
0000
0000
0000
0000
1300
0200
0000
0000
0000
0000
1300
0002
0000
0000
0003
0000
0000
,  // measure 26
1001
0000
0000
0000
0000
0000
0020
0000
0000
0000
0000
0000
0031
0000
0000
0000
0000
0000
2000
0000
0000
0000
3000
0002
,  // measure 27
0100
0000
0000
0000
0000
0000
1000
0000
0000
0000
0000
0000
0103
0000
0000
0100
0000
0000
0010
0000
1000
0000
0000
0020
,  // measure 28
0000
1030
0000
2000
,  // measure 29
3010
0000
1000
0000
0100
0000
1000
0000
0100
0000
0010
0000
0001
0000
0100
0000
0010
0000
2000
0000
0000
0001
0000
0000
,  // measure 30
3001
0000
0000
0010
0000
0000
0001
0000
0000
0010
0000
0000
0002
0000
0000
0000
0000
0000
0103
0000
0000
0000
0010
0000
0200
0000
0000
0000
0000
0000
0310
0000
0000
0000
0000
0000
1020
0000
0000
0000
0000
0000
1030
0000
0000
0000
0010
0000
,  // measure 31
2000
0000
0000
3001
0000
0000
1001
0000
0000
0001
0000
1000
0002
0000
0000
0100
0000
0000
0103
0000
0010
0000
0000
0100
,  // measure 32
0002
0000
0000
0013
0000
0001
0010
0000
0000
0100
0000
0010
0100
0000
0000
0010
0000
0000
0001
0000
1000
0000
0000
0020
,  // measure 33
0000
0000
1030
0010
0000
1000
0001
0000
1000
0100
0000
1000
0100
0000
1000
0000
0000
0001
0000
0000
0020
0000
0000
0031
,  // measure 34
0200
0000
0000
0000
0000
0000
0000
0000
0000
0000
0000
0000
0000
0000
0000
0000
0000
0000
0000
0000
0000
0000
0000
0000
0000
0000
0000
0000
0000
0000
0000
0000
0000
0000
0000
0000
0000
0000
0000
0000
0000
0000
0000
0000
0000
0000
0000
0000
0000
0000
0000
0000
0000
0000
0000
0000
0000
0000
0000
0000
0000
0000
0000
0000
0000
0000
0000
0000
0000
0000
0000
0000
0000
0000
0000
0000
0000
0000
0000
0000
0300
0000
0000
0001
0000
0000
0000
0000
0000
0000
0000
0000
0000
0000
0000
0000
0001
0000
0000
0000
0000
0000
0000
0000
0000
0000
0000
0000
0000
0000
0000
0000
0010
0000
0000
0000
0000
0000
0000
0000
0000
0000
0000
0000
0000
0000
0000
0000
0000
0000
0000
0000
0000
0000
0000
0000
0100
0000
0000
0000
0000
0000
0000
0000
0000
0000
0000
0000
0000
0000
0000
0000
0000
0000
0000
0000
0000
0000
0000
0000
1000
0000
0000
0000
0000
0000
0000
0000
0002
0000
0000
0000
0000
0000
0000
0000
0000
0000
0000
0000
0000
0000
0000
0000
1003
0000
0000
0000
0000
0000
0000
0000
,  // measure 35
0100
0000
0000
0000
0000
0001
0100
0000
0000
0000
0000
1000
0100
0000
0000
0020
0000
0000
0031
0000
0001
0000
0000
0000
,  // measure 36
2001
0000
3000
0001
0000
1000
0001
0000
1000
0100
0000
1000
0010
0000
0000
1000
0000
0002
1003
0000
0000
1000
0000
0010
,  // measure 37
1000
0000
0001
1000
0000
0010
1000
0000
0100
1000
0000
0100
0010
0000
0000
0001
0000
1000
0100
0000
0000
1000
0000
0020
,  // measure 38
0000
0000
0031
0010
0000
0100
1000
0000
0100
1000
0000
0100
0001
0000
0010
0001
0000
0000
0101
0000
0000
0000
0000
0100
,  // measure 39
0001
0000
0010
1000
0000
0010
0001
0000
0100
0010
0000
1000
0100
0000
0010
0001
0000
0000
1001
0000
1000
0000
0000
0002
,  // measure 40
0000
0000
0000
0013
0000
0001
1000
0000
0010
1000
0000
0001
1000
0000
0010
1000
0000
0000
1010
0000
0000
0010
0000
1000
,  // measure 41
0100
0000
0010
0001
0000
0000
0101
0000
0000
0100
0000
0010
0100
0000
0001
0010
0000
0001
0010
0000
0100
0010
0000
0001
,  // measure 42
0010
0000
0100
1000
0000
0000
1100
0000
0000
1000
0000
0010
1000
0000
0100
0010
0000
0000
0011
0000
0000
0000
0000
0002
,  // measure 43
0000
0000
1003
0100
0000
1000
0100
0000
1000
0100
0000
1000
0020
0000
0000
1030
0000
0000
1002
0000
0000
0000
0000
0000
,  // measure 44
1003
0000
0010
0000
0000
0001
0010
0000
1000
0000
0000
0001
0010
0000
1000
0000
0000
0001
0100
0000
1000
0000
0000
0001
,  // measure 45
0100
0000
0010
0000
0000
1000
0100
0000
0010
0000
0000
0001
1000
0000
0020
0000
0000
0000
1030
0000
0000
0000
0000
0000
,  // measure 46
0001
0000
1000
0001
0000
1000
0200
0000
0000
0310
0000
0001
2000
0000
0000
3001
0000
1000
0100
0000
0000
0000
0000
1000
,  // measure 47
0010
0000
0001
0000
0000
0010
1000
0000
0001
0000
0000
0010
0100
0000
1000
0010
0000
1000
0001
0000
0001
1000
0001
1000
,  // measure 48
0001
0000
0100
0000
0000
0100
1000
0000
0100
0000
0000
0100
0001
0000
0100
0000
0000
0100
0010
0000
0100
0000
0000
0002
,  // measure 49
1003
0000
0200
0300
0000
0020
0031
0000
2000
3000
0000
0020
1030
0000
0200
0300
0000
2000
3001
0000
2000
0000
0000
0000
,  // measure 50
3001
0000
1000
0001
0000
1000
0200
0000
0000
1300
0000
0001
0100
0000
0000
0010
0000
0100
0010
0000
1000
0100
0000
0010
,  // measure 51
0001
0000
0010
0100
0000
2000
3000
0000
0001
0000
0000
1000
0100
0000
0010
0001
0000
2000
3000
0000
0000
0000
0000
0000
;

//---------------dance-single - Classic 6 | Modern 9----------------
#NOTEDATA:;
#CHARTNAME:;
#STEPSTYPE:dance-single;
#DESCRIPTION:Classic 6 | Modern 9;
#CHARTSTYLE:;
#DIFFICULTY:Medium;
#METER:9;
#RADARVALUES:0.358012,0.341187,0.058794,0.213127,0.007349,341.000000,333.000000,8.000000,29.000000,0.000000,0.000000,0.000000,0.000000,0.000000,0.358012,0.341187,0.058794,0.213127,0.007349,341.000000,333.000000,8.000000,29.000000,0.000000,0.000000,0.000000,0.000000,0.000000;
#CREDIT:DDRDAIKENKAI;
#NOTES:
// measure 0
0000
0000
0000
0000
0000
0000
0000
0001
,  // measure 1
1000
2000
3001
0001
1000
1000
0100
0100
,  // measure 2
0010
0001
1000
0000
0001
1000
0001
0001
,  // measure 3
1000
0010
0100
0000
0010
0010
1000
1000
,  // measure 4
0001
1000
0001
0000
0010
0000
1001
0001
,  // measure 5
1000
0100
0001
1000
0001
0100
1000
0001
,  // measure 6
1000
0001
0100
0000
0001
1000
0100
0100
,  // measure 7
0010
0010
1000
0000
0001
0100
0010
0010
,  // measure 8
0001
0001
1000
0000
1000
0100
0200
0000
,  // measure 9
0320
0031
0002
0103
,  // measure 10
0100
0010
1000
0100
2000
0000
3001
0000
,  // measure 11
0010
0001
0010
0010
0001
0001
0100
0010
,  // measure 12
0200
0000
0302
0000
2003
0000
3100
0100
,  // measure 13
1000
0100
1000
0100
0010
0001
0100
0000
,  // measure 14
0001
0010
0001
0010
0100
1000
0001
0000
,  // measure 15
0100
1000
0100
0001
1000
0100
0020
0000
,  // measure 16
0031
1000
0001
1000
0002
1003
1002
0000
,  // measure 17
1003
0100
1000
0100
0001
0100
0001
0100
,  // measure 18
1000
0001
0100
0010
1000
0001
1001
0000
,  // measure 19
0001
0001
1000
1000
0010
0100
0110
0000
,  // measure 20
0100
0001
1000
0100
0010
0100
2000
0000
,  // measure 21
3001
0010
0001
0010
1000
0010
1000
0010
,  // measure 22
0001
0100
0010
1000
0100
0010
0001
0000
,  // measure 23
1000
0100
1000
0010
1000
0100
2000
0000
,  // measure 24
3001
0010
0100
0000
0001
0010
0200
0000
,  // measure 25
2300
0000
0001
0000
3002
0000
1000
0003
,  // measure 26
1001
0200
0320
2030
,  // measure 27
3002
0000
1003
0000
0100
0010
0001
0000
,  // measure 28
2000
3010
0100
0002
,  // measure 29
1003
0100
0010
0001
0100
0010
2000
0000
,  // measure 30
3001
0000
2000
0000
3010
1000
0100
0000
,  // measure 31
2000
0000
3001
0000
0010
0001
0100
0000
,  // measure 32
0010
0010
0100
0000
0001
0001
1000
0000
,  // measure 33
0100
0100
0010
0010
0001
1000
0001
0001
,  // measure 34
2000
0000
0000
0000
3010
0010
0010
0000
,  // measure 35
0100
0000
0000
0100
0000
0000
0100
0000
0000
0100
0100
0000
,  // measure 36
0001
0010
0001
0010
0100
0100
1000
0000
,  // measure 37
0010
1000
0010
1000
0100
0100
0010
0000
,  // measure 38
0001
1000
0001
1000
0100
0100
1000
0000
,  // measure 39
1000
0001
0100
0010
1000
0001
2001
0000
,  // measure 40
3001
0010
1000
0001
1000
0010
0001
1000
,  // measure 41
0001
1000
0100
0000
0010
0001
1000
0100
,  // measure 42
0010
0010
0001
0000
0100
0100
1000
0000
,  // measure 43
0100
0001
0010
1000
0200
0000
0301
0000
,  // measure 44
1000
0001
1000
0001
0100
0010
0100
0010
,  // measure 45
1000
0100
0010
0001
0100
0010
1000
0000
,  // measure 46
0001
0001
1000
1000
0010
0100
0110
0000
,  // measure 47
0100
0001
0010
0001
0100
0001
0020
0000
,  // measure 48
0031
0100
0001
0100
1000
0100
1000
0100
,  // measure 49
0001
1000
0001
0010
0100
0010
0001
0000
,  // measure 50
1000
1000
0001
0001
0100
0010
0110
0000
,  // measure 51
1000
0000
0000
0100
0000
0000
0001
0000
0000
0000
0000
0000
1000
0000
1000
0000
0000
0000
0000
0000
0000
0000
0000
0000
;

//---------------dance-single - Classic 3 | Modern 6----------------
#NOTEDATA:;
#CHARTNAME:;
#STEPSTYPE:dance-single;
#DESCRIPTION:Classic 3 | Modern 6;
#CHARTSTYLE:;
#DIFFICULTY:Easy;
#METER:6;
#RADARVALUES:0.229925,0.247010,0.036746,0.205778,0.000000,219.000000,214.000000,5.000000,28.000000,0.000000,0.000000,0.000000,0.000000,0.000000,0.229925,0.247010,0.036746,0.205778,0.000000,219.000000,214.000000,5.000000,28.000000,0.000000,0.000000,0.000000,0.000000,0.000000;
#CREDIT:DDRDAIKENKAI;
#NOTES:
// measure 0
0000
0000
0000
0000
,  // measure 1
1000
0001
0001
1000
,  // measure 2
1000
1000
0001
0000
0010
0000
0002
0000
,  // measure 3
1000
1000
1003
0000
0001
0000
1000
0000
,  // measure 4
0001
0001
0001
0000
1000
0000
1002
0000
,  // measure 5
1000
1003
0001
1000
,  // measure 6
0001
0001
1000
0000
0100
0000
0010
0000
,  // measure 7
0010
0100
0010
0100
,  // measure 8
0010
0010
0001
0000
1000
0000
0002
0000
,  // measure 9
2003
0000
3002
0000
,  // measure 10
0013
0010
0020
0030
,  // measure 11
0010
0000
0100
0000
1000
0000
0010
0010
,  // measure 12
2000
0001
0000
3001
,  // measure 13
1000
0100
0010
0001
,  // measure 14
0100
0000
0010
0000
1000
1000
0001
0000
,  // measure 15
0010
0001
0100
0010
,  // measure 16
1000
0001
2002
3003
,  // measure 17
1000
1000
0001
0000
1000
0001
1000
0000
,  // measure 18
0001
0001
1000
0000
0001
1000
0001
0000
,  // measure 19
0100
0100
0010
0000
0100
0100
0001
0000
,  // measure 20
0010
0100
1000
0001
,  // measure 21
2002
0000
0000
3003
,  // measure 22
1000
0001
1000
0000
0010
0100
0010
0000
,  // measure 23
1000
0001
1000
1000
,  // measure 24
0001
0001
0001
0000
1000
1000
1000
0000
,  // measure 25
0100
1000
0010
0001
,  // measure 26
0020
1000
0000
1030
,  // measure 27
0200
0310
0020
0001
,  // measure 28
0032
1000
0000
2003
,  // measure 29
3001
0010
0100
2000
,  // measure 30
3002
1000
0000
1003
,  // measure 31
0200
0310
0020
0031
,  // measure 32
0020
0000
0000
0130
,  // measure 33
1000
0010
1000
1000
,  // measure 34
0002
0000
0003
0000
,  // measure 35
1000
1000
0001
0001
,  // measure 36
1000
0001
1000
0000
0001
0000
0001
0000
,  // measure 37
1000
0001
0100
0010
,  // measure 38
0100
0000
0100
0000
0100
0100
0100
0000
,  // measure 39
0010
0000
1000
0000
0001
1000
0001
0000
,  // measure 40
1000
1000
1000
1000
,  // measure 41
0001
0100
1000
0100
,  // measure 42
0001
0001
1000
0000
0100
0000
0100
0000
,  // measure 43
1000
0000
0000
0000
0000
0000
0000
0000
0000
0000
0000
0000
0000
0000
0000
0000
0000
0000
0000
0000
0000
0000
0000
0000
0000
0000
0000
0000
0000
0000
0000
0000
0000
0000
0000
0000
0000
0000
0000
0000
0000
0000
0000
0000
0000
0000
0000
0000
0001
0000
0000
0000
0000
0000
0000
0000
0000
0000
0000
0000
0000
0000
0000
0000
0000
0000
0000
0000
0000
0000
0000
0000
0000
0000
0000
0000
0000
0000
0000
0000
0000
0000
0000
0000
0000
0000
0000
0000
0000
0000
0000
0000
0000
0000
0000
0000
2000
0000
0000
0000
0000
0000
0000
0000
0000
0000
0000
0000
0000
0000
0000
0000
0000
0000
0000
0000
0000
0000
0000
0000
0000
0000
0000
0000
0000
0000
0000
0000
0000
0000
0000
0000
0000
0000
0000
0000
0000
0000
0000
0000
0000
0000
0000
0000
0020
3030
0000
0000
0000
0000
0000
0000
0000
0000
0000
0000
0000
0000
0000
0000
0000
0000
0000
0000
0000
0000
0000
0000
0000
0000
0000
0000
0000
0000
0000
0000
0000
0000
0000
0000
0000
0000
0000
0000
0000
0000
0000
0000
0000
0000
0000
0000
,  // measure 44
1000
1000
0010
0000
0010
0100
0010
0000
,  // measure 45
0010
0010
1000
0000
1000
0001
1000
0000
,  // measure 46
0100
0100
1000
0000
0001
1000
0001
0000
,  // measure 47
0010
0001
0001
1000
,  // measure 48
2002
0000
0000
3003
,  // measure 49
1000
0001
1000
0001
,  // measure 50
0100
0100
0010
0000
1000
1000
0001
0000
,  // measure 51
1000
0000
0000
0001
0000
0000
1000
0000
0000
0000
0000
0000
2002
0000
0000
0000
0000
3003
0000
0000
0000
0000
0000
0000
;
