#TITLE:Baraonda;
#SUBTITLE:;
#ARTIST:Ramirez;
#TITLETRANSLIT:;
#SUBTITLETRANSLIT:;
#ARTISTTRANSLIT:;
#GENRE:;
#CREDIT:;
#MUSIC:Baraonda.ogg;
#BANNER:Baraonda.png;
#BACKGROUND:Baraonda-bg.png;
#CDTITLE:cdtitle.png;
#SAMPLESTART:53.697;
#SAMPLELENGTH:15.000;
#SELECTABLE:YES;
#OFFSET:1.458;
#BPMS:0.000=161.000
,51.000=40.250
,51.250=161.000
,83.250=40.250
,91.250=80.500
,107.250=161.000
,231.250=80.500
,233.250=161.000
;
#STOPS:;
#LASTBEATHINT:1.228967;
#BGCHANGES:4.000=Baraonda.avi=1.000=0=0=1,
99999.000=-nosongbg-=1.000=0=0=0=StretchNoLoop====
;
#FGCHANGES:;

//--------------- dance-single - RaverAce ----------------
#NOTES:
     dance-single:
     RaverAce:
     Beginner:
     7:
     0.15861,0.252573,0.143505,0,0.453172,147,128,19,0,0,0,0.15861,0.252573,0.143505,0,0.453172,147,128,19,0,0,0:
0000
0000
0000
0000
,
0000
0000
0000
0000
,
0000
0000
0000
0000
,
0000
0000
0000
0000
,
0000
0000
0000
0000
,
1001
0000
0000
0000
,
1000
0000
0000
0000
,
0001
0000
0000
0000
,
1000
0000
0000
0000
,
0010
0000
0000
0000
,
0100
0000
0000
0000
,
0010
0000
0000
0000
,
0100
0000
0000
0000
0000
0000
0000
0000
0000
0000
0000
0000
0000
0001
0000
0000
,
0000
0000
0000
0000
0000
0001
0000
0000
0000
0000
0000
0000
0000
0001
0000
0000
,
0000
0000
0000
0000
0000
0000
0000
0000
0000
0000
0000
0000
0000
1000
0000
0000
,
0000
0000
0000
0000
0000
1000
0000
0000
0000
0000
0000
0000
0000
1000
0000
0000
,
0000
0000
0000
0000
0000
0000
0000
0000
0000
0000
0000
0000
0000
0100
0000
0000
,
0000
0000
0000
0000
0000
0100
0000
0000
0000
0000
0000
0000
0000
0100
0000
0000
,
0000
0000
0000
0000
0000
0000
0000
0000
0000
0000
0000
0000
0000
0010
0000
0000
,
0000
0000
0000
0000
0000
0010
0000
0000
0000
0000
0000
0000
0000
0010
0000
0000
,
0000
0000
0000
0000
0000
0000
0000
0000
0000
0000
0000
0000
0000
1001
0000
0000
,
0000
0000
0000
0000
,
0000
0000
0000
0000
0000
0000
0000
0000
0000
0000
0000
0000
0000
1001
0000
0000
,
0000
0000
0000
0000
0000
1000
0000
0000
0000
0000
0000
0000
0000
0001
0000
0000
,
0000
0000
0000
0000
0000
0100
0000
0000
0000
0000
0000
0000
0000
0010
0000
0000
,
0000
0000
0000
0000
0000
1000
0000
0000
0000
0000
0000
0000
0000
0100
0000
0000
,
0000
0000
0000
0000
0000
0010
0000
0000
0000
0001
0000
0001
0000
1001
0000
0000
,
0000
0000
0000
0000
0000
0000
0000
0000
0000
0000
0000
0000
0000
1001
0000
0000
,
0000
0000
0000
0000
0000
0000
0000
0000
0000
0000
0000
0000
0000
1001
0000
0000
,
0000
0000
0000
0000
0000
0000
0000
0000
0000
0000
0000
0000
0000
1001
0000
0000
,
0000
0000
0000
0000
0000
0000
0000
0000
0000
0000
0000
0000
0000
0110
0000
0000
,
0000
0000
0000
0000
0000
0000
0000
0000
0000
0000
0000
0000
0000
0110
0000
0000
,
0000
0000
0000
0000
0000
0000
0000
0000
0000
0000
0000
0000
0000
0110
0000
0000
,
0000
0000
0000
0000
0000
0000
0000
0000
0000
0000
0000
0000
0000
0110
0000
0000
,
0000
0000
0000
0000
0000
0000
0000
0000
0000
0000
0000
0000
0000
0100
0000
0000
,
0000
0000
0000
0000
0000
0001
0000
0000
0000
0000
0000
0000
0000
0100
0000
0000
,
0000
0000
0000
0000
0000
0000
0000
0000
0000
0000
0000
0000
0000
0010
0000
0000
,
0000
0000
0000
0000
0000
1000
0000
0000
0000
0000
0000
0000
0000
0010
0000
0000
,
0000
0000
0000
0000
0000
0000
0000
0000
0000
0000
0000
0000
0000
1000
0000
0000
,
0000
0000
0000
0000
0000
0100
0000
0000
0000
0000
0000
0000
0000
1000
0000
0000
,
0000
0000
0000
0000
0000
0000
0000
0000
0000
0000
0000
0000
0000
0001
0000
0000
,
0000
0000
0000
0000
0000
1000
0000
0000
0000
0000
0000
0000
0000
0010
0000
0000
,
0000
0000
0000
0000
0000
0100
0000
0000
0000
0000
0000
0000
0000
0001
0000
0000
,
0000
0001
0000
0000
0000
0000
0000
1000
0000
0000
0000
0001
0000
0000
0000
0000
,
0000
0000
0000
1000
0000
0000
0000
0000
0000
0001
0000
0000
0000
1000
0000
0000
,
0000
1000
0000
0000
0000
0000
0000
0001
0000
0000
0000
1000
0000
0000
0000
0000
,
0000
0000
0000
0001
0000
0000
0000
0000
0000
1000
0000
0000
0000
0010
0000
0000
,
0000
0010
0000
0000
0000
0000
0000
0100
0000
0000
0000
0010
0000
0000
0000
0000
,
0000
0000
0000
0100
0000
0000
0000
0000
0000
0010
0000
0000
0000
0100
0000
0000
,
0000
0100
0000
0000
0000
0000
0000
0010
0000
0000
0000
0100
0000
0000
0000
0000
,
0000
0000
0000
0100
0000
0000
0000
0010
0000
0010
0000
0000
0000
0110
0000
0000
,
0000
0000
0000
0000
0000
0000
0000
0000
0000
0000
0000
0000
0000
1001
0000
0000
,
0000
0000
0000
0000
0000
0000
0000
0000
0000
0000
0000
0000
0000
0110
0000
0000
,
0000
0000
0000
0000
0000
0000
0000
0000
0000
0000
0000
0000
0000
1000
0000
0000
,
0000
0001
0000
0000
0000
1000
0000
0000
0000
0000
0000
0000
0000
1001
0000
0000
,
0000
0000
0000
0000
0000
0000
0000
0000
0000
0000
0000
0000
0000
1001
0000
0000
,
0000
0000
0000
0000
0000
0000
0000
0000
0000
0000
0000
0000
0000
1001
0000
0000
,
0000
0000
0000
0000
0000
1000
0000
0000
0000
0000
0000
0000
0000
0000
0000
0000
,
0000
0000
0000
0000
0000
1001
0000
0000
0000
0000
0000
0000
0000
0001
0000
0000
,
0000
0000
0000
0000
0000
0010
0000
0000
0000
0000
0000
0000
0000
0100
0000
0000
,
0000
0000
0000
0000
0000
1000
0000
0000
0000
0000
0000
0000
0000
0010
0000
0000
,
0000
0000
0000
0000
0000
0100
0000
0000
0000
0000
0000
0000
0000
0001
0000
0000
,
0000
0000
0000
0000
0000
1000
0000
0000
0000
0000
0000
0000
0000
0100
0000
0000
,
0000
0000
0000
0000
0000
0010
0000
0000
0000
0000
0000
0000
0000
0001
0000
0000
,
0000
0000
0000
0000
0000
1000
0000
0000
0000
0000
0000
0000
0000
0010
0000
0000
,
0000
0000
0000
0000
0000
0100
0000
0000
0000
0000
0000
0000
0000
0001
0000
0000
,
0000
0000
0000
0000
0000
1000
0000
0000
0000
0001
0000
0000
0000
1000
0000
0000
,
0000
0000
0000
0000
0000
0001
0000
0000
0000
1000
0000
0000
0000
0001
0000
0000
,
0000
0000
0000
0000
0000
0100
0000
0000
0000
0010
0000
0000
0000
0100
0000
0000
,
0000
0000
0000
0000
0000
0010
0000
0000
0000
0100
0000
0000
0000
0010
0000
0000
,
0000
0010
0000
0000
0000
0100
0000
0000
0000
1000
0000
0000
0000
0100
0000
0000
,
0000
0000
0000
0000
0000
0010
0000
0000
0000
0001
0000
0000
0000
0010
0000
0000
,
0000
0000
0000
0000
0000
0001
0000
0000
0000
0100
0000
0000
0000
0010
0000
0000
,
0000
1000
0000
0000
0000
0010
0000
0000
0000
0000
0000
0000
0000
0000
0000
0000
,
0000
0000
0000
0000
0000
1001
0000
0000
0000
0000
0000
0000
0000
0000
0000
0000
;

//--------------- dance-single - RaverAce ----------------
#NOTES:
     dance-single:
     RaverAce:
     Easy:
     11:
     0.411092,0.505145,0.347432,0,1.14426,381,335,46,0,0,0,0.411092,0.505145,0.347432,0,1.14426,381,335,46,0,0,0:
0000
0000
0000
0000
,
0000
0000
0000
0000
,
0000
0000
0000
0000
,
0000
0000
0000
0000
,
0000
0000
0000
0000
,
1001
1000
0001
1000
,
0010
0100
0010
0100
,
0001
0100
1000
0100
,
0001
0010
0100
0100
,
0010
0001
1000
0001
,
0100
0010
0100
0010
,
1000
0010
0001
0010
,
1000
0000
0000
0000
0100
0000
0000
0000
0010
0000
0000
0000
0110
1001
0000
0000
,
0000
0001
0000
0000
0000
1000
0000
0000
0000
0001
0000
0000
0000
0010
0000
0000
,
0000
0100
0000
0000
0000
0010
0000
0000
0000
0100
0000
0000
0000
1000
0000
0000
,
0000
0100
0000
0000
0000
0001
0000
0000
0000
0100
0000
0000
0000
1000
0000
0000
,
0000
0010
0000
0000
0000
0100
0000
0000
0000
0100
0000
0000
0000
0010
0000
0000
,
0000
1000
0000
0000
0000
0001
0000
0000
0000
1000
0000
0000
0000
0100
0000
0000
,
0000
0010
0000
0000
0000
0100
0000
0000
0000
0010
0000
0000
0000
0001
0000
0000
,
0000
0010
0000
0000
0000
1000
0000
0000
0000
0010
0000
0000
0000
0001
0000
0000
,
0000
0100
0000
0000
0000
0010
0000
0000
0000
0110
0000
0000
0000
1001
0000
0000
,
0000
0000
0000
0000
0000
0000
0000
0000
0000
0000
0000
1000
0000
0000
0000
0000
0000
0000
0000
0000
0000
0000
0000
0000
0000
0000
0000
0001
0000
0000
0000
0000
,
0000
0000
0000
0000
0000
0000
0000
0000
0000
0000
0000
0010
0000
0000
0000
0000
0000
0000
0000
0000
0000
0000
0000
0000
0000
0000
0110
0000
0000
0000
0000
0000
,
0000
0100
0000
0000
0000
0100
0000
0000
0000
0100
0000
0000
0000
0010
0000
0000
,
0000
0010
0000
0000
0000
0010
0000
0000
0000
0010
0000
0010
0000
0001
0000
0000
,
0000
0001
0000
0000
0000
0001
0000
0000
0000
0001
0000
0000
0000
1000
0000
0000
,
0000
1000
0000
0000
0000
1000
0000
0000
0000
0010
0000
0010
0000
0110
0000
0000
,
0000
0100
0000
0000
0000
0001
0000
0000
0000
1000
0000
0000
0000
0100
0000
0000
,
0000
0010
0000
0000
0000
0001
0000
0000
0000
1000
0000
0000
0000
0010
0000
0000
,
0000
0100
0000
0000
0000
0010
0000
0000
0000
1000
0000
0000
0000
0100
0000
0000
,
0000
0010
0000
0000
0000
0110
0000
0000
0000
0110
0000
0000
0000
0010
0000
0000
,
0000
0100
0000
0000
0000
1000
0000
0000
0000
0001
0000
0000
0000
0100
0000
0000
,
0000
0010
0000
0000
0000
1000
0000
0000
0000
0001
0000
0000
0000
0010
0000
0000
,
0000
0100
0000
0000
0000
0010
0000
0000
0000
0001
0000
0000
0000
0100
0000
0000
,
0000
0010
0000
0000
0000
0110
0000
0000
0000
0110
0000
0000
0000
1001
0000
0000
,
0000
1000
0000
0000
0000
0100
0000
0000
0000
0001
0000
0000
0000
0100
0000
0000
,
0000
1000
0000
0000
0000
0010
0000
0000
0000
0100
0000
0000
0000
0001
0000
0000
,
0000
0100
0000
0000
0000
0010
0000
0000
0000
1000
0000
0000
0000
0100
0000
0000
,
0000
1000
0000
0000
0000
0001
0000
0000
0000
0001
0000
0000
0000
0100
0000
0000
,
0000
0001
0000
0000
0000
0100
0000
0000
0000
1000
0000
0000
0000
0100
0000
0000
,
0000
0001
0000
0000
0000
0010
0000
0000
0000
0100
0000
0000
0000
1000
0000
0000
,
0000
0100
0000
0000
0000
0010
0000
0000
0000
0001
0000
0000
0000
0100
0000
0000
,
0000
0010
0000
0000
0000
0100
0000
0000
0000
0001
0000
0000
0000
1001
0000
0000
,
0000
1001
0000
0000
0000
0000
0000
1100
0000
0000
0000
0110
0000
0000
0000
0000
,
0000
0000
0000
0110
0000
0000
0000
0100
0000
0100
0000
0010
0000
0110
0000
0000
,
0000
0011
0000
0000
0000
0000
0000
1001
0000
0000
0000
0011
0000
0000
0000
0001
,
0000
1000
0000
0010
0000
0000
0000
1000
0000
1010
0000
0000
0000
1001
0000
0000
,
0000
1001
0000
0000
0000
0000
0000
0101
0000
0000
0000
0110
0000
0000
0000
0000
,
0000
0000
0000
0110
0000
0000
0000
0100
0000
0100
0000
0010
0000
0110
0000
0000
,
0000
1010
0000
0000
0000
0000
0000
1001
0000
0000
0000
1010
0000
0000
0000
1000
,
0000
0001
0000
0010
0000
0000
0000
0001
0000
0011
0000
0000
0000
1001
0000
0000
,
0000
1000
0000
0000
0000
1000
0000
0000
0000
0000
0000
0000
0000
0001
0000
0000
,
0000
0001
0000
0000
0000
0001
0000
0000
0000
0001
0000
1000
0000
0010
0000
0000
,
0000
0010
0000
0000
0000
0010
0000
0000
0000
0000
0000
0000
0000
0100
0000
0000
,
0000
0100
0000
0000
0000
0110
0000
0000
0000
0101
0000
0000
0000
1000
0000
0010
,
0000
1000
0000
0010
0000
1000
0000
0000
0000
0001
0000
0100
0000
0010
0000
0100
,
0000
0010
0000
0100
0000
0010
0000
0000
0000
0100
0000
0001
0000
0010
0000
0001
,
0000
0010
0000
0100
0000
1000
0000
0100
0000
0010
0000
0001
0000
0000
0000
1001
,
0000
0000
0000
0000
0000
0110
0000
0010
0000
1000
0000
0001
0000
1000
0000
0000
,
0000
0100
0000
0001
0000
0100
0000
1000
0000
0010
0000
0100
0000
0001
0000
0000
,
0000
1000
0000
0100
0000
0001
0000
0100
0000
1000
0000
0010
0000
0100
0000
0000
,
0000
0001
0000
0100
0000
1000
0000
0100
0000
0001
0000
0010
0000
0110
0000
0000
,
0000
1100
0000
0000
0000
0110
0000
0010
0000
0001
0000
1000
0000
0001
0000
0000
,
0000
0100
0000
1000
0000
0100
0000
0001
0000
0010
0000
0100
0000
1000
0000
0000
,
0000
0001
0000
0100
0000
1000
0000
0100
0000
0001
0000
0010
0000
0100
0000
0000
,
0000
1000
0000
0100
0000
0001
0000
0100
0000
1000
0000
0010
0000
0100
0000
0010
,
0000
0110
0000
0000
0000
1010
0000
1000
0000
0100
0000
0010
0000
0001
0000
0000
,
0000
0001
0000
0010
0000
1000
0000
0010
0000
0001
0000
0100
0000
0010
0000
0000
,
0000
0010
0000
1000
0000
0010
0000
0100
0000
0001
0000
1000
0000
0100
0000
0000
,
0000
0100
0000
0010
0000
0001
0000
1000
0000
0001
0000
0010
0000
0110
0000
0000
,
0000
1100
0000
0000
0000
0011
0000
0001
0000
0100
0000
0010
0000
1000
0000
0000
,
0000
1000
0000
0010
0000
0001
0000
0010
0000
1000
0000
0100
0000
0010
0000
0000
,
0000
0010
0000
0001
0000
0010
0000
0100
0000
1000
0000
0001
0000
0100
0000
0010
,
0000
0100
0000
0001
0000
1000
0000
0001
0000
1000
0000
0010
0000
0100
0000
0001
,
0000
0010
0000
0100
0000
0110
0000
0000
0000
0000
0000
0000
0000
0000
0000
0000
;

//--------------- dance-single - RaverAce ----------------
#NOTES:
     dance-single:
     RaverAce:
     Medium:
     14:
     0.629046,0.869973,0.354985,0,1.570997,583,536,47,0,0,0,0.629046,0.869973,0.354985,0,1.570997,583,536,47,0,0,0:
0000
0000
0000
0000
,
0000
0000
0000
0000
,
0000
0000
0000
0000
,
0000
0000
0000
0000
,
0000
0000
0000
0000
,
1001
0001
0100
0010
0100
0001
0100
0010
,
1000
0010
0100
0010
1000
0010
0100
0001
,
1000
0100
1000
0001
1000
0100
1000
0001
,
1000
0000
0010
0000
0100
0000
0001
0000
1000
0000
0010
0000
0100
0000
0001
1000
,
0001
1000
0100
0010
0100
1000
0100
0010
,
0001
0010
0100
0010
0001
0010
0100
1000
,
0001
0100
0001
1000
0001
0100
0001
1000
,
0001
0000
0010
0000
0100
0000
1000
0000
0001
1000
0001
0000
1000
0001
0000
0100
,
0000
0001
0000
0100
0000
0010
0000
0100
0000
0001
0000
0100
0000
0010
0000
1000
,
0000
0010
0000
1000
0000
0010
0000
0100
0000
0010
0000
1000
0000
0100
0000
1000
,
0000
0100
0000
1000
0000
0100
0000
0010
0000
0100
0000
1000
0000
0001
0000
1000
,
0000
0001
0000
1000
0000
0010
0000
0100
0000
0001
0000
0010
0100
0010
0000
0100
,
0000
1000
0000
0100
0000
0010
0000
0100
0000
1000
0000
0100
0000
0010
0000
0001
,
0000
0010
0000
0001
0000
0010
0000
0100
0000
0010
0000
0001
0000
0100
0000
0001
,
0000
0100
0000
0001
0000
0100
0000
0010
0000
0100
0000
0001
0000
1000
0000
0001
,
0000
1000
0000
0001
0000
0010
0100
0010
0000
0110
0000
0000
0000
1100
0000
0000
,
0000
0000
0000
0001
0000
0000
0000
0000
0000
0000
0000
0100
0000
0000
0000
0000
0000
0000
0000
0010
0000
0000
0000
0000
0000
0000
0000
1000
0000
0000
0000
0000
,
0000
0000
0000
0001
0000
0000
0000
0000
0000
0000
0000
0100
0000
0000
0000
0000
0000
0000
0000
1000
0000
0000
0000
0000
0000
0000
0100
0000
0000
0000
0001
0000
,
0000
0010
0000
0100
0010
0100
0000
1000
0000
0010
0000
0100
0010
0100
0000
0001
,
0000
0010
0000
0100
0010
0100
0000
1000
0000
1001
0000
0101
0000
1000
0100
0010
,
0001
1000
0000
0001
0100
0010
1000
0010
0100
0001
0000
1000
0100
0010
0100
1000
,
0001
0100
0000
0010
1000
0010
0100
0001
0010
0011
0000
1100
0000
1001
0000
1000
,
0000
0100
0000
0010
0000
0001
0000
0000
0000
1000
0000
0001
0000
0100
0000
0010
,
0000
1000
0000
0100
0000
0001
0000
0000
0000
0001
0000
0100
0000
1000
0000
0010
,
0000
0100
0000
0001
0000
1000
0000
0000
0000
1000
0000
0010
0000
0001
0000
0010
,
0000
1000
0000
0100
0000
0110
0000
0000
0000
1100
0000
0000
0000
1000
0000
0001
,
0000
0100
0000
0010
0000
1000
0000
0000
0000
0001
0000
1000
0000
0100
0000
0010
,
0000
0001
0000
0100
0000
1000
0000
0000
0000
1000
0000
0100
0000
0001
0000
0010
,
0000
0100
0000
1000
0000
0001
0000
0000
0000
0001
0000
0010
0000
1000
0000
0010
,
0000
0001
0000
0100
0000
0010
0100
0010
0000
0110
0000
0000
0000
0101
0000
0001
,
0000
0100
0000
0001
0000
0100
0000
1000
0000
0100
0000
1000
0000
0100
0000
0001
,
0000
0100
0000
0001
0000
0010
0000
0001
0000
0010
0000
1000
0000
0010
0000
0001
,
0000
0010
0000
0001
0000
0010
0000
1000
0000
0010
0000
1000
0000
0010
0000
0001
,
0000
0100
0000
0010
0000
1000
0000
0010
0000
0010
0000
1000
0000
0100
0000
1000
,
0000
0100
0000
1000
0000
0100
0000
0001
0000
0100
0000
0001
0000
0100
0000
1000
,
0000
0100
0000
1000
0000
0010
0000
1000
0000
0010
0000
0001
0000
0010
0000
1000
,
0000
0010
0000
1000
0000
0010
0000
0001
0000
0010
0000
0001
0000
0010
0000
1000
,
0000
0100
0000
0010
0000
0001
0010
0001
0000
1000
0000
0010
0000
0110
0000
0000
,
0000
1010
0000
0000
0000
1000
0000
1100
0000
0000
0000
0110
0000
0000
0000
0010
,
0000
0001
0000
0011
0000
0000
0000
0001
0000
1001
0000
1000
0000
1001
0000
0000
,
0000
1010
0000
0000
0000
0010
0000
0110
0000
0000
0000
0101
0000
0000
0000
0001
,
0000
1000
0000
1001
0000
0000
0000
0001
0000
0011
0000
0000
0000
0110
0000
0000
,
0000
0011
0000
0000
0000
0001
0000
0101
0000
0000
0000
0110
0000
0000
0000
0010
,
0000
1000
0000
1010
0000
0000
0000
1000
0000
1001
0000
0001
0000
1001
0000
0000
,
0000
0011
0000
0000
0000
0010
0000
0110
0000
0000
0000
1100
0000
0000
0000
1000
,
0000
0001
0000
1001
0000
0000
0000
1000
0000
1010
0000
0000
0000
0101
0000
0001
,
0000
0100
0000
0010
0000
0100
0000
0000
0000
0001
0000
0100
0000
0010
0000
1000
,
0000
0010
0000
0100
0000
0010
0000
0000
0000
1000
0000
0010
0000
0100
0000
0001
,
0000
0100
0000
1000
0000
0100
0000
0000
0000
0001
0000
0010
0000
0100
0000
1000
,
0000
0100
0000
0010
0000
0011
0000
0000
0000
1100
0000
0000
0000
1001
0000
1000
,
0000
0010
0000
0100
0000
0001
0000
0010
0000
0100
0000
1000
0000
0100
0000
0001
,
0000
0100
0000
1000
0000
1100
0000
0000
0000
0100
0000
1000
0000
0001
0000
0100
,
0000
1000
0000
0100
0000
0001
0000
0010
0000
0100
0000
0010
0000
0000
0000
0110
,
0000
0000
0000
0000
0000
1001
0000
1000
0001
0000
1000
0001
0000
1000
0000
0000
,
0000
0100
0000
1000
0000
0100
0000
0010
0100
0000
0010
0100
0000
0010
0000
0000
,
0000
0001
0000
0010
0000
0100
0000
1000
0001
0000
1000
0001
0000
0100
0000
0000
,
0000
0010
0000
1000
0000
0010
0000
0100
0010
0000
0100
0010
0000
0100
0000
0001
,
0000
1000
0000
0000
0000
1000
0000
0001
1000
0000
0001
1000
0000
0001
0000
0000
,
0000
0100
0000
0001
0000
0100
0000
0010
0100
0000
0010
0100
0000
0010
0000
0000
,
0000
1000
0000
0010
0000
0100
0000
0001
1000
0000
0001
1000
0000
0100
0000
0000
,
0000
0010
0000
0001
0000
0010
0000
0100
0010
0000
0100
0010
0000
0100
1000
0100
,
0000
1100
0000
0000
0000
1001
0000
0001
0100
0000
0001
0100
0000
0001
0000
0000
,
0000
0100
0000
0010
0000
1000
0000
0100
1000
0000
0100
1000
0000
0100
0000
0000
,
0000
0010
0000
0001
0000
1000
0000
0010
1000
0000
0010
1000
0000
0010
0000
0000
,
0000
0100
0000
0001
0000
1000
0000
0100
0010
0000
0100
0010
0000
0011
0000
0000
,
0000
0101
0000
0000
0000
0001
0000
1000
0100
0000
1000
0100
0000
1000
0000
0000
,
0000
0100
0000
0010
0000
0001
0000
0100
0001
0000
0100
0001
0000
0100
0000
0000
,
0000
0010
0000
1000
0000
0001
0000
0010
0001
0000
0010
0001
0000
0010
0000
0100
,
0000
1000
0000
0001
0000
1000
0001
1000
0001
1000
0001
1000
0001
1000
0001
1000
,
0001
1000
0001
1000
0001
1000
0000
0000
0000
0000
0000
0000
0000
0000
0000
0000
;

//--------------- dance-single - RaverAce ----------------
#NOTES:
     dance-single:
     RaverAce:
     Hard:
     16:
     0.831895,1.431245,0.453172,0,1.752266,771,711,60,0,0,0,0.831895,1.431245,0.453172,0,1.752266,771,711,60,0,0,0:
0000
0000
0000
0000
,
0000
0000
0000
0000
,
0000
0000
0000
0000
,
0000
0000
0000
0000
,
0000
0000
0000
0000
,
1001
0000
0001
0000
0100
0000
1000
0000
0100
0000
0001
0000
0010
0000
0100
1000
,
0001
0000
0100
0000
0010
0000
1000
0000
0010
0000
0100
0000
0001
0000
1000
0100
,
0010
0000
0001
0000
0010
0000
0100
0000
0010
0000
0001
0000
0100
0000
0010
1000
,
0001
0000
0100
0000
0010
0000
1000
0000
0100
0000
0001
0000
0100
0000
1000
0001
,
0100
0000
0010
0000
1000
0000
0010
0000
0001
0000
0010
0000
1000
0000
0100
0010
,
0001
0000
1000
0000
0100
0000
0010
0000
0001
0000
1000
0000
0010
0000
0100
0001
,
1000
0000
0010
0000
0100
0000
0010
0000
1000
0000
0001
0000
1000
0000
0100
0010
,
0001
0000
0010
0000
1000
0000
0010
0000
0001
0010
0001
0000
0101
0110
0000
0010
,
0100
0010
0000
1000
0010
1000
0000
0001
1000
0001
0000
1000
0100
0010
0000
0001
,
0010
0001
0000
0010
0100
0010
0000
0100
1000
0100
0000
1000
0001
0100
0000
0010
,
0100
0010
0000
0100
0001
0100
0000
0001
1000
0001
0000
1000
0010
0100
0000
0001
,
1000
0001
0000
1000
0100
1000
0000
0100
0010
0100
0000
1000
0100
0010
0000
0010
,
0001
0010
0000
0001
0100
0001
0000
0100
0010
0100
0000
0010
1000
0001
0000
1000
,
0001
1000
0000
0010
0100
0010
0000
0100
0001
0100
0000
0001
1000
0010
0000
1000
,
0001
1000
0000
0001
0010
0001
0000
0010
0100
0010
0000
0010
0100
1000
0000
0001
,
1000
0000
0000
0000
0001
0000
0000
0000
0000
0000
0000
0000
0100
0000
0000
0000
0000
0000
0000
0000
0001
0000
0000
0000
0100
0000
0000
0000
0010
0000
0000
0000
0000
0000
0000
0000
1010
0000
0000
0000
0000
0000
0000
0000
0000
0000
0000
0000
0000
0000
0000
0000
0101
0000
0001
0000
0000
0001
0000
0000
0001
0000
0000
0000
,
0010
0000
0100
0000
1000
0000
0010
0000
0000
0010
0000
0000
0010
0000
0000
0000
0010
0000
0100
0000
0001
0000
1000
0000
0000
1000
0000
0000
1000
0000
0000
0000
1000
0000
0100
0000
0010
0000
0100
0000
0000
0100
0000
0000
0100
0000
0000
0000
0110
0000
0000
0000
0000
0000
1000
0000
0000
1000
0000
0000
1000
0000
0000
0000
,
0100
0000
0010
0000
0001
0000
0100
0000
0000
0100
0000
0000
0100
0000
0000
0000
0100
0000
0010
0000
1000
0000
0001
0000
0000
0001
0000
0000
0001
0000
0000
0000
0001
0000
0010
0000
0100
0000
0010
0000
0000
0010
0000
0000
0010
0000
0000
0000
1001
0000
0001
0000
1001
0000
0000
0000
1000
0000
0010
0000
0000
0000
1000
0000
,
0001
0000
1000
0000
0000
0000
0100
0000
0010
0000
0001
0000
0100
0010
0000
0100
0001
0000
1000
0000
0000
0000
0100
0000
0010
0000
0001
0000
1000
0010
0000
0100
,
0010
0000
0100
0000
0000
0000
0001
0000
0100
0000
1000
0000
0100
0001
0000
0010
0100
0000
1100
0000
0000
0000
0011
0000
0000
0000
1000
0000
0001
0010
0000
0001
,
1000
0000
0001
0000
0000
0000
0100
0000
0010
0000
1000
0000
0100
0010
0000
0100
1000
0000
0001
0000
0000
0000
0100
0000
0010
0000
1000
0000
0001
0010
0000
0100
,
0010
0000
0100
0000
0000
0000
1000
0000
0100
0000
0001
0000
0100
1000
0000
0010
0100
0000
0101
0000
0000
0000
1010
0000
0000
0000
1001
0000
0000
0000
1000
0000
,
0100
0000
0010
0100
0000
1100
0000
0000
0000
1000
0000
0001
0000
0101
0000
0100
,
0010
0000
0100
0001
0000
0101
0000
0000
0000
0001
0000
1000
0000
0010
0000
0100
,
0001
0000
1000
0100
0000
0110
0000
0000
0000
0001
0000
1000
0000
0010
0000
0100
,
0010
0000
1000
0010
0000
1010
0000
0000
0000
1100
0000
0000
0000
1000
0000
0001
,
0100
0000
0010
0100
0000
0101
0000
0000
0000
0001
0000
1000
0000
1100
0000
0100
,
0010
0000
0100
1000
0000
1100
0000
0000
0000
1000
0000
0001
0000
0010
0000
0100
,
1000
0000
0001
0100
0000
0110
0000
0000
0000
1000
0000
0001
0000
0010
0000
0100
,
0010
0000
0001
0010
0000
0001
0100
0001
0000
0101
0000
0000
0000
1001
0000
0000
,
1000
0010
0000
0000
0010
0001
0000
0000
0001
0010
0000
0000
0010
1000
0000
0000
,
1000
0100
0000
0000
0100
0001
0000
0100
0000
1000
0000
0010
0000
0100
0000
0000
,
0100
0001
0000
0000
0001
0010
0000
0000
0010
1000
0000
0000
1000
0010
0000
0000
,
0010
0001
0000
0000
0001
0100
0000
1000
0000
0100
0000
0100
0000
0001
0000
0000
,
0001
0100
0000
0000
0100
1000
0000
0000
1000
0100
0000
0000
0100
0001
0000
0000
,
0001
0010
0000
0000
0010
1000
0000
0010
0000
0001
0000
0100
0000
0010
0000
0000
,
0010
1000
0000
0000
1000
0100
0000
0000
0100
0001
0000
0000
0001
0100
0000
0000
,
0100
1000
0000
0100
1000
0100
0010
0001
0000
1000
0000
0001
0000
1000
0001
0100
,
0000
0001
1000
0100
0010
0001
0000
1001
0000
0000
0000
1000
0010
0100
0001
0010
,
0000
0100
0000
1000
0100
0010
0000
0011
0000
1001
0000
1000
0000
0010
1000
0001
,
0000
0010
0001
1000
0010
0100
0000
0110
0000
0000
0000
0010
0100
0001
1000
0100
,
0000
0010
0000
0100
1000
0001
0000
1001
0000
1010
0000
0000
0000
0001
1000
0100
,
0000
1000
0001
0100
0010
1000
0000
1001
0000
0000
0000
0001
0010
0100
1000
0010
,
0000
0100
0000
0001
0100
0010
0000
1010
0000
1001
0000
0001
0000
0010
0001
1000
,
0000
0010
1000
0001
0010
0100
0000
0110
0000
0010
0000
0100
1000
0001
0100
0010
,
0000
0100
0000
0100
0001
1000
0000
1010
0000
0010
0100
0001
0010
0110
0000
0100
,
0010
0000
0100
0010
0000
0100
0000
0000
0000
0010
0000
0100
0000
1000
0000
0001
,
1000
0000
0001
1000
0000
0001
0000
0000
0000
1000
0000
0100
0000
0010
0000
0100
,
1000
0000
0100
1000
0000
0100
0000
0000
0000
0010
0000
0001
0000
0100
0000
0010
,
1000
0000
0010
1000
0000
1010
0000
0000
0000
0101
0000
0001
1000
0001
0000
0010
,
0100
0000
0010
0100
0000
1000
0000
0001
0000
0010
0000
0100
0000
1000
0000
0100
,
0000
0001
0000
0100
0000
1100
0000
0000
0000
1000
0000
0010
0000
0100
0000
0010
,
0100
0000
0000
0000
0010
0000
0100
0000
0000
0000
0001
0000
0000
0000
1000
0000
0000
0000
0100
0000
0000
0000
0010
0000
0000
0000
0001
1000
0001
1000
0010
0100
,
0010
0100
0001
1000
0100
0010
0001
1000
0010
0100
0110
0000
0000
0000
0010
0000
1000
0000
0000
0000
0010
0000
0100
0000
0000
0000
0001
0000
0000
0000
0100
0000
,
0000
1000
0000
0100
0000
0001
0000
0010
0100
0000
1000
0100
0000
0010
0000
0001
,
0000
0010
0000
1000
0000
0010
0000
0001
0100
0000
0010
0100
0000
0001
0000
1000
,
0000
0100
0000
0001
0000
0100
0000
1000
0100
0000
0010
0001
0000
1000
0000
0100
,
0000
1100
0000
0000
0000
0100
0000
0010
0001
0000
0010
0100
0000
1000
0000
0100
,
0000
0001
0000
0100
0000
1000
0000
0010
0100
0000
0001
0100
0000
0010
0000
1000
,
0000
0010
0000
0001
0000
0010
0000
1000
0100
0000
0010
0100
0000
1000
0000
0001
,
0000
0100
0000
1000
0000
0100
0000
0001
0100
0000
0010
1000
0000
0001
1000
0001
,
0000
0101
0000
0000
0000
0011
0000
0010
0100
0000
1000
0100
0000
0110
0000
0010
,
0000
0001
0000
1001
0000
1000
0000
0010
0100
0000
0010
1000
0000
1001
0000
0001
,
0000
0100
0000
0110
0000
0010
0000
1000
0001
0000
0010
0100
0000
0110
0000
0010
,
0000
0001
0000
1001
0000
1000
0000
0010
0100
0000
0001
1000
0000
1001
0000
0000
,
0000
0101
0000
0000
0000
1000
0000
0010
0100
0000
0001
0100
0000
0110
0000
0010
,
0000
1000
0000
1001
0000
0001
0000
0010
0100
0000
0010
0001
0000
1001
0000
1000
,
0000
0100
0000
0110
0000
0010
0000
0001
1000
0000
0010
0100
0000
0110
0000
0010
,
0000
0100
0000
0101
0000
0001
0100
0001
0100
0010
1000
0010
1000
0100
0010
0001
,
0010
0100
1000
0100
0010
1001
0000
0000
0000
0000
0000
0000
0000
0000
0000
0000
;

//--------------- dance-double - RaverAce ----------------
#NOTES:
     dance-double:
     RaverAce:
     Easy:
     9:
     0.21148,0.3087,0.113293,0,0.649547,196,181,15,0,0,0,0.21148,0.3087,0.113293,0,0.649547,196,181,15,0,0,0:
00000000
00000000
00000000
00000000
,
00000000
00000000
00000000
00000000
,
00000000
00000000
00000000
00000000
,
00000000
00000000
00000000
00000000
,
00000000
00000000
00000000
00000000
,
00001001
00000000
00000000
00000000
,
00001000
00000000
00000000
00000000
,
00010000
00000000
00000000
00000000
,
00100000
00000000
00000000
00000000
,
01000000
00000000
00000000
00000000
,
10000000
00000000
00000000
00000000
,
00100000
00000000
00000000
00000000
,
01000000
00000000
00000000
00000000
00000000
00000000
00000000
00000000
00010000
00000000
00000000
00000000
00000000
01010000
00000000
00000000
,
00000000
00000000
00000000
00000000
00000000
00000000
00000000
00000000
00000000
00000000
00000000
00000000
00000000
01000000
00000000
00000000
,
00000000
00000000
00000000
00000000
00000000
00000000
00000000
00000000
00000000
00000000
00000000
00000000
00000000
00100000
00000000
00000000
,
00000000
00000000
00000000
00000000
00000000
00000000
00000000
00000000
00000000
00000000
00000000
00000000
00000000
10000000
00000000
00000000
,
00000000
00000000
00000000
00000000
00000000
00000000
00000000
00000000
00000000
00000000
00000000
00000000
00000000
01000000
00000000
00000000
,
00000000
00000000
00000000
00000000
00000000
00000000
00000000
00000000
00000000
00000000
00000000
00000000
00000000
00100000
00000000
00000000
,
00000000
00000000
00000000
00000000
00000000
00000000
00000000
00000000
00000000
00000000
00000000
00000000
00000000
00010000
00000000
00000000
,
00000000
00000000
00000000
00000000
00000000
00000000
00000000
00000000
00000000
00000000
00000000
00000000
00000000
00001000
00000000
00000000
,
00000000
00000000
00000000
00000000
00000000
00000100
00000000
00000000
00000000
00000100
00000000
00000000
00000000
00001100
00000000
00000000
,
00000000
00000000
00000000
00000000
00000000
00000000
00000000
00000000
00000000
00000000
00000000
00001000
00000000
00000000
00000000
00000000
00000000
00000000
00000000
00000000
00000000
00000000
00000000
00000000
00000000
00000000
00000000
00000001
00000000
00000000
00000000
00000000
,
00000000
00000000
00000000
00000000
00000000
00000000
00000000
00000000
00000000
00000000
00000000
00000100
00000000
00000000
00000000
00000000
00000000
00000000
00000000
00000000
00000000
00000000
00000000
00000000
00000000
00000000
00000110
00000000
00000000
00000000
00000000
00000000
,
00000000
00000010
00000000
00000000
00000000
00000010
00000000
00000000
00000000
00000000
00000000
00000000
00000000
00001000
00000000
00000000
,
00000000
00001000
00000000
00000000
00000000
00001000
00000000
00000000
00000000
00000100
00000000
00000000
00000000
00010000
00000000
00000000
,
00000000
00010000
00000000
00000000
00000000
00010000
00000000
00000000
00000000
00000000
00000000
00000000
00000000
00100000
00000000
00000000
,
00000000
00100000
00000000
00000000
00000000
00100000
00000000
00000000
00000000
01000000
00000000
01000000
00000000
11000000
00000000
00000000
,
00000000
00000000
00000000
00000000
00000000
10000000
00000000
00000000
00000000
00000000
00000000
00000000
00000000
00010000
00000000
00000000
,
00000000
00000000
00000000
00000000
00000000
01000000
00000000
00000000
00000000
00000000
00000000
00000000
00000000
00001000
00000000
00000000
,
00000000
00000000
00000000
00000000
00000000
00010000
00000000
00000000
00000000
00000000
00000000
00000000
00000000
00000100
00000000
00000000
,
00000000
00000000
00000000
00000000
00000000
00000010
00000000
00000000
00000000
00000010
00000000
00000000
00000000
00000001
00000000
00000000
,
00000000
00000000
00000000
00000000
00000000
00000100
00000000
00000000
00000000
00000000
00000000
00000000
00000000
00000010
00000000
00000000
,
00000000
00000000
00000000
00000000
00000000
00001000
00000000
00000000
00000000
00000000
00000000
00000000
00000000
00010000
00000000
00000000
,
00000000
00000000
00000000
00000000
00000000
00001000
00000000
00000000
00000000
00000000
00000000
00000000
00000000
00000100
00000000
00000000
,
00000000
00000000
00000000
00000000
00000000
00000010
00000000
00000000
00000000
00000010
00000000
00000000
00000000
00000001
00000000
00000000
,
00000000
00000000
00000000
00000000
00000000
00000100
00000000
00000000
00000000
00000000
00000000
00000000
00000000
00000010
00000000
00000000
,
00000000
00000000
00000000
00000000
00000000
00001000
00000000
00000000
00000000
00000000
00000000
00000000
00000000
00010000
00000000
00000000
,
00000000
00000000
00000000
00000000
00000000
00100000
00000000
00000000
00000000
00000000
00000000
00000000
00000000
01000000
00000000
00000000
,
00000000
00000000
00000000
00000000
00000000
10000000
00000000
00000000
00000000
00000000
00000000
00000000
00000000
01000000
00000000
00000000
,
00000000
00000000
00000000
00000000
00000000
00100000
00000000
00000000
00000000
00000000
00000000
00000000
00000000
00010000
00000000
00000000
,
00000000
00000000
00000000
00000000
00000000
00001000
00000000
00000000
00000000
00000000
00000000
00000000
00000000
00000100
00000000
00000000
,
00000000
00000000
00000000
00000000
00000000
00000010
00000000
00000000
00000000
00000000
00000000
00000000
00000000
00000001
00000000
00000000
,
00000000
00000000
00000000
00000000
00000000
00000100
00000000
00000000
00000000
00000101
00000000
00000000
00000000
00000001
00000000
00000000
,
00000000
00000001
00000000
00000000
00000000
00000000
00000000
00000100
00000000
00000000
00000000
00000010
00000000
00000000
00000000
00000000
,
00000000
00000000
00000000
00000010
00000000
00000000
00000000
00000010
00000000
00000100
00000000
00000000
00000000
00000100
00000000
00000000
,
00000000
00000100
00000000
00000000
00000000
00000000
00000000
00000000
00000000
00000001
00000000
00000000
00000000
00001000
00000000
00000000
,
00000000
00000000
00000000
00010000
00000000
00000000
00000000
00100000
00000000
01000000
00000000
00000000
00000000
10000000
00000000
00000000
,
00000000
10000000
00000000
00000000
00000000
00000000
00000000
01000000
00000000
00000000
00000000
00100000
00000000
00000000
00000000
00000000
,
00000000
00000000
00000000
00100000
00000000
00000000
00000000
00100000
00000000
01000000
00000000
00000000
00000000
01000000
00000000
00000000
,
00000000
01000000
00000000
00000000
00000000
00000000
00000000
00000000
00000000
10000000
00000000
00000000
00000000
00010000
00000000
00000000
,
00000000
00000000
00000000
00001000
00000000
00000000
00000000
00000010
00000000
00000100
00000000
00000000
00000000
00000001
00000000
00000000
,
00000000
00000001
00000000
00000000
00000000
00000001
00000000
00000000
00000000
00000000
00000000
00000000
00000000
00001000
00000000
00000000
,
00000000
00001000
00000000
00000000
00000000
00001000
00000000
00000000
00000000
00000000
00000000
00000000
00000000
00000100
00000000
00000000
,
00000000
00000100
00000000
00000000
00000000
00000100
00000000
00000000
00000000
00000000
00000000
00000000
00000000
00010000
00000000
00000000
,
00000000
00010000
00000000
00000000
00000000
00011000
00000000
00000000
00000000
00011000
00000000
00000000
00000000
00001000
00000000
00000000
,
00000000
00001000
00000000
00000000
00000000
00001000
00000000
00000000
00000000
00010000
00000000
00000000
00000000
01000000
00000000
00000000
,
00000000
01000000
00000000
00000000
00000000
01000000
00000000
00000000
00000000
00010000
00000000
00000000
00000000
00001000
00000000
00000000
,
00000000
00010000
00000000
00000000
00000000
00001000
00000000
00000000
00000000
00010000
00000000
00000000
00000000
00011000
00000000
00000000
,
00000000
00000000
00000000
00000000
00000000
00011000
00000000
00000000
00000000
00001000
00000000
00000000
00000000
00010000
00000000
00000000
,
00000000
00000000
00000000
00000000
00000000
00100000
00000000
00000000
00000000
01000000
00000000
00000000
00000000
10000000
00000000
00000000
,
00000000
00000000
00000000
00000000
00000000
00100000
00000000
00000000
00000000
01000000
00000000
00000000
00000000
00010000
00000000
00000000
,
00000000
00000000
00000000
00000000
00000000
00010000
00000000
00000000
00000000
01000000
00000000
00000000
00000000
00100000
00000000
00000000
,
00000000
10000000
00000000
00000000
00000000
01000000
00000000
00000000
00000000
00010000
00000000
00000000
00000000
00001000
00000000
00000000
,
00000000
00000000
00000000
00000000
00000000
00001000
00000000
00000000
00000000
00000100
00000000
00000000
00000000
00000010
00000000
00000000
,
00000000
00000000
00000000
00000000
00000000
00000010
00000000
00000000
00000000
00000001
00000000
00000000
00000000
00000100
00000000
00000000
,
00000000
00000000
00000000
00000000
00000000
00000100
00000000
00000000
00000000
00000010
00000000
00000000
00000000
00001000
00000000
00000000
,
00000000
00000001
00000000
00000000
00000000
00000101
00000000
00000000
00000000
00000100
00000000
00000000
00000000
00000010
00000000
00000000
,
00000000
00000000
00000000
00000000
00000000
00000100
00000000
00000000
00000000
00000001
00000000
00000000
00000000
00000010
00000000
00000000
,
00000000
00000000
00000000
00000000
00000000
00000100
00000000
00000000
00000000
00001000
00000000
00000000
00000000
00010000
00000000
00000000
,
00000000
00000000
00000000
00000000
00000000
00100000
00000000
00000000
00000000
01000000
00000000
00000000
00000000
10010000
00000000
00000000
,
00000000
10010000
00000000
00000000
00000000
11000000
00000000
00000000
00000000
01000000
00000000
00000000
00000000
00100000
00000000
00000000
,
00000000
00000000
00000000
00000000
00000000
01000000
00000000
00000000
00000000
10000000
00000000
00000000
00000000
00100000
00000000
00000000
,
00000000
00000000
00000000
00000000
00000000
01000000
00000000
00000000
00000000
00010000
00000000
00000000
00000000
00001000
00000000
00000000
,
00000000
00000100
00000000
00000000
00000000
00000010
00000000
00000000
00000000
00000100
00000000
00000000
00000000
00000010
00000000
00000000
,
00000000
00000100
00000000
00000000
00000000
00000110
00000000
00000000
00000000
00000000
00000000
00000000
00000000
00000000
00000000
00000000
;

//--------------- dance-double - RaverAce ----------------
#NOTES:
     dance-double:
     RaverAce:
     Medium:
     13:
     0.451014,0.505145,0.302115,0,1.299094,418,378,40,0,0,0,0.451014,0.505145,0.302115,0,1.299094,418,378,40,0,0,0:
00000000
00000000
00000000
00000000
,
00000000
00000000
00000000
00000000
,
00000000
00000000
00000000
00000000
,
00000000
00000000
00000000
00000000
,
00000000
00000000
00000000
00000000
,
10010000
10000000
01000000
00100000
,
00010000
00001000
00000100
00001000
,
00000001
00000100
00000010
00001000
,
00000100
00000010
00000100
00001000
,
00000010
00000100
00000001
00000010
,
00000100
00001000
00000100
00000001
,
00000100
00001000
00000010
00001000
,
00000001
00000000
00000000
00000000
00001000
00000000
00000100
00000000
00000010
00000100
00000010
00000000
00000110
00000011
00000000
00000000
,
00000000
00000001
00000000
00000000
00000000
00000100
00000000
00000000
00000000
00000010
00000000
00001000
00000000
00000100
00000000
00000000
,
00000000
00000010
00000000
00000000
00000000
00000001
00000000
00000000
00000000
00000010
00000000
00000100
00000000
00001000
00000000
00000000
,
00000000
00010000
00000000
00000000
00000000
01000000
00000000
00000000
00000000
10000000
00000000
00010000
00000000
01000000
00000000
00000000
,
00000000
00100000
00000000
00000000
00000000
10000000
00000000
00000000
00000000
01000000
00000000
00100000
00000000
00010000
00000000
00000000
,
00000000
00001000
00000000
00000000
00000000
00000100
00000000
00000000
00000000
00000010
00000000
00000001
00000000
00000100
00000000
00000000
,
00000000
00000010
00000000
00000000
00000000
00001000
00000000
00000000
00000000
00000100
00000000
00001000
00000000
00000100
00000000
00000000
,
00000000
00000010
00000000
00000000
00000000
00000001
00000000
00000000
00000000
00000100
00000000
00000010
00000000
00010000
00000000
00000000
,
00000000
00001000
00000000
00010000
00000000
00100000
00000000
01000000
00000000
00100000
00000000
00000000
00000000
00110000
00000000
00000000
,
00000000
00000000
00000000
00010000
00000000
00000000
00000000
00000000
00000000
00000000
00000000
00010000
00000000
00000000
00000000
00000000
00000000
00000000
00000000
01000000
00000000
00000000
00000000
00000000
00000000
00000000
00000000
10000000
00000000
00000000
00000000
00000000
,
00000000
00000000
00000000
10000000
00000000
00000000
00000000
00000000
00000000
00000000
00000000
01000000
00000000
00000000
00000000
00000000
00000000
00000000
00000000
00010000
00000000
00000000
00000000
00000000
00000000
00000000
10010000
00000000
00000000
00000000
10000000
00000000
,
00000000
01000000
00000000
00000000
00000000
01000000
00000000
00100000
00000000
00010000
00000000
00000000
00000000
00010000
00000000
00001000
,
00000000
00000100
00000000
00000000
00000000
00000100
00000000
00000010
00000000
00000011
00000000
00000011
00000000
00000001
00000000
00000100
,
00000000
00000010
00000000
00000000
00000000
00000010
00000000
00001000
00000000
00010000
00000000
00000000
00000000
00010000
00000000
00100000
,
00000000
01000000
00000000
00000000
00000000
01000000
00000000
10000000
00000000
10100000
00000000
01010000
00000000
00011000
00000000
00000000
,
00000000
00001000
00000000
00000000
00000000
00100000
00000000
00000000
00000000
01000000
00000000
00100000
00000000
01000000
00000000
00000000
,
00000000
10000000
00000000
00000000
00000000
01000000
00000000
00000000
00000000
00100000
00000000
01000000
00000000
00100000
00000000
00000000
,
00000000
00010000
00000000
00000000
00000000
01000000
00000000
00000000
00000000
00001000
00000000
00010000
00000000
00001000
00000000
00000000
,
00000000
00010000
00000000
00000000
00000000
00101000
00000000
00000000
00000000
00010100
00000000
00000000
00000000
00011000
00000000
00000000
,
00000000
00010000
00000000
00000000
00000000
00000010
00000000
00000000
00000000
00000100
00000000
00000010
00000000
00000100
00000000
00000000
,
00000000
00000001
00000000
00000000
00000000
00000100
00000000
00000000
00000000
00000010
00000000
00000100
00000000
00000010
00000000
00000000
,
00000000
00001000
00000000
00000000
00000000
00000100
00000000
00000000
00000000
00010000
00000000
00001000
00000000
00010000
00000000
00000000
,
00000000
00001000
00000000
00000000
00000000
00101000
00000000
00000000
00000000
00010100
00000000
00000000
00000000
00001100
00000000
00000000
,
00000000
00001000
00000000
00000000
00000000
00000010
00000000
00000000
00000000
00000100
00000000
00000000
00000000
00000001
00000000
00000000
,
00000000
00000010
00000000
00000000
00000000
00000100
00000000
00000000
00000000
00001000
00000000
00000000
00000000
00000100
00000000
00000000
,
00000000
00000001
00000000
00000000
00000000
00000100
00000000
00000000
00000000
00001000
00000000
00000000
00000000
00000010
00000000
00000000
,
00000000
00010000
00000000
00000000
00000000
00001000
00000000
00000000
00000000
01000000
00000000
00000000
00000000
00100000
00000000
00000000
,
00000000
10000000
00000000
00000000
00000000
00100000
00000000
00000000
00000000
01000000
00000000
00000000
00000000
00010000
00000000
00000000
,
00000000
00100000
00000000
00000000
00000000
01000000
00000000
00000000
00000000
00010000
00000000
00000000
00000000
00100000
00000000
00000000
,
00000000
01000000
00000000
00000000
00000000
10000000
00000000
00000000
00000000
00010000
00000000
00000000
00000000
01000000
00000000
00000000
,
00000000
00001000
00000000
00000000
00000000
01000000
00000000
00001000
00000000
01000000
00000000
00000000
00000000
01001000
00000000
00000000
,
00000000
01001000
00000000
00000000
00000000
00000000
00000000
01100000
00000000
00000000
00000000
01000000
00000000
00000000
00000000
01000000
,
00000000
00010000
00000000
01000000
00000000
00000000
00000000
01000000
00000000
00100000
00000000
10000000
00000000
11000000
00000000
00000000
,
00000000
11000000
00000000
00000000
00000000
10000000
00000000
01000000
00000000
00000000
00000000
00110000
00000000
00000000
00000000
00001000
,
00000000
00010000
00000000
00000100
00000000
00000000
00000000
00000100
00000000
00010000
00000000
00000000
00000000
00010100
00000000
00000000
,
00000000
00010100
00000000
00000000
00000000
00000000
00000000
00000110
00000000
00000000
00000000
00000100
00000000
00000000
00000000
00000100
,
00000000
00001000
00000000
00000100
00000000
00000000
00000000
00000100
00000000
00000010
00000000
00000001
00000000
00000101
00000000
00000000
,
00000000
00000101
00000000
00000000
00000000
00000001
00000000
00000100
00000000
00000000
00000000
00001010
00000000
00000000
00000000
00010000
,
00000000
00001000
00000000
01000000
00000000
00000000
00000000
01000000
00000000
00100000
00000000
00000000
00000000
10100000
00000000
00000000
,
00000000
10000000
00000000
00000000
00000000
10000000
00000000
00000000
00000000
10000000
00000000
00010000
00000000
10000000
00000000
00000000
,
00000000
10000000
00000000
00000000
00000000
10000000
00000000
00000000
00000000
10000000
00000000
01000000
00000000
00100000
00000000
00000000
,
00000000
00100000
00000000
00000000
00000000
00100000
00000000
00000000
00000000
00100000
00000000
01000000
00000000
00100000
00000000
00010000
,
00000000
00001000
00000000
00000100
00000000
00000110
00000000
00000000
00000000
00000110
00000000
00000000
00000000
00000011
00000000
00000000
,
00000000
00000001
00000000
00000000
00000000
00000100
00000000
00001000
00000000
00000100
00000000
00000001
00000000
00000010
00000000
00000100
,
00000000
00000010
00000000
00000100
00000000
00000010
00000000
00000000
00000000
00000100
00000000
00001000
00000000
00010000
00000000
00100000
,
00000000
01000000
00000000
10000000
00000000
00010000
00000000
01000000
00000000
00100000
00000000
10000000
00000000
00000000
00000000
11000000
,
00000000
00000000
00000000
00000000
00000000
01010000
00000000
01000000
00000000
00100000
00000000
10000000
00000000
01000000
00000000
00000000
,
00000000
00010000
00000000
00001000
00000000
00000100
00000000
00000010
00000000
00000001
00000000
00000100
00000000
00000010
00000000
00000000
,
00000000
00001000
00000000
00000010
00000000
00000100
00000000
00000001
00000000
00000010
00000000
00000100
00000000
00001000
00000000
00000000
,
00000000
00010000
00000000
00100000
00000000
00010000
00000000
00001000
00000000
00000010
00000000
00000100
00000000
00000001
00000000
00000010
,
00000000
00000001
00000000
00000000
00000000
00001100
00000000
00000100
00000000
00000010
00000000
00000001
00000000
00000100
00000000
00000000
,
00000000
00001000
00000000
00010000
00000000
01000000
00000000
00100000
00000000
10000000
00000000
01000000
00000000
00100000
00000000
00000000
,
00000000
00010000
00000000
00100000
00000000
01000000
00000000
10000000
00000000
00100000
00000000
01000000
00000000
00010000
00000000
00000000
,
00000000
00001000
00000000
00000010
00000000
00001000
00000000
00010000
00000000
00100000
00000000
01000000
00000000
10000000
00000000
00100000
,
00000000
10000000
00000000
00000000
00000000
10010000
00000000
00010000
00000000
00100000
00000000
01000000
00000000
00100000
00000000
00000000
,
00000000
00100000
00000000
00010000
00000000
00100000
00000000
10000000
00000000
00100000
00000000
00010000
00000000
01000000
00000000
00000000
,
00000000
01000000
00000000
00100000
00000000
10000000
00000000
00100000
00000000
00010000
00000000
00100000
00000000
10000000
00000000
00000000
,
00000000
01000000
00000000
00100000
00000000
00010000
00000000
00001000
00000000
00000010
00000000
00000100
00000000
00000110
00000000
00000000
,
00000000
00000110
00000000
00000000
00000000
00001001
00000000
00001000
00000000
00000010
00000000
00000100
00000000
00000010
00000000
00000000
,
00000000
00000010
00000000
00001000
00000000
00000010
00000000
00000001
00000000
00000010
00000000
00001000
00000000
00000100
00000000
00000000
,
00000000
00000100
00000000
00000010
00000000
00000001
00000000
00000010
00000000
00001000
00000000
00000010
00000000
00000001
00000000
00000100
,
00000000
00000010
00000000
00001000
00000000
00010000
00000000
00100000
00000000
01000000
00000000
10000000
00000000
01000000
00000000
00100000
,
00000000
00010000
00000000
10000000
00000000
10010000
00000000
00000000
00000000
00000000
00000000
00000000
00000000
00000000
00000000
00000000
;

//--------------- dance-double - RaverAce ----------------
#NOTES:
     dance-double:
     RaverAce:
     Hard:
     16:
     0.735865,1.431245,0.324773,0,1.808913,682,639,43,0,0,0,0.735865,1.431245,0.324773,0,1.808913,682,639,43,0,0,0:
00000000
00000000
00000000
00000000
,
00000000
00000000
00000000
00000000
,
00000000
00000000
00000000
00000000
,
00000000
00000000
00000000
00000000
,
00000000
00000000
00000000
00000000
,
00000101
00000100
00000010
00001000
00000100
00000010
00000001
00000010
,
00001000
00000010
00000001
00000100
00000010
00001000
00000010
00000100
,
00000001
00000100
00001000
00000100
00000001
00000010
00000100
00001000
,
00000100
00000010
00000100
00001000
00010000
00100000
01000000
10000000
,
00100000
01000000
00010000
01000000
10000000
01000000
00010000
10000000
,
01000000
00100000
00010000
00100000
10000000
00100000
00010000
00001000
,
00000100
00000010
00000001
00000100
00000010
00001000
00000010
00000100
,
00000001
00000000
00000100
00000000
00001000
00000000
00000100
00000000
00000001
00000100
00000001
00000000
00001001
00001100
00000000
00000100
,
00000000
00000010
00000000
00000100
00000000
00001000
00000000
00010000
00000000
00100000
00000000
01000000
10000000
01000000
00000000
00100000
,
00000000
01000000
00000000
10000000
00000000
00100000
00000000
01000000
00000000
00010000
00000000
01000000
00010000
01000000
00000000
00100000
,
00000000
10000000
00000000
00100000
00000000
01000000
00000000
00010000
00000000
10000000
00000000
01000000
00100000
01000000
00000000
00100000
,
00000000
00010000
00000000
00001000
00000000
00010000
00000000
00100000
00000000
01000000
00000000
10000000
00010000
10000000
00000000
01000000
,
00000000
00100000
00000000
00010000
00000000
00001000
00000000
00000100
00000000
00000010
00000000
00000001
00000010
00000001
00000000
00000100
,
00000000
00000010
00000000
00001000
00000000
00000010
00000000
00000100
00000000
00000001
00000000
00000100
00000001
00000100
00000000
00000010
,
00000000
00000100
00000000
00000001
00000000
00001000
00000000
00000100
00000000
00000010
00000000
00000100
00000010
00000100
00000000
00001000
,
00000000
00000000
00000000
00000000
00000001
00000000
00000000
00000000
00000000
00000000
00000000
00000000
00000100
00000000
00000000
00000000
00000000
00000000
00000000
00000000
00000010
00000000
00000000
00000000
00000100
00000000
00000000
00000000
00000010
00000000
00000000
00000000
00000000
00000000
00000000
00000000
00001010
00000000
00000000
00000000
00000000
00000000
00000000
00000000
00000000
00000000
00000000
00000000
00000000
00000000
00000000
00000000
00011000
00000000
00010000
00000000
00000000
00010000
00000000
00000000
00010000
00000000
00000000
00000000
,
00001000
00000000
00010000
00000000
00100000
00000000
01000000
00000000
00000000
01000000
00000000
00000000
01000000
00000000
00000000
00000000
01000000
00000000
00010000
00000000
00100000
00000000
01000000
00000000
00000000
01000000
00000000
00000000
01000000
00000000
00000000
00000000
01000000
00000000
00100000
00000000
00010000
00000000
00001000
00000000
00000000
00010000
00000000
00000000
00001000
00000000
00000000
00000000
00011000
00000000
00000000
00000000
00000000
00000000
00001000
00000000
00000000
00001000
00000000
00000000
00001000
00000000
00000000
00000000
,
00010000
00000000
00001000
00000000
00000010
00000000
00000100
00000000
00000000
00000100
00000000
00000000
00000100
00000000
00000000
00000000
00000100
00000000
00001000
00000000
00000010
00000000
00000100
00000000
00000000
00000100
00000000
00000000
00000100
00000000
00000000
00000000
00000100
00000000
00000010
00000000
00001000
00000000
00010000
00000000
00000000
00001000
00000000
00000000
00010000
00000000
00000000
00000000
00011000
00000000
00001000
00000000
00011000
00000000
00000000
00000000
00000000
00000000
00000000
00000000
00010000
00000000
00000000
00000000
,
00000000
00100000
00000000
01000000
10000000
00100000
00000000
01000000
00000000
00010000
00000000
10000000
01000000
00010000
00000000
00001000
,
00000000
00000100
00000000
00000010
00000001
00000100
00000000
00000010
00000000
00000110
00000000
00001001
00000000
00000001
00000000
00000100
,
00000000
00000010
00000000
00001000
00000100
00000010
00000000
00000001
00000000
00000010
00000000
00000100
00001000
00010000
00000000
00100000
,
00000000
01000000
00000000
10000000
00010000
01000000
00000000
00100000
00000000
01100000
00000000
10010000
00000000
11000000
00000000
10000000
,
00000000
01000000
00000000
00100000
00000000
00010000
00000000
00000000
00000000
00000100
00000000
00001000
00000000
00000010
00000000
00000100
,
00000000
00000001
00000000
00000100
00000000
00001000
00000000
00000000
00000000
00010000
00000000
01000000
00000000
10000000
00000000
00100000
,
00000000
01000000
00000000
00010000
00000000
01000000
00000000
00000000
00000000
00100000
00000000
10000000
00000000
01000000
00000000
00100000
,
00000000
00010000
00000000
00001000
00000000
00001010
00000000
00000000
00000000
00001010
00000000
00000000
00000000
00000101
00000000
00000001
,
00000000
00000100
00000000
00000010
00000000
00001000
00000000
00000000
00000000
01000000
00000000
00010000
00000000
00100000
00000000
01000000
,
00000000
10000000
00000000
01000000
00000000
00010000
00000000
00000000
00000000
00001000
00000000
00000100
00000000
00000001
00000000
00000010
,
00000000
00000100
00000000
00001000
00000000
00000100
00000000
00000000
00000000
00000010
00000000
00000001
00000000
00000100
00000000
00000010
,
00000000
00001000
00000000
00010000
00000000
00100000
00010000
00100000
00000000
00110000
00000000
00000000
00000000
10010000
00000000
10000000
,
00000000
00100000
00000000
00010000
00000000
00100000
00000000
10000000
00000000
01000000
00000000
00010000
00000000
00001000
00000000
00000100
,
00000000
00000010
00000000
00000001
00000000
00000100
00000000
00001000
00000000
00000100
00000000
00000001
00000000
00000010
00000000
00000100
,
00000000
00001000
00000000
00010000
00000000
00001000
00000000
00000100
00000000
00000010
00000000
00000001
00000000
00000100
00000000
00000010
,
00000000
00001000
00000000
00000100
00000000
00001000
00000000
00000010
00000000
00001000
00000000
00000100
00000000
00000010
00000000
00000001
,
00000000
00000010
00000000
00001000
00000000
00000010
00000000
00000001
00000000
00000100
00000000
00001000
00000000
00010000
00000000
01000000
,
00000000
00100000
00000000
10000000
00000000
01000000
00000000
00010000
00000000
01000000
00000000
10000000
00000000
00100000
00000000
01000000
,
00000000
00010000
00000000
00001000
00000000
00010000
00000000
01000000
00000000
00100000
00000000
10000000
00000000
01000000
00000000
00100000
,
00000000
00010000
00000000
01000000
00000000
00010000
00000000
00100000
00000000
00010000
00000000
01000000
00000000
00100000
01000000
00100000
,
00000000
10000000
00100000
10000000
01000000
00100000
00000000
00110000
00000000
00000000
00000000
00001000
00000100
00000010
00000000
00000001
,
00000000
00000100
00000000
00000010
00000100
00000001
00000000
00001001
00000000
00000101
00000000
00000110
00000000
00000010
00001000
00000001
,
00000000
00000010
00000001
00001000
00000100
00000010
00000000
00000110
00000000
00000000
00000000
00010000
00000100
00001000
00000100
00000010
,
00000000
00000100
00000000
00001000
00010000
00100000
00000000
00110000
00000000
00011000
00000000
00000000
00000000
00000010
00000100
00000010
,
00000000
00000001
00000010
00000001
00000100
00000010
00000000
00001010
00000000
00000000
00000000
00010000
01000000
00100000
00000000
10000000
,
00000000
01000000
00000000
00100000
01000000
10000000
00000000
10010000
00000000
11000000
00000000
01100000
00000000
00100000
00010000
10000000
,
00000000
00100000
10000000
00010000
01000000
00100000
00000000
01100000
00000000
00000000
00000000
00001000
01000000
00010000
01000000
00100000
,
00000000
01000000
00000000
00010000
00001000
00000010
00000000
00001010
00000000
00011000
00000000
00000000
00000000
00110000
00000000
00100000
,
00010000
00000000
00100000
00010000
00000000
00100000
00000000
00000000
00000000
01000000
00000000
10000000
00000000
00100000
00000000
10000000
,
00100000
00000000
01000000
00100000
00000000
10000000
00000000
00000000
00000000
01000000
00000000
00100000
00000000
00010000
00000000
01000000
,
00010000
00000000
01000000
00010000
00000000
00100000
00000000
00000000
00000000
00001000
00000000
00010000
00000000
00000100
00000000
00001000
,
00000100
00000000
00000010
00000100
00000000
00000110
00000000
00000000
00000000
00000011
00000000
00000001
00001000
00000001
00000000
00000100
,
00000000
00000010
00000000
00001000
00000000
00010000
00000000
00100000
00000000
01000000
00000000
10000000
00000000
01000000
00000000
00010000
,
00000000
01000000
00000000
10000000
00000000
01000000
00000000
00000000
00000000
01000000
00000000
10000000
00000000
00100000
00000000
01000000
,
00000000
00000000
00010000
00000000
00000000
00000000
00001000
00000000
00000000
00000000
00000100
00000000
00000000
00000000
00000010
00000000
00000000
00000000
00000001
00000000
00000000
00000000
00001000
00000000
00000000
00000000
00000001
00000010
00000001
00000010
00000100
00001000
,
00000100
00001000
00000100
00000010
00000001
00001000
00000010
00000100
00000001
00001000
00001001
00000000
00000000
00000000
00001000
00000000
00000100
00000000
00000000
00000000
00000010
00000000
00000100
00000000
00000000
00000000
00001000
00000000
00000000
00000000
00000100
00000000
,
00000000
00000010
00000000
00000001
00000000
00000100
00000000
00000010
00000100
00000000
00000001
00000100
00000000
00000010
00000000
00001000
,
00000000
00010000
00000000
00100000
00000000
01000000
00000000
10000000
01000000
00000000
00100000
00010000
00000000
10000000
00000000
01000000
,
00000000
00010000
00000000
01000000
00000000
10000000
00000000
00100000
01000000
00000000
00010000
01000000
00000000
01010000
00000000
00000000
,
00000000
10100000
00000000
00000000
00000000
10000000
00000000
00010000
01000000
00000000
00100000
01000000
00000000
00010000
00000000
01000000
,
00000000
00100000
00000000
10000000
00000000
01000000
00000000
00100000
01000000
00000000
10000000
01000000
00000000
00100000
00000000
00010000
,
00000000
00001000
00000000
00000010
00000000
00000100
00000000
00000001
00000100
00000000
00000010
00001000
00000000
00000001
00000000
00000100
,
00000000
00001000
00000000
00000100
00000000
00000001
00000000
00000010
00000100
00000000
00001000
00000100
00000000
00001000
00000100
00001000
,
00000000
00001001
00000000
00000000
00000000
00000101
00000000
00000100
00000010
00000000
00001000
00000010
00000000
00010000
00000000
00001000
,
00000000
00010000
00000000
00100000
00000000
01000000
00000000
10000000
01000000
00000000
00100000
01000000
00000000
10000000
00000000
00010000
,
00000000
01000000
00000000
00001000
00000000
00010000
00000000
00001000
00010000
00000000
00000100
00010000
00000000
00001000
00000000
00010000
,
00000000
00100000
00000000
01000000
00000000
10000000
00000000
00100000
01000000
00000000
00010000
01000000
00000000
10100000
00000000
00000000
,
00000000
10010000
00000000
00000000
00000000
11000000
00000000
01000000
00100000
00000000
00010000
00100000
00000000
00001000
00000000
00010000
,
00000000
00001000
00000000
00000010
00000000
00000100
00000000
00000001
00000100
00000000
00000010
00000100
00000000
00000001
00000000
00001000
,
00000000
00000100
00000000
00010000
00000000
00001000
00000000
00010000
00001000
00000000
01000000
00001000
00000000
00010000
00000000
00001000
,
00000000
00000010
00000000
00000100
00000000
00000001
00000100
00000001
00000100
00000010
00001000
00000010
00001000
00000100
00000010
00000001
,
00000100
00000010
00001000
00010000
00100000
01000000
00000000
00000000
00000000
00000000
00000000
00000000
00000000
00000000
00000000
00000000
;
