#TITLE:Baptism of Fire ;
#SUBTITLE:CliqTrack Remix;
#ARTIST:Louise Penman;
#TITLETRANSLIT:;
#SUBTITLETRANSLIT:;
#ARTISTTRANSLIT:;
#GENRE:;
#CREDIT:;
#MUSIC:Baptism of Fire (CliqTrack Remix).ogg;
#BANNER:ban.png;
#BACKGROUND:bg.png;
#CDTITLE:;
#SAMPLESTART:0.000;
#SAMPLELENGTH:0.000;
#SELECTABLE:YES;
#OFFSET:-0.056;
#BPMS:0.000=70.000
,32.000=140.000
,64.000=70.000
,96.000=140.000
;
#STOPS:;
#BGCHANGES:;
#FGCHANGES:;

//--------------- dance-single - ----------------
#NOTES:
     dance-single:
     :
     Beginner:
     3:
     0,0,0,0,0:
0000
0000
0001
0000
,
1000
0000
0001
0000
,
0100
0000
0010
0000
,
1000
0000
0001
0000
,
0100
0000
0010
0000
,
1000
0000
0001
0000
,
1000
0000
1000
0000
,
0001
0000
0001
0000
,
1001
0000
0100
0000
,
0010
0000
1000
0000
,
0001
0000
1000
0000
,
0001
0000
0100
0000
,
0010
0000
1000
0000
,
0001
0000
0100
0000
,
0010
0010
0010
0010
,
0000
0000
0000
0000
,
1000
1000
1000
0000
,
0002
0003
0000
0000
,
0100
0100
0100
0100
,
0200
0300
0001
0000
,
1001
1000
1000
1000
,
2000
3000
0000
0000
,
1001
0001
0001
1000
,
0002
0003
1000
0000
,
1001
0000
0100
0000
,
0010
0000
1000
0000
,
0001
0000
1000
0000
,
0001
0000
0100
0000
,
1000
0000
0100
0000
,
0010
0000
1000
0000
,
0001
0000
1000
0000
,
0001
0000
1000
0000
,
1001
0000
0100
0000
,
0010
0000
1000
0000
,
0001
0000
0100
0000
,
0010
0000
1000
0000
,
0001
0000
0100
0000
,
0010
0000
1000
0000
,
0001
0000
0100
0000
,
0010
0000
1000
0000
,
1001
0000
0000
0000
;

//--------------- dance-single - ----------------
#NOTES:
     dance-single:
     :
     Easy:
     5:
     0,0,0,0,0:
0000
0000
0002
1003
,
0020
0130
0002
1003
,
0020
0130
0002
1003
,
0200
0310
0002
1003
,
0001
0000
1000
0010
0200
0000
0301
0000
,
2000
0000
3010
1000
0001
0000
0100
0000
,
0020
2030
3002
0203
,
0320
2030
3200
1300
,
1001
0001
0100
0010
,
1000
0100
0010
0100
,
1000
0001
1000
0010
,
0100
0001
0010
0100
,
1000
0001
1000
0010
,
0100
0001
0010
0100
,
1000
1000
1000
1000
,
0002
0000
1003
0000
,
1001
1000
0001
0100
0010
1000
0001
0001
,
2000
0000
3010
0100
0010
0000
1010
0000
,
1000
0001
1000
0010
0100
0001
0100
0010
,
2000
0000
0000
0000
3002
0000
0000
0000
1003
0000
0000
0010
0000
0000
1000
0000
,
0001
0100
0001
0010
0001
1000
0100
1000
,
0002
0000
1003
0001
1000
0000
1001
0000
,
0001
0100
0001
0010
0001
0100
0010
0000
,
2000
0000
0000
0000
3001
0000
0000
0000
0100
0000
0000
0010
0000
0000
1000
0000
,
0002
0003
0101
0000
,
0200
0300
0110
0000
,
0020
0030
1010
0000
,
1000
0001
1000
0000
,
0002
0003
0202
0303
,
0200
0300
0220
0330
,
0020
0030
2020
3030
,
1000
0000
0001
1000
,
2002
3003
0002
0003
,
1000
0001
2000
3000
,
0001
0100
0001
0000
,
1000
0010
0100
0000
,
0001
1000
0010
0100
,
0001
0010
0100
1000
,
0001
0100
0001
0010
,
0001
0100
0001
0010
,
0110
0000
0000
0000
;

//--------------- dance-single - ----------------
#NOTES:
     dance-single:
     :
     Medium:
     9:
     0,0,0,0,0:
0000
0000
1000
0001
0200
0000
0310
0000
,
2000
0000
3001
1000
0010
0000
1010
0000
,
2000
0000
3001
0100
0020
0030
1010
1000
,
1000
1001
0002
0103
,
0101
0000
0100
0010
1000
0000
1001
0000
,
0001
0000
0100
0010
1000
0100
0010
0001
,
0200
0320
2030
3200
,
2300
3002
2003
3020
,
1030
0000
0000
0001
0000
0000
0100
0000
0010
0000
0000
1000
0000
0000
0100
0000
,
0010
0000
0000
0001
0000
0000
0100
0000
0010
0000
0000
0000
1000
0000
0000
0000
,
0001
0000
0000
0100
0000
0000
0001
0000
0010
0000
0000
0001
0000
0000
0100
0000
,
0001
1000
0000
0010
2000
0000
3002
0000
,
1003
0000
0000
0010
0000
0000
0100
0000
0001
0000
0000
1000
0000
0000
0100
0000
,
0010
0000
0000
0001
0000
0000
0100
0000
0010
0000
0000
0000
1000
0000
0000
0000
,
0001
0100
0001
0100
0010
1000
0010
1000
,
0001
0000
2000
3000
,
1001
0000
0001
0000
0100
0000
0010
1000
0010
0000
0100
0001
0100
0010
0100
0001
,
0200
0000
0000
0000
0310
1000
0010
1000
0000
0001
0100
0001
0000
1000
0010
1000
,
1001
0000
0001
0000
0100
0000
0010
1000
0010
0000
0100
0001
0100
0010
1000
0100
,
2000
0000
0000
0000
3001
0100
0010
1000
1001
0000
0000
0010
0100
0000
0001
0000
,
1001
0000
1000
0000
0010
0000
0100
0001
0100
0000
0010
1000
0100
1000
0001
1000
,
0020
0000
0000
0000
0130
1000
0010
0100
0000
0001
0010
0001
0000
1000
0100
1000
,
1100
0000
0010
0000
0001
0000
0100
0010
1000
0000
0001
0000
1000
0000
0001
0000
,
2000
0000
0000
0000
3001
0010
0100
1000
1100
0000
0000
0010
0100
0000
0110
0000
,
1000
0010
1000
0000
0001
0000
0100
0000
,
0010
1000
0010
0000
0100
0000
0001
0000
,
0010
0100
0010
0000
0001
0000
0100
0000
,
0010
1000
0010
0000
0101
0000
0001
0000
,
0100
0010
0100
0000
0001
0000
1000
0000
,
0010
0100
0001
0000
1001
0000
1000
0000
,
0001
0100
0001
0010
0001
0100
0010
1000
,
0100
1000
0001
0010
0100
1000
0010
0100
,
0001
0100
0000
0010
2020
0000
3030
1000
,
0001
0010
0001
0100
0010
1000
0100
1000
,
0200
0300
0220
0330
,
0001
0000
0000
1000
0000
0000
0010
0000
1010
0000
0000
0000
0010
0000
0000
0000
,
0100
0000
0000
0001
0000
0000
0100
0000
0010
0000
0000
1000
0000
0000
0100
0000
,
1000
0000
0000
0001
0000
0000
0001
0000
0100
0000
0000
0000
0010
0000
0000
0000
,
0100
0001
0010
0001
0100
0010
0100
0010
,
1000
0100
1000
0001
0010
0000
0100
0000
,
1001
0000
0000
0000
;

//--------------- dance-single - ----------------
#NOTES:
     dance-single:
     :
     Hard:
     12:
     0,0,0,0,0:
0000
0000
0000
0000
1000
0001
1000
0001
0200
0000
0300
0000
0110
0000
0000
0000
,
0020
0000
0030
0000
1010
0000
1000
0001
0100
0010
1000
0100
1000
0000
0001
0000
,
1001
0000
0000
0000
1000
0010
0100
0001
2000
0000
0000
0000
3010
0000
1000
0000
,
0002
0000
0000
0000
1003
0000
0000
0001
0200
0000
0000
0000
0301
0000
0000
0000
,
1000
0000
0000
0001
0000
0100
0000
0000
0010
0000
0000
1000
0000
0100
0000
0000
1000
0000
0000
0001
0000
0100
0000
0000
0010
0000
0000
1000
0000
0100
0000
0000
,
1000
0000
0000
0001
0000
0100
0000
0000
0010
0000
0000
1000
0000
0100
0000
0000
0010
0000
0000
0001
0000
0100
0000
0000
0010
0000
0000
1000
0000
0001
0000
0000
,
2000
3002
0203
0320
,
2030
3002
2003
3002
,
1003
0100
1000
0010
1000
0001
0010
0001
,
0100
0010
0100
0001
1000
0100
0010
0001
,
1000
0010
1000
0100
1000
0001
0100
0010
,
1000
0100
1000
0001
0010
0100
1000
0001
,
0100
0010
0100
0001
0100
0010
1000
0100
,
1000
0001
1000
0001
0100
0010
0100
0010
,
1000
0000
0100
0000
1000
0000
0100
0000
0010
0001
0010
0100
1000
0001
1000
0001
,
0000
0000
0200
0300
,
1001
0000
0001
0000
0101
0000
0100
0010
1000
0000
0100
0001
0100
1000
0010
0100
,
0002
0000
0000
0000
0000
0000
0000
0000
1003
0000
0010
0000
0100
0000
0001
0000
0000
0000
1000
0100
0010
0001
1000
0000
0001
0000
0010
0100
1000
0001
0100
0000
,
0110
0000
0010
0000
1010
0000
1000
0001
0100
0000
0010
1000
0001
0010
0001
0100
,
0020
0000
0000
0000
1030
0100
0010
0001
1001
0000
1000
0010
1000
0001
0100
0000
,
0110
0000
0010
0000
1000
0000
0001
0100
0010
0000
1000
0001
0100
0010
1000
0100
,
2000
0000
0000
0000
0000
0000
0000
0000
3001
0000
0100
0000
0001
0000
0010
0000
0000
0000
0100
1000
0100
1000
0100
0000
0010
0000
0001
1000
0001
1000
0001
0000
,
0101
0000
0010
0000
1000
0000
0001
0100
0001
0000
1000
0010
0100
0000
0100
0001
,
2000
0000
0000
0000
3001
0100
0001
0010
0001
0000
0000
0100
0010
1000
0100
0000
,
1100
0000
1000
0100
1000
0000
0010
0000
0100
0000
0001
0100
0001
0000
0100
0000
,
0010
0000
1000
0100
0010
0000
0100
0000
2200
0000
0000
0000
3300
0000
0000
0000
,
0010
0000
0001
0100
0001
0000
0100
0000
0010
0000
1000
0010
1000
0000
0100
0000
,
0010
0000
0001
0100
0001
0000
0010
0000
0011
0000
0001
0000
1000
0000
0000
0000
,
0001
0000
1000
0010
1000
0000
0001
0000
0100
0000
0010
0100
0010
0000
1000
0000
,
0100
0000
1000
0010
1000
0000
0001
0000
0120
0000
0000
0000
0030
0000
0000
0000
,
0100
0000
0010
1000
0010
0000
0100
0000
0001
0000
0010
0001
0010
0000
0100
0000
,
1000
0000
0001
1000
0001
0000
0100
0000
0110
0000
0010
0000
1010
0000
0000
0000
,
1001
0001
0100
0010
2020
0000
3030
0000
,
1000
0001
1000
0001
1000
0000
0000
0000
0001
0100
0001
0100
0001
0000
0000
0000
,
0101
0100
0010
1000
1010
0010
0100
0001
,
0100
0010
0000
1000
1010
0010
1000
0001
,
1000
0010
1000
0010
1000
0000
0000
0000
0001
0010
0001
0010
0001
0000
0000
0000
,
1000
0100
0010
0001
2002
0000
3003
0000
,
1000
0010
1000
0001
0100
0010
1000
0100
,
0010
0001
0100
0010
1000
0010
1010
0000
,
1001
0000
0000
0000
;

//--------------- dance-double - ----------------
#NOTES:
     dance-double:
     :
     Hard:
     11:
     0,0,0,0,0:
00000000
00000000
00000000
00000000
00010000
00001000
00010000
00001000
00010000
00000000
00000000
00000000
00011000
00000000
00000000
00000000
,
00002000
00000000
00000000
00000000
00103000
00000000
00010000
10000000
01000000
10000000
00010000
01000000
00100000
00000000
00000000
00000000
,
01000000
00000000
00000000
00000000
00001000
00010000
00000100
00001000
00000020
00000000
00000000
00000000
00010030
00000000
00000100
00000000
,
00001000
00001001
00000002
00001003
,
00000100
00000000
00000000
00010000
00000000
00001000
00000000
00000000
01000000
00000000
00000000
00100000
00000000
10000000
00000000
00000000
00010000
00000000
00000000
01000000
00000000
00001000
00000000
00000000
00100000
00000000
00000000
00000100
00000000
00010000
00000000
00000000
,
00000100
00000000
00000000
00001000
00000000
00000010
00000000
00000000
00000100
00000000
00000000
00000001
00000000
00000001
00000000
00000000
00001000
00000000
00000000
00000100
00000000
00010000
00000000
00000000
00001000
00000000
00000000
01000000
00000000
00100000
00000000
00000000
,
20000000
30200000
02300000
03002000
,
00023000
00030200
00020300
00032000
,
00103000
00010000
00100000
00010000
01000000
00100000
01000000
00100000
,
01000000
00001000
00010000
00001000
01000000
00010000
00100000
00001000
,
00100000
00001000
00010000
00000100
00010000
00000100
00001000
00000010
,
00001000
00000001
00000010
00000100
00010000
00001000
00010000
00000100
,
00001000
00000001
00000100
00000010
00010000
00001000
01000000
00001000
,
00100000
00010000
01000000
00010000
10000000
01000000
00100000
01000000
,
10000000
00100000
10000000
00100000
01000000
00010000
01000000
00010000
,
00000000
00000000
00200000
00300000
,
00011000
00000000
00001000
00000000
00001000
00000000
00010000
00001000
00010000
00000000
00001000
00100000
00010000
00100000
00001000
00010000
,
00000020
00000000
00000000
00000000
00001030
00000010
00001000
00000010
00000000
00010000
00001000
00010000
00000100
00001000
00000100
00001000
,
00001010
00000000
00000010
00000000
00001000
00000000
00000001
00000010
00000001
00000000
00001000
00000100
00001000
00000001
00001000
00000100
,
00002000
00000000
00000000
00000000
00003200
00000000
00000300
00000000
00011000
00000000
00000000
00100000
00000000
00000000
00010000
00000000
,
01010000
00000000
00100000
00000000
00100000
00000000
00001000
00010000
00000100
00000000
00010000
00001000
00010000
00000100
00001000
00000010
,
00000200
00000000
00000000
00000000
00000301
00000010
00000001
00000010
00000000
00000100
00001000
00000100
00000000
00000010
00000001
00001000
,
00001100
00000000
00010000
00000000
00001000
00000000
00100000
00010000
00100000
00000000
00001000
00100000
00010000
00000000
01000000
00010000
,
00020000
00000000
00000000
00000000
00032000
00000000
00000000
00003000
00011000
00000000
00000000
00000100
00000000
00000000
00001000
00000000
,
00001010
00000000
00000000
00000000
00000000
00000000
00000100
00000000
00000110
00000000
00000000
00000010
00000000
00000000
00001000
00000000
,
00000020
00000000
00000030
00010000
00011000
00000000
00001000
00000000
,
01000000
00001000
00010000
00001000
01000000
00010000
10000000
01000000
,
00100000
00010000
01000000
00100000
10000000
00000000
00010000
00000000
,
00100000
00001000
00100000
00001000
00010000
00000100
00001000
00000010
,
00000100
00000001
00000100
00000010
00001000
00000000
00000000
00000000
,
00000001
00000010
00000100
00010000
00001000
00100000
00010000
01000000
,
00100000
01000000
00001000
00010000
00011000
00000000
00101000
00000000
,
00010000
10000000
00000000
00010000
02010000
00000000
03001000
00010000
,
00000200
00000000
00000000
00010300
00011000
00000000
00000000
00000000
,
00020000
00000000
00030000
00000100
00010100
00000000
00000000
00000000
,
00010000
00000100
00000000
00010000
00000100
00001000
00000010
00001000
,
00001100
00000000
00000000
00000100
00010100
00000000
00000000
00000000
,
00010000
10000000
00010000
01000000
00001000
00000000
00010000
00000000
,
00001000
00010000
00000100
00010000
00000100
00001000
00000010
00010000
,
00001000
01000000
00001000
01000000
01001000
00000000
00011000
00000000
,
00001010
00000000
00000000
00000000
;
