#TITLE:Bang A Boomerang;
#SUBTITLE:;
#ARTIST:Les Blue Belles;
#TITLETRANSLIT:;
#SUBTITLETRANSLIT:;
#ARTISTTRANSLIT:;
#CREDIT:;
#BANNER:Bang A Boomerang.png;
#BACKGROUND:Bang A Boomerang-bg.png;
#LYRICSPATH:;
#CDTITLE:;
#MUSIC:Bang A Boomerang.ogg;
#OFFSET:-2.190;
#SAMPLESTART:43.528;
#SAMPLELENGTH:12.000;
#SELECTABLE:YES;
#BPMS:0.000=139.219;
#STOPS:;
#BGCHANGES:;

//---------------dance-single - ----------------
#NOTES:
     dance-single:
     :
     Hard:
     12:
     0.485,0.524,0.172,0.000,0.100:
0000
0000
0000
0000
,
0000
0000
0000
0000
,
0000
0000
0000
0000
,
0000
0000
0000
0000
,
1001
0000
0001
0100
0010
0001
1000
0100
,
0000
0000
0010
1000
0100
0010
0001
1000
,
1000
0000
0000
0000
0000
0000
0001
0010
,
0100
0010
0010
0000
0010
0001
1000
1000
,
0100
0000
0010
0001
1000
1000
0010
0100
,
0001
0000
0010
0001
1000
1000
0000
0010
,
0100
0000
0001
0000
1001
0000
0000
0000
1000
0000
0000
1000
0000
0000
1000
0000
,
0001
0000
1000
0000
0010
0000
0100
0000
0001
1000
0000
0001
1000
0000
1000
0000
,
0100
0000
0010
0001
1000
1000
0010
0100
,
0001
0000
0010
0100
1000
0000
1000
0001
,
0100
0000
0010
0000
0110
0000
0000
0000
1000
0000
0000
1000
0000
0000
0100
0000
,
0010
0000
0001
0000
0100
0000
0010
0000
1000
0001
0000
1000
0001
0000
0010
0000
,
0110
0000
0010
0001
1000
0001
0010
0001
,
1000
0001
0100
0010
0000
0000
0000
0000
,
1000
1000
0001
0001
0100
0000
0010
1000
,
0001
0000
0001
0100
0010
1000
0001
0000
,
1001
0000
1001
0000
1000
1000
0100
0010
,
0100
0100
1000
0000
0000
0000
0001
1000
,
1001
1000
1001
0001
,
1001
0100
1001
0010
,
1001
0000
0000
0000
0000
0000
1000
0100
,
0000
0100
0001
0100
1000
0000
0000
0010
,
0000
0010
0001
0000
1000
0000
0001
0010
,
0000
0010
1000
0000
0001
0000
0010
0000
,
0110
0000
0000
0000
0000
0000
0100
1000
,
0000
1000
0010
1000
0100
0000
0000
1000
,
0000
1000
0010
0000
0001
0000
0001
0010
,
0000
0010
1000
0000
1001
0000
0000
0000
,
1000
0100
0001
0100
1000
0000
1001
0001
,
0100
0000
0100
0010
0000
0000
1010
0000
,
1001
0000
0010
0000
1001
1000
0010
0100
,
0001
0000
0000
0000
0010
0100
0000
0000
0100
0000
0000
0000
1000
0000
0000
0000
,
1001
0000
0000
0000
0000
0000
1000
0010
,
0000
0010
0001
0010
1000
0000
0100
0010
,
0001
0100
0001
0100
0010
0000
1000
0000
,
0001
0000
0010
0000
0001
1000
0001
1000
0100
0000
0010
0000
0001
1000
0001
1000
,
0010
0001
0100
1000
,
0010
1000
0100
0010
,
1000
0100
0001
0010
,
1000
0010
0001
0100
,
0010
0000
0000
0000
0010
0000
0000
0000
1000
0001
1000
0001
0100
0010
0100
0010
,
1000
0000
0000
0000
0000
0000
1000
0100
,
0001
0100
1000
0010
0100
1000
0100
0010
,
0000
0010
1000
0100
1000
0010
0100
0001
,
0010
0001
0100
1000
0100
0010
1000
0100
,
0110
0000
0000
0000
0000
0000
0010
1000
,
0010
0001
0100
1000
0001
1000
0100
0001
,
0000
0001
0010
1000
0010
0100
1000
0010
,
0100
0000
1000
0000
0100
0000
0001
0000
0010
0000
0100
0000
1000
0001
1000
0001
,
0010
0000
0000
0000
0000
0000
0010
0001
,
0100
0001
0010
1000
0010
0001
0100
0001
,
0000
0001
1000
0010
0100
1000
0100
0010
,
1000
0100
0001
0100
0010
1000
0010
0001
,
1001
0000
0000
0000
0000
0000
1000
0100
,
0010
0001
0100
1000
0100
0010
1000
0100
,
0000
0100
0001
1000
0010
0100
1000
0010
,
0000
0000
0010
0000
0100
0000
1000
0000
0001
0000
1000
0000
0100
0010
0100
0010
,
1000
0100
0010
0100
1000
0001
1001
1000
,
0010
0100
0001
0010
0001
0100
0110
0000
,
1001
1000
0100
0000
0010
0001
0100
1000
,
0100
0000
0010
0000
1000
0001
0000
0000
0001
0000
0000
0000
0010
0100
0010
0100
,
1000
0000
0000
0000
0000
0000
0001
0100
,
1000
0100
0001
0010
1000
0010
0001
0000
,
1000
0010
0100
0001
1000
0001
0100
0010
,
1000
0000
0001
0000
0100
0010
0100
0010
1000
0000
0000
0000
0001
1000
0001
1000
,
0100
0000
0010
0001
0100
0010
0001
0010
,
0000
0000
1000
0100
0010
1000
0010
0001
,
0010
0000
0100
1000
0001
0000
0100
0010
,
0001
0010
1000
0100
0001
0100
0010
0000
,
0110
0000
0100
0010
0001
0100
0010
0001
,
0000
0000
0001
0010
1000
0001
0010
1000
,
1000
0000
0000
0000
0000
0000
0010
0001
,
1000
0000
0010
0000
0010
0000
0001
0000
0100
0000
1000
0000
0100
0010
1000
0010
,
0100
0000
0000
0000
;

//---------------dance-double - ----------------
#NOTES:
     dance-double:
     :
     Hard:
     12:
     0.520,0.579,0.129,0.000,0.107: // measure 1
00000000
00000000
00000000
00000000
,  // measure 2
00000000
00000000
00000000
00000000
,  // measure 3
00000000
00000000
00000000
00000000
,  // measure 4
00000000
00000000
00000000
00000000
,  // measure 5
00011000
00000000
00001000
00000100
00000010
00001000
00000100
00000010
,  // measure 6
00000000
00000000
00001000
00010000
01000000
00100000
00010000
00000010
,  // measure 7
00000010
00000000
00000000
00000000
00000000
00000000
00000001
00000100
,  // measure 8
00000010
00010000
00010000
00000000
00001000
00100000
01000000
01000000
,  // measure 9
10000000
00000000
00010000
00100000
00001000
00001000
00010000
00000100
,  // measure 10
00001000
00000000
00000001
00000100
00000010
00010000
00000000
00001000
,  // measure 11
00000000
00000000
00100000
00000000
00110000
00000000
00000000
00000000
00010000
00000000
00000000
00010000
00000000
00000000
01000000
00000000
,  // measure 12
00100000
00000000
10000000
00000000
00010000
00000000
10000000
00000000
00010000
00100000
00000000
00001000
00010000
00000000
00010000
00000000
,  // measure 13
00000100
00000000
00000010
00000001
00001000
00001000
00000010
00000100
,  // measure 14
00001000
00000000
00010000
00100000
01000000
00000000
00100000
10000000
,  // measure 15
01000000
00000000
00100000
00000000
10010000
00000000
00000000
00000000
00010000
00000000
00000000
00010000
00000000
00000000
00010000
00000000
,  // measure 16
00100000
00000000
00001000
00000000
00010000
00000000
00001000
00000000
00000100
00000010
00000000
00000100
00000001
00000000
00001000
00000000
,  // measure 17
00001001
00000000
00000001
00000010
00001000
00000010
00000001
00000010
,  // measure 18
00001000
00010000
00100000
10000000
00100000
00000000
00100000
00000000
,  // measure 19
10010000
00000000
10000000
00100000
00010000
00100000
10000000
00100000
,  // measure 20
00001000
00000000
00000000
00000000
00000001
00000000
00001000
00000000
00000100
00000000
00000000
00000000
00000100
00000010
00000100
00000010
,  // measure 21
00000100
00000000
00000100
00000000
00000100
00000010
00000001
00000100
,  // measure 22
00001000
00010000
00001000
00000100
00000001
00000000
00000010
00001000
,  // measure 23
00011000
00000000
00011000
00000000
00010000
00100000
10000000
01000000
,  // measure 24
00100000
00010000
10000000
00000000
00100000
10000000
00010000
01000000
,  // measure 25
00011000
00000000
00000000
00000000
00000000
00000000
00010000
00001000
,  // measure 26
00000010
00001000
00010000
00100000
00010000
00000000
00000000
00001000
,  // measure 27
00010000
00000010
00001000
00000001
00000100
00000010
00001000
00000001
,  // measure 28
00000100
00000010
00010000
00000000
01000000
00100000
00001000
00000000
,  // measure 29
00011000
00000000
00000000
00000000
00000000
00000000
00001000
00000100
,  // measure 30
00001000
00010000
01000000
00010000
00001000
00000000
00000000
00001000
,  // measure 31
01000000
00010000
10000000
00100000
01000000
00001000
00010000
00000100
,  // measure 32
00000000
00000100
00001000
00000001
00000100
00000000
00000100
00000000
,  // measure 33
00000001
00000010
00001000
00010000
00100000
10000000
10010000
10000000
,  // measure 34
01000000
00010000
00001000
00000100
00000001
00001000
00001001
00000000
,  // measure 35
00001000
00000000
00001000
00000000
00000001
00000100
00000010
00010000
,  // measure 36
00001000
00000000
00100000
00000000
00010000
10000000
00000000
00000000
10000000
00000000
00000000
00000000
00100000
00000000
00000000
00000000
,  // measure 37
01100000
00000000
00000000
00000000
00000000
00000000
00100000
10000000
,  // measure 38
01000000
00010000
00001000
00000010
00001000
00000000
00010000
00100000
,  // measure 39
00010000
00001000
00000100
00000010
00001000
00000001
00000010
00000100
,  // measure 40
00010000
00000000
00001000
00000000
00100000
01000000
00100000
01000000
10000000
00000000
00100000
00000000
10000000
00010000
10000000
00010000
,  // measure 41
01000000
10000000
00100000
00010000
,  // measure 42
10000000
00100000
00010000
00001000
,  // measure 43
00000100
00000001
00000010
00001000
,  // measure 44
00010000
00001000
00010000
00000000
00001000
00000010
00001000
00000000
,  // measure 45
00010000
00000000
00001000
00000000
00010000
00000000
00000000
00000000
00100000
01000000
00100000
01000000
00001000
00010000
00001000
00010000
,  // measure 46
00000010
00000000
00000000
00000000
00000000
00000000
00000010
00001000
,  // measure 47
00000100
00000001
00000100
00001000
00000010
00000001
00000010
00010000
,  // measure 48
00000000
00010000
00001000
01000000
10000000
00010000
10000000
01000000
,  // measure 49
00100000
10000000
01000000
00010000
00001000
00000100
00000001
00001000
,  // measure 50
00001001
00000000
00000000
00000000
00000000
00000000
00000001
00000010
,  // measure 51
00001000
00000010
00000001
00000100
00001000
00010000
01000000
10000000
,  // measure 52
00000000
10000000
00100000
01000000
10000000
01000000
00010000
00100000
,  // measure 53
01000000
00000000
00010000
00000000
00001000
00000000
00000010
00000000
00000001
00000000
00000100
00000000
00001000
00010000
00001000
00010000
,  // measure 54
00100000
00000000
00000000
00000000
00000000
00000000
00100000
10000000
,  // measure 55
01000000
00010000
01000000
10000000
00100000
00010000
00001000
00000010
,  // measure 56
00000000
00000010
00000001
00001000
00000010
00000001
00000010
00000100
,  // measure 57
00001000
00010000
00100000
10000000
01000000
00100000
00010000
10000000
,  // measure 58
10010000
00000000
00000000
00000000
00000000
00000000
10000000
00100000
,  // measure 59
00010000
00100000
10000000
01000000
00010000
00001000
00000100
00000001
,  // measure 60
00000000
00000010
00001000
00010000
00000010
00000100
00001000
00000100
,  // measure 61
00000001
00000000
00000010
00000000
00010000
00000000
00001000
00000000
00000010
00000000
00001000
00000000
00010000
00100000
00010000
00100000
,  // measure 62
01000000
10000000
00100000
00010000
00001000
00000100
00001001
00000001
,  // measure 63
00000010
00001000
00010000
01000000
10000000
00010000
10010000
00000000
,  // measure 64
10000000
00100000
01100000
00000000
00100000
01000000
00001000
00010000
,  // measure 65
00000100
00000000
00001000
00000000
00000001
00000010
00000000
00000000
00000010
00000000
00000000
00000000
00000100
00001000
00000100
00001000
,  // measure 66
00000010
00000000
00000000
00000000
00000000
00000000
00000010
00000100
,  // measure 67
00001000
00010000
00000100
00010000
01000000
00100000
00001000
00010000
,  // measure 68
00000100
00001000
00000100
00000010
00000001
00001000
00000010
00000100
,  // measure 69
00001000
00000000
00010000
00000000
00100000
01000000
00100000
01000000
00100000
00000000
00010000
00000000
00000100
00000010
00000100
00000010
,  // measure 70
00000100
00000000
00010000
01000000
00100000
00010000
01000000
00100000
,  // measure 71
00000000
00000000
00010000
00001000
00000100
00000001
00000010
00001000
,  // measure 72
00000010
00000000
00000010
00000001
00000100
00000000
00001000
00010000
,  // measure 73
01000000
10000000
01000000
00010000
00001000
00010000
01000000
10000000
,  // measure 74
10010000
00000000
00001000
00000010
00000100
00001000
00000010
00000100
,  // measure 75
00000000
00000000
00001000
00010000
00100000
10000000
00010000
00100000
,  // measure 76
00100000
00000000
01000000
10000000
00010000
00000000
10000000
00100000
,  // measure 77
00010000
00000000
00001000
00000000
00000010
00000000
00000001
00000000
00000100
00000000
00001000
00000000
00010000
00001000
00100000
00001000
,  // measure 78
00010000
00000000
00000000
00000000
;

//---------------dance-single - ----------------
#NOTES:
     dance-single:
     :
     Medium:
     8:
     0.363,0.414,0.136,0.000,0.007:
0000
0000
0000
0000
,
0000
0000
0000
0000
,
0000
0000
0000
0000
,
0000
0000
0000
0000
,
1000
0000
0001
0000
0100
0000
0010
1000
,
0000
0000
0001
0000
0010
0000
0100
1000
,
1000
0000
0000
0000
0000
0000
0010
1000
,
0001
0000
0001
0000
1000
0000
1000
1000
,
0100
0000
0010
0000
0001
0010
0001
0010
,
0100
0000
1000
0000
0010
1000
0000
0001
,
0000
1001
1000
0100
,
0010
0000
0001
0000
1000
0000
0001
0001
,
0100
0000
0010
0000
1000
0100
1000
0100
,
0010
0000
0001
1000
0001
0000
0100
0000
,
0010
1000
0001
0010
,
0100
1000
0001
0100
,
0010
0000
1000
0001
1000
0001
1000
0100
,
1000
0001
0000
0100
0000
0000
0000
0000
,
0000
0000
0010
1000
0010
0000
0010
0100
,
0001
1000
0100
0010
,
0011
0000
0011
0000
0001
0001
0100
0010
,
0000
1000
0000
0000
0000
0000
1000
0100
,
0010
0100
1000
0010
,
1010
0000
0001
1000
,
1001
0000
0000
0000
0000
0000
1000
0001
,
0000
0001
0100
0001
1000
0000
0000
1000
,
0000
1000
0100
0000
0010
0000
0010
0100
,
0000
0100
0010
0000
0001
0000
1000
0000
,
1001
0000
0000
0000
0000
0000
0001
1000
,
0000
1000
0001
0100
0001
0000
0000
0001
,
0000
0001
0010
0000
0100
0000
0100
0010
,
0000
0010
0100
0000
1000
0000
0000
0000
,
1000
0010
0100
0001
0000
0000
1001
1000
,
0001
0000
0001
1000
0000
0000
1001
0000
,
1000
0000
1000
0000
0010
0100
0010
0100
,
0001
0000
0000
0000
0000
1000
0000
0000
1000
0000
0000
0000
0100
0000
0000
0000
,
0110
0000
0000
0000
0000
0000
0010
0001
,
0000
0001
0100
0001
0010
0000
0100
0000
,
1000
0010
0100
0001
,
0010
0000
0100
0000
1000
0010
0100
0001
,
1000
0100
0001
0010
,
0000
0000
0000
0000
,
1000
0010
0001
0100
,
1000
0100
0010
0001
,
0100
0000
1000
0000
0100
0010
1000
0001
,
1001
0000
0000
0000
0000
0000
1000
0100
,
0000
0100
0001
0100
1000
0000
0000
1000
,
0000
1000
0010
0000
0001
0000
0001
0010
,
0000
0010
1000
0000
0001
0000
1000
0000
,
1001
0000
0000
0000
0000
0000
0001
0010
,
0000
0010
1000
0010
0001
0000
0000
0001
,
0000
0001
0100
0000
1000
0000
1000
0100
,
0000
0100
0001
0000
0001
0000
0000
0000
,
1001
0000
0000
0000
0000
0000
1000
0100
,
0000
0100
0001
0010
1000
0000
0000
1000
,
0000
1000
0100
0000
0001
0000
0100
1000
,
0000
1000
0010
0000
0001
0000
0010
0000
,
1001
0000
0000
0000
0000
0000
0001
0010
,
0000
0010
1000
0100
0001
0000
0000
0001
,
0000
0001
0010
0000
1000
0000
1000
0010
,
0000
0010
0001
0000
0001
0000
0000
0000
,
1000
0010
0001
0010
1000
0000
1001
0001
,
0010
1000
0010
0001
1000
0000
1001
0000
,
1000
0000
1000
0000
0010
0100
0001
1000
,
0100
0000
0010
0000
0000
0001
0000
0000
0001
0000
0000
0000
1000
0000
0000
0000
,
1001
0000
0000
0000
0000
0000
1000
0010
,
0000
0010
0100
1000
0010
0000
0001
0000
,
0001
0010
0001
0010
1000
0100
0001
0000
,
0001
0100
0001
0100
1000
0100
0001
0000
,
1001
0000
0001
0100
0010
0100
0001
1000
,
0000
0000
1000
0100
1000
0100
0010
0001
,
0010
0000
0000
0100
0000
0000
1000
0000
,
0001
1000
0001
1000
0010
0000
0100
0000
,
1001
0000
1000
0100
0010
0001
0100
0001
,
0000
0000
0001
0010
0001
0010
0100
1000
,
1000
0000
0000
0000
0000
0000
0010
0100
,
0001
0010
1000
0010
0001
0000
0100
0000
,
1001
0000
0000
0000
;

//---------------dance-single - ----------------
#NOTES:
     dance-single:
     :
     Easy:
     6:
     0.288,0.331,0.344,0.014,0.004:
0000
0000
0000
0000
,
0000
0000
0000
0000
,
0000
0000
0000
0000
,
0000
0000
0000
0000
,
1000
0100
0010
0100
,
0000
1000
0100
0010
,
0001
0000
0000
1000
,
0001
0000
0000
0000
,
0100
0010
1000
0001
,
0001
1000
0010
0100
,
0001
1001
0000
0000
,
0000
0000
0000
0000
,
1000
0100
0010
0100
,
1000
0100
0001
0001
,
0100
0110
0000
0000
,
0000
0000
0000
0000
,
0001
0100
1000
0001
,
1000
0100
0001
0000
,
0000
1000
0100
0001
,
1000
0001
0100
1000
,
0001
0001
0100
0010
,
1000
0001
0000
1000
,
0010
0010
0100
0100
,
0001
0010
0100
0100
,
1001
0000
0000
0000
,
1010
1010
1001
0000
,
0001
0100
0110
1000
,
0100
0010
1001
0001
,
0011
0000
0000
0000
,
0110
0110
1100
0000
,
1000
0010
1010
0010
,
0100
0001
1001
0000
,
0001
0010
0100
1001
,
0100
0010
0001
1001
,
1000
1000
0010
0100
,
0002
0000
0000
1003
,
1001
0000
0000
0000
,
1100
1100
1001
1000
,
0010
0100
0001
0010
,
0100
1000
0001
0100
,
1000
1000
0100
0001
,
0000
0000
0000
0000
,
1000
1000
0100
0001
,
0100
0100
1000
1000
,
0010
0010
0100
0001
,
1001
0000
0000
0110
,
0110
1001
0000
0001
,
0010
0011
1000
0010
,
0100
0001
0101
0001
,
1001
0000
0000
0000
,
1100
1010
1001
0000
,
1000
0010
1010
0010
,
0100
1000
0010
0001
,
1001
0000
0000
0000
,
0101
1010
1001
0000
,
0001
0010
0011
0100
,
1000
0010
1010
0001
,
1001
0000
0000
0000
,
1001
0110
1001
0000
,
1000
0010
1010
0001
,
0100
0010
0001
0100
,
1000
0100
0010
1001
,
1000
0010
0100
1001
,
0001
0001
0010
0100
,
2000
0000
0000
0000
0000
0001
0000
0000
3001
0000
0000
0000
0100
0000
0000
0000
,
0110
0000
0000
0010
,
1000
0100
0010
1000
,
0010
0001
0100
0010
,
0010
1000
1000
0001
,
1001
0001
0010
0100
,
0000
1000
0010
0100
,
0001
0000
0000
0001
0000
0000
0100
0000
,
0100
0010
0010
1001
,
0001
0010
0100
1000
,
0010
0100
0001
1000
,
1000
0000
0000
0000
,
0100
0100
0010
0010
,
1001
0000
0000
0000
;

//---------------dance-double - ----------------
#NOTES:
     dance-double:
     :
     Medium:
     9:
     0.366,0.386,0.179,0.014,0.007: // measure 1
00000000
00000000
00000000
00000000
,  // measure 2
00000000
00000000
00000000
00000000
,  // measure 3
00000000
00000000
00000000
00000000
,  // measure 4
00000000
00000000
00000000
00000000
,  // measure 5
00011000
00000000
00001000
01000000
00010000
00000000
10000000
00000000
,  // measure 6
01000000
00000000
00100000
00001000
00010000
00000000
00010000
00000010
,  // measure 7
00000010
00000000
00000000
00000000
00000000
00000000
00000010
00000100
,  // measure 8
00000000
00000000
00000000
00000000
00000001
00000000
00000001
00000001
,  // measure 9
00001000
00000000
00000100
00000000
00010000
00001000
00010000
00000000
,  // measure 10
01000000
00000000
00010000
00000000
00001000
00010000
00000000
00000010
,  // measure 11
00000000
00000110
00000010
00010000
,  // measure 12
01000000
00000000
10000000
00000000
00100000
00000000
00010000
00010000
,  // measure 13
00001000
00000000
00000100
00000000
00000001
00001000
00000001
00000000
,  // measure 14
00000010
00000000
00001000
00000000
00010000
00000000
01000000
10000000
,  // measure 15
00000000
10010000
10000000
00100000
,  // measure 16
00010000
00001000
00000100
00000001
,  // measure 17
00001001
00000000
00000001
00000010
00000001
00000000
00000001
00000100
,  // measure 18
00001000
00010000
00000000
00010000
00000000
00000000
00000000
00000000
,  // measure 19
00000000
00000000
00001000
00010000
00001000
00000000
00001000
00010000
,  // measure 20
00100000
10000000
01000000
00010000
,  // measure 21
00011000
00000000
00011000
00000000
00001000
00010000
00000100
00000010
,  // measure 22
00000000
00000001
00000000
00000000
00000000
00000000
00001000
00000001
,  // measure 23
00000010
00001000
00010000
01000000
,  // measure 24
10000000
10000000
01000000
00010000
,  // measure 25
00011000
00000000
00000000
00000000
00000000
00000000
00001000
00000010
,  // measure 26
00000000
00000010
00000001
00000100
00000001
00000000
00000000
00000001
,  // measure 27
00000000
00000001
00000100
00000000
00001000
00000000
00010000
01000000
,  // measure 28
00000000
01000000
10000000
00000000
00100000
00000000
00010000
00000000
,  // measure 29
00011000
00000000
00000000
00000000
00000000
00000000
00010000
00100000
,  // measure 30
00000000
00100000
10000000
01000000
10000000
00000000
00000000
10000000
,  // measure 31
00000000
10000000
01000000
00000000
00010000
00000000
00001000
00000100
,  // measure 32
00000000
00000100
00000001
00000000
00000010
00000000
00000000
00000000
,  // measure 33
00000001
00000100
00000001
00000100
00000010
00000000
00000110
00000010
,  // measure 34
00010000
00000000
00010000
00001000
00000000
00000000
00011000
00000000
,  // measure 35
00010000
00000000
00010000
00000000
00100000
01000000
00100000
20000000
,  // measure 36
00000000
00000000
00000000
00000000
00000000
00010000
00000000
00000000
30010000
00000000
00000000
00000000
01000000
00000000
00000000
00000000
,  // measure 37
01100000
00000000
00000000
00000000
00000000
00000000
00100000
10000000
,  // measure 38
00000000
10000000
01000000
00010000
00001000
00000000
00001000
00000100
,  // measure 39
00000001
00000010
00001000
00000010
,  // measure 40
00000001
00000000
00000100
00000000
00001000
00000000
00010000
00010000
,  // measure 41
00100000
10000000
01000000
00010000
,  // measure 42
00001000
00000010
00000001
00000100
,  // measure 43
00001000
00000100
00000001
00000010
,  // measure 44
00001000
00010000
01000000
10000000
,  // measure 45
00100000
00010000
00001000
00010000
,  // measure 46
00011000
00000000
00000000
00000000
00000000
00000000
00010000
00100000
,  // measure 47
00000000
00100000
10000000
01000000
00010000
00000000
00000000
00010000
,  // measure 48
00000000
00001000
00000010
00000000
00001001
00000000
00000001
00000100
,  // measure 49
00000000
00000100
00001000
00000000
00010000
00000000
01000000
00000000
,  // measure 50
10010000
00000000
00000000
00000000
00000000
00000000
10000000
00100000
,  // measure 51
00000000
00100000
10000000
01000000
00010000
00000000
00000000
00001000
,  // measure 52
00000000
00000010
00000001
00000000
00001001
00000000
00000001
00000100
,  // measure 53
00000000
00000100
00001000
00000000
00001000
00000000
00000000
00000000
,  // measure 54
00001001
00000000
00000000
00000000
00000000
00000000
00000001
00000010
,  // measure 55
00000000
00000010
00000001
00000100
00001000
00000000
00000000
00010000
,  // measure 56
00000000
00010000
01000000
00000000
10010000
00000000
10000000
00100000
,  // measure 57
00000000
00100000
00010000
00000000
00001000
00000000
00010000
00000000
,  // measure 58
00011000
00000000
00000000
00000000
00000000
00000000
00001000
00000010
,  // measure 59
00000000
00000010
00000001
00000100
00001000
00000000
00000000
00010000
,  // measure 60
00000000
00100000
10000000
00000000
10010000
00000000
10000000
01000000
,  // measure 61
00000000
01000000
00010000
00000000
00010000
00000000
00000000
00000000
,  // measure 62
00001000
00000010
00000001
00000100
00001000
00000000
00011000
00010000
,  // measure 63
00100000
00000000
00100000
10000000
00000000
00000000
10010000
00000000
,  // measure 64
10000000
00000000
10000000
00000000
00100000
10000000
01000000
00020000
,  // measure 65
00000000
00000000
00000000
00000000
00000000
00001000
00000000
00000000
00031000
00000000
00000000
00000000
00010000
00000000
00000000
00000000
,  // measure 66
00011000
00000000
00000000
00000000
00000000
00000000
00010000
01000000
,  // measure 67
00000000
01000000
00010000
00001000
00000100
00000000
00000100
00000001
,  // measure 68
00000010
00000000
00001000
00000000
00000010
00000000
00000001
00000100
,  // measure 69
00001000
00010000
01000000
10000000
01000000
00000000
00100000
00000000
,  // measure 70
00011000
00000000
00001000
00010000
00001000
00010000
00000010
00001000
,  // measure 71
00000000
00000000
00000010
00000100
00000001
00001000
00000001
00001000
,  // measure 72
00000001
00000100
00000000
00001000
00000000
00000000
00001000
00000100
,  // measure 73
00000001
00000010
00001000
00010000
00001000
00000000
00010000
00000000
,  // measure 74
00011000
00000000
00010000
00001000
00010000
00001000
01000000
00010000
,  // measure 75
00000000
00000000
10000000
01000000
00100000
00001000
00100000
00001000
,  // measure 76
00001000
00000000
00000000
00000000
00000000
00000000
00010000
00100000
,  // measure 77
10000000
01000000
00010000
00001000
00010000
00000000
00001000
00000000
,  // measure 78
00011000
00000000
00000000
00000000
;

//---------------dance-double - ----------------
#NOTES:
     dance-double:
     :
     Easy:
     7:
     0.296,0.386,0.329,0.021,0.004: // measure 1
00000000
00000000
00000000
00000000
,  // measure 2
00000000
00000000
00000000
00000000
,  // measure 3
00000000
00000000
00000000
00000000
,  // measure 4
00000000
00000000
00000000
00000000
,  // measure 5
00001000
00010000
01000000
00010000
,  // measure 6
00001000
00010000
00100000
10000000
,  // measure 7
10000000
00000000
00000000
00000000
,  // measure 8
00010000
00000000
00000000
10000000
,  // measure 9
01000000
10000000
00010000
00010000
,  // measure 10
01000000
00001000
00010000
00000100
,  // measure 11
00001000
00001001
00000000
00000000
,  // measure 12
00000001
00000100
00000010
00010000
,  // measure 13
00001000
00100000
00010000
00010000
,  // measure 14
10000000
00100000
01000000
00001000
,  // measure 15
00010000
00011000
00000000
00000000
,  // measure 16
00010000
00000100
00001000
00000001
,  // measure 17
00000100
00000010
00000100
00000001
,  // measure 18
00000010
00001000
00010000
00000000
,  // measure 19
00010000
00100000
10000000
00100000
,  // measure 20
00010000
00001000
00010000
00000000
,  // measure 21
01000000
01000000
10000000
00010000
,  // measure 22
01000000
00001000
00000000
00001000
,  // measure 23
00010000
00000010
00000100
00000001
,  // measure 24
00001000
00000100
00010000
00001000
,  // measure 25
00011000
00000000
00000000
00010000
,  // measure 26
01000000
10000000
00100000
00010000
,  // measure 27
00001000
00010000
00100000
00010000
,  // measure 28
00000100
00000010
00000001
00001000
,  // measure 29
00001001
00000000
00000000
00000000
,  // measure 30
00001000
00000010
00000100
00001000
,  // measure 31
00010000
00100000
10000000
00100000
,  // measure 32
00010000
00001000
00010000
00000000
,  // measure 33
00010000
01000000
10000000
10010000
,  // measure 34
10000000
00100000
00010000
00011000
,  // measure 35
00010000
00010000
00000100
00001000
,  // measure 36
00000001
00000000
00000000
00000100
,  // measure 37
00001001
00000000
00000000
00000000
,  // measure 38
00001000
00000010
00000100
00001000
,  // measure 39
00010000
00100000
10000000
01000000
,  // measure 40
00010000
00002000
00003010
00002000
,  // measure 41
00013000
00010000
00100000
10000000
,  // measure 42
00000000
00000000
00000000
00000000
,  // measure 43
10000000
01000000
00010000
00001000
,  // measure 44
00000100
00000100
00000001
00000001
,  // measure 45
00000010
00000010
00001000
00001000
,  // measure 46
00011000
00000000
00000000
00000000
,  // measure 47
00011000
01100000
10010000
00000000
,  // measure 48
10000000
00100000
10010000
00010000
,  // measure 49
00100000
00001000
00011000
00000100
,  // measure 50
00001001
00000000
00000000
00000000
,  // measure 51
00001001
00000110
00011000
00000000
,  // measure 52
00001000
10000000
01000000
10000000
,  // measure 53
00100000
00010000
00001000
00000000
,  // measure 54
00011000
00000000
00000000
00000000
,  // measure 55
00011000
00000110
00001001
00000000
,  // measure 56
00000001
00000100
00001000
00000100
,  // measure 57
00000001
00000010
00001000
00010000
,  // measure 58
00011000
00000000
00000000
00000000
,  // measure 59
00011000
01100000
10010000
00000000
,  // measure 60
10000000
00100000
00010000
00100000
,  // measure 61
10000000
01000000
00010000
00000000
,  // measure 62
00001000
00000100
00000001
00001001
,  // measure 63
00001000
00000100
00010000
00011000
,  // measure 64
00100000
00100000
00010000
10000000
,  // measure 65
00200000
00000000
00000000
00000000
00000000
00010000
00000000
00000000
00310000
00000000
00000000
00000000
00001000
00000000
00000000
00000000
,  // measure 66
00011000
00000000
00000000
00000000
,  // measure 67
00001001
00011000
10010000
00000000
,  // measure 68
10000000
00100000
00010000
00001000
,  // measure 69
00001001
00011000
10010000
00011000
,  // measure 70
00001001
00000001
00000010
00000100
,  // measure 71
00000010
00000001
00000100
00001000
,  // measure 72
00010000
00000000
00000000
00010000
00000000
00000000
00011000
00000000
,  // measure 73
01100000
00011000
00000110
00011000
,  // measure 74
00010000
01000000
10000000
00100000
,  // measure 75
00000000
10000000
01000000
00010000
,  // measure 76
00001000
00000000
00000000
00000100
,  // measure 77
00000110
00011000
01100000
10010000
,  // measure 78
00011000
00000000
00000000
00000000
;

//---------------dance-single - ----------------
#NOTES:
     dance-single:
     :
     Beginner:
     3:
     0.137,0.193,0.115,0.000,0.000:
0000
0000
0000
0000
,
0000
0000
0000
0000
,
0000
0000
0000
0000
,
0000
0000
0000
0000
,
1000
0000
0000
0000
,
1000
0000
0000
0000
,
0010
0000
0000
0000
,
0100
0000
0000
0000
,
0001
0000
0000
0000
,
0001
0000
0000
0000
,
0010
0000
0000
0000
,
0000
0000
0000
0000
,
0001
0000
0000
0000
,
0001
0000
0000
0000
,
0100
0000
0000
0000
,
0000
0000
0000
0000
,
0010
0000
0000
0000
,
0010
0000
0000
0000
,
1000
0000
0000
0000
,
0001
0000
0000
0000
,
1000
0000
1000
0000
,
0001
0000
0000
0000
,
0001
0000
0001
0000
,
1000
0000
0100
0000
,
1001
0000
0000
0000
,
1000
1000
1000
0000
,
0010
0000
0010
0000
,
0100
0000
0100
0000
,
1001
0000
0000
0000
,
0001
0001
0001
0000
,
0001
0000
0010
0000
,
0100
0000
1000
0000
,
0001
0000
0000
0000
,
1000
0000
0000
0000
,
0100
0000
0000
0000
,
0010
0000
0000
0000
,
1001
0000
0000
0000
,
1000
1000
1000
0000
,
0001
0000
0000
0000
,
0000
0000
0000
0001
,
0001
0000
0001
0000
,
0000
0000
0000
0000
,
1000
0000
1000
0000
,
0100
0000
0100
0000
,
0010
0000
0010
0000
,
1001
0000
0000
0000
,
1000
1000
1000
0000
,
0010
0000
0110
0000
,
0100
0000
0110
0000
,
1001
0000
0000
0000
,
1000
1000
1000
0000
,
0100
0000
0110
0000
,
0010
0000
0110
0000
,
1001
0000
0000
0000
,
0001
0001
0001
0000
,
0100
0000
1001
0000
,
0100
0000
0110
0000
,
1001
0000
0000
0000
,
0001
0001
0001
0000
,
0100
0000
1001
0000
,
1000
1000
1000
0000
,
0010
0000
0000
0000
,
0001
0000
0000
0000
,
0010
0000
0010
0000
,
1000
0000
0000
0000
,
1001
0000
0000
0000
,
0001
0001
0001
0000
,
1000
0000
0000
0000
,
1000
1000
1000
0000
,
0100
0000
0010
0000
,
0100
0000
0001
0000
,
0001
0000
0000
0000
,
0100
0100
0100
0000
,
1000
0000
0010
0000
,
0100
0000
0001
0000
,
0010
0000
0000
0000
,
0100
0100
0100
0000
,
1001
0000
0000
0000
;
