#VERSION:0.83;
#TITLE:Ballade pour Adeline;
#SUBTITLE:;
#ARTIST:Richard Clayderman;
#TITLETRANSLIT:;
#SUBTITLETRANSLIT:;
#ARTISTTRANSLIT:;
#GENRE:;
#ORIGIN:;
#CREDIT:;
#BANNER:Ballade pour Adeline-bn.png;
#BACKGROUND:Ballade pour Adeline-bg.png;
#PREVIEWVID:;
#JACKET:Ballade pour Adeline-jacket.png;
#CDIMAGE:;
#DISCIMAGE:;
#LYRICSPATH:;
#CDTITLE:;
#MUSIC:Ballade pour Adeline.ogg;
#OFFSET:4.000000;
#SAMPLESTART:56.245998;
#SAMPLELENGTH:20.000000;
#SELECTABLE:YES;
#DISPLAYBPM:20.000000:78.000000;
#BPMS:0.000=60.000,
4.000=58.000,
5.000=60.000,
6.000=67.000,
11.750=42.000,
12.000=59.000,
14.000=67.000,
15.000=65.000,
17.000=70.000,
22.000=67.000,
27.500=42.000,
28.000=59.000,
29.000=68.000,
39.000=66.000,
43.500=40.000,
44.000=65.000,
45.000=68.000,
46.000=72.000,
56.000=69.000,
58.000=64.000,
59.000=72.000,
64.125=69.000,
64.250=66.000,
64.750=60.000,
65.000=55.000,
65.500=50.000,
65.625=42.000,
65.750=35.000,
65.875=20.000,
66.000=60.000,
67.000=68.000,
69.000=66.000,
70.000=68.000,
72.000=71.000,
76.000=65.000,
77.000=60.000,
78.000=63.000,
79.000=72.000,
80.000=69.000,
81.000=66.000,
82.000=61.000,
83.000=67.000,
84.000=73.000,
86.000=69.000,
93.000=60.000,
94.000=67.000,
100.000=72.000,
104.000=78.000,
105.000=75.000,
108.000=72.000,
110.000=69.000,
112.000=64.000,
113.000=68.000,
114.000=72.000,
118.000=69.000,
119.000=55.000,
119.750=35.000,
119.875=20.000,
120.000=60.000,
121.000=70.000,
126.000=73.000,
130.000=65.000,
131.000=62.000,
133.500=60.000,
134.000=63.000,
138.000=45.000,
139.000=36.000;
#STOPS:;
#DELAYS:;
#WARPS:;
#TIMESIGNATURES:0.000=4=4;
#TICKCOUNTS:0.000=4;
#COMBOS:0.000=1;
#SPEEDS:0.000=1.000=0.000=0;
#SCROLLS:0.000=1.000;
#FAKES:;
#LABELS:0.000=Song Start;
#BGCHANGES:;
#KEYSOUNDS:;
#ATTACKS:
;

//---------------dance-single - ----------------
#NOTEDATA:;
#CHARTNAME:;
#STEPSTYPE:dance-single;
#DESCRIPTION:;
#CHARTSTYLE:;
#DIFFICULTY:Hard;
#METER:11;
#RADARVALUES:0.351338,0.452320,0.000000,0.000000,0.469943,314.000000,314.000000,0.000000,0.000000,0.000000,0.000000,0.000000,0.000000,0.000000,0.351338,0.452320,0.000000,0.000000,0.469943,314.000000,314.000000,0.000000,0.000000,0.000000,0.000000,0.000000,0.000000,0.000000;
#CREDIT:;
#DISPLAYBPM:20.000000:78.000000;
#NOTES:
0000
0000
0000
0000
,
0000
0000
0000
0000
,
0000
0000
0000
0000
,
0010
0000
0000
0000
0010
0000
0000
0000
0000
0000
0000
0000
0001
0000
0000
1000
,
0100
0000
0000
0000
0100
0000
0000
0000
0000
1000
0001
1000
0001
0100
0010
1000
,
0001
0000
0000
0000
0001
0000
0000
0000
0000
0000
0000
0000
0100
0000
0000
0010
,
1000
0100
0010
0100
0010
0001
1000
0001
,
0100
0000
0000
0000
0010
0000
0000
0000
0000
1000
0001
1000
0001
0100
0010
1000
,
0100
0000
0000
0000
0010
0000
0000
0000
0000
0001
0100
0001
1000
0010
1000
0001
,
0100
0000
0000
0000
0010
0000
0000
0000
0000
0000
0000
0000
1000
0000
0000
0001
,
0100
0010
0100
0001
1000
0100
0010
0001
,
1000
0000
0010
0100
0001
0100
0010
1000
0001
0000
0010
0001
0100
0001
1000
0010
,
0100
0000
0010
0000
1000
0000
0001
0000
0010
0001
1000
0001
1000
0100
0010
0001
,
0100
0000
0001
0010
0100
0010
0001
1000
0010
0000
1000
0100
1000
0001
0100
0010
,
1000
0000
0000
0000
0100
0000
0010
0001
1000
0010
1000
0010
0100
0001
0100
0001
,
1000
0001
1000
0001
0100
0010
0100
0010
1000
0100
1000
0100
0010
0001
0010
0001
,
1000
0010
0100
0001
1000
0100
0010
0001
1000
0000
0000
0000
0001
0000
0000
0000
,
0000
0000
0000
0000
0100
0000
0000
0010
0100
0000
0000
0000
0001
0000
0000
0000
,
0000
1000
0010
0100
0010
1000
0001
0010
0100
0000
0000
0000
1000
0000
0000
0000
,
0000
0000
0000
0000
0001
0000
0000
1000
0010
0000
0000
0000
1000
0010
0100
0001
,
1000
0001
0010
0100
1000
0100
0010
0001
0100
0000
0000
0000
0010
0000
0000
0000
,
0000
0100
0001
1000
0100
0010
0001
1000
0001
0000
0000
0000
0010
0000
0000
0000
,
0000
0001
1000
0100
1000
0010
0100
0001
1000
0000
0000
0000
0100
0000
0000
0000
,
0000
0000
0010
0001
0100
0000
0000
0001
1000
0000
0100
0000
0010
0000
0001
0000
,
0100
0000
0010
0000
1000
0000
0001
0000
0010
0000
0001
1000
0100
1000
0010
0100
,
0001
0000
1000
0001
0010
0001
0100
0010
1000
0000
0000
0000
0001
0000
0010
0100
,
0000
1000
0001
0010
0001
0100
0010
0000
1000
0000
0001
0100
0010
1000
0100
0010
,
0001
0000
0100
0001
0010
0100
1000
0010
0100
0000
0000
0000
0001
0000
1000
0010
,
0100
0010
0100
0010
1000
0001
1000
0001
0010
0001
0010
0001
1000
0100
1000
0100
,
1000
0010
1000
0010
0100
0001
0100
0001
1000
0010
0100
0001
1000
0100
0010
0001
,
0100
0000
0000
0000
0010
0000
0000
0000
0000
1000
0001
0010
0001
0100
0010
1000
,
0001
0000
0000
0000
1000
0000
0000
0000
0000
0010
0100
0001
1000
0001
0010
0100
,
1000
0000
0000
0000
0010
0000
0000
0000
0000
0000
0000
0000
0100
0000
0000
0001
,
1000
0000
0010
0000
0100
0000
0001
0000
0100
0010
1000
0001
0010
0100
1000
0001
,
0100
0000
0010
0000
1000
0000
0001
0000
0010
0001
1000
0010
0100
0001
1000
0100
,
0010
0000
0000
0000
;

//---------------dance-single - ----------------
#NOTEDATA:;
#CHARTNAME:;
#STEPSTYPE:dance-single;
#DESCRIPTION:;
#CHARTSTYLE:;
#DIFFICULTY:Medium;
#METER:9;
#RADARVALUES:0.241685,0.260427,0.000000,0.000000,0.203642,216.000000,216.000000,0.000000,0.000000,0.000000,0.000000,0.000000,0.000000,0.000000,0.241685,0.260427,0.000000,0.000000,0.203642,216.000000,216.000000,0.000000,0.000000,0.000000,0.000000,0.000000,0.000000,0.000000;
#CREDIT:;
#DISPLAYBPM:20.000000:78.000000;
#NOTES:
0000
0000
0000
0000
,
0000
0000
0000
0000
,
0000
0000
0000
0000
,
0010
0000
0000
0000
0010
0000
0000
0000
0000
0000
0000
0000
1000
0000
0000
0001
,
0100
0000
0000
0000
0100
0000
0000
0000
0000
0001
1000
0001
1000
0001
1000
0001
,
1000
0000
0000
0000
0001
0000
0000
0000
0000
0000
0000
0000
0100
0000
0000
0010
,
1000
0001
0100
0010
,
1000
0000
0000
0000
1000
0000
0000
0000
0000
0010
0100
0010
0100
0010
0100
0010
,
0100
0000
0000
0000
0100
0000
0000
0000
0000
0001
0010
0001
0010
0001
0010
0001
,
0010
0000
0000
0000
0010
0000
0000
0000
0000
0000
0000
0000
0001
0000
0000
1000
,
0010
0100
0001
1000
,
0010
1000
0100
0010
0001
1000
0001
0100
,
0010
0000
0010
1000
0001
0010
0100
1000
,
0010
0100
0001
0010
0001
1000
0100
1000
,
0010
0000
0000
0000
0100
0000
0001
1000
0000
0000
0010
0000
0000
0000
0100
0000
,
0000
0000
0001
1000
0000
0000
1000
0010
0000
0000
0100
0001
0000
0000
1000
0001
,
1000
0000
0010
0000
0100
0000
0001
1000
0001
0000
0000
0000
0001
0000
0000
0000
,
0000
0000
0000
0000
0100
0000
0000
0001
1000
0000
0000
0000
1000
0000
0000
0000
,
0000
0001
0100
0001
0100
0001
0100
0001
0100
0000
0000
0000
0100
0000
0000
0000
,
0000
0000
0000
0000
0010
0000
0000
0100
0001
0000
0000
0000
1000
0000
0001
0000
,
1000
0010
0100
0001
0010
0000
0010
0000
,
0000
0001
1000
0001
1000
0001
1000
0001
1000
0000
0000
0000
1000
0000
0000
0000
,
0000
1000
0100
1000
0100
1000
0100
1000
0100
0000
0000
0000
0100
0000
0000
0000
,
0000
0000
0000
0000
0010
0000
0000
0001
1000
0000
0000
0000
0001
0000
0000
0000
,
0100
0000
0010
0000
0100
0001
1000
0001
,
0010
0000
0100
0000
1000
0000
0010
0000
0100
0000
0000
0000
0001
0000
1000
0010
,
0000
0100
0010
1000
0001
1000
0100
1000
,
0010
0000
0100
0000
0001
0000
0100
0000
0001
0000
0000
0000
0010
0000
0100
1000
,
0000
0000
0001
0000
0000
0000
1000
0000
0000
0000
0010
0100
0000
0000
0100
0001
,
0000
0000
0001
1000
0000
0000
1000
0010
1000
0000
0100
0000
0010
0000
0001
1000
,
0001
0000
0000
0000
0001
0000
0000
0000
0000
0100
0010
0100
0010
0100
0010
0100
,
0010
0000
0000
0000
0010
0000
0000
0000
0000
1000
0001
1000
0001
1000
0001
1000
,
0001
0000
0000
0000
0001
0000
0000
0000
0000
0000
0000
0000
0010
0000
0000
0001
,
1000
0000
0010
0000
1000
0100
0010
0001
,
0100
0000
0001
0000
1000
0010
0100
0001
,
0010
0000
0000
0000
;

//---------------dance-single - ----------------
#NOTEDATA:;
#CHARTNAME:;
#STEPSTYPE:dance-single;
#DESCRIPTION:;
#CHARTSTYLE:;
#DIFFICULTY:Easy;
#METER:4;
#RADARVALUES:0.117486,0.123360,0.000000,0.000000,0.000000,105.000000,105.000000,0.000000,0.000000,0.000000,0.000000,0.000000,0.000000,0.000000,0.117486,0.123360,0.000000,0.000000,0.000000,105.000000,105.000000,0.000000,0.000000,0.000000,0.000000,0.000000,0.000000,0.000000;
#CREDIT:;
#DISPLAYBPM:20.000000:78.000000;
#NOTES:
0000
0000
0000
0000
,
0000
0000
0000
0000
,
0000
0000
0000
0000
,
0010
0010
0000
0001
,
1000
1000
0000
0010
,
0100
0100
0000
0001
,
1000
0000
0010
0000
,
0100
0100
0000
0001
,
0010
0010
0000
0001
,
1000
1000
0000
0010
,
0100
0000
0001
0000
,
1000
1000
0010
0010
,
0100
0001
1000
0001
,
0010
0010
0001
0001
,
0100
0010
1000
0001
,
0010
0100
1000
1000
,
0001
0100
0010
1000
,
0000
0100
1000
0001
,
0000
0010
0001
0100
,
0000
0010
1000
0001
,
0100
0010
0100
0100
,
0000
0001
1000
1000
,
0000
0100
0010
0010
,
0000
0001
1000
0000
,
0001
0000
1000
0100
,
0010
0100
1000
0001
,
1000
0000
0010
1000
,
0001
1000
0100
0010
,
0001
0100
0001
1000
,
0010
1000
0100
0010
,
0001
1000
0000
0100
,
1000
0010
0000
1000
,
0001
0010
0000
0100
,
1000
0000
0001
1000
,
0100
0000
1000
0001
,
0010
0000
0000
0000
;

//---------------dance-single - ----------------
#NOTEDATA:;
#CHARTNAME:;
#STEPSTYPE:dance-single;
#DESCRIPTION:;
#CHARTSTYLE:;
#DIFFICULTY:Beginner;
#METER:2;
#RADARVALUES:0.069373,0.068533,0.000000,0.000000,0.000000,62.000000,62.000000,0.000000,0.000000,0.000000,0.000000,0.000000,0.000000,0.000000,0.069373,0.068533,0.000000,0.000000,0.000000,62.000000,62.000000,0.000000,0.000000,0.000000,0.000000,0.000000,0.000000,0.000000;
#CREDIT:;
#DISPLAYBPM:20.000000:78.000000;
#NOTES:
0000
0000
0000
0000
,
0000
0000
0000
0000
,
0000
0000
0000
0000
,
0010
0010
0000
0000
,
1000
1000
0000
0000
,
0001
0001
0000
0000
,
0100
0000
0000
0000
,
0001
0001
0000
0000
,
0010
0010
0000
0000
,
0100
0100
0000
0000
,
1000
0000
0000
0000
,
0010
0000
0100
0000
,
0001
0000
1000
0000
,
0100
0000
1000
0000
,
0001
0000
0010
0000
,
0001
0000
1000
0000
,
0010
0000
1000
1000
,
0000
0000
0100
0100
,
0000
0000
0010
0010
,
0000
0000
0001
0000
,
1000
0000
0010
0010
,
0000
0000
0100
0100
,
0000
0000
0001
0001
,
0000
0000
1000
0000
,
0000
0000
1000
0000
,
0010
0000
0100
0000
,
0001
0000
0010
0000
,
0100
0000
1000
0000
,
0001
0000
1000
0000
,
0010
0000
0100
0000
,
0100
0100
0000
0000
,
0001
0001
0000
0000
,
1000
1000
0000
0000
,
0010
0000
0100
0000
,
0001
0000
1000
0000
,
0010
0000
0000
0000
;

//---------------dance-single - ----------------
#NOTEDATA:;
#CHARTNAME:;
#STEPSTYPE:dance-single;
#DESCRIPTION:;
#CHARTSTYLE:;
#DIFFICULTY:Challenge;
#METER:15;
#RADARVALUES:0.500154,0.784071,0.000000,0.000000,0.755825,447.000000,447.000000,0.000000,0.000000,0.000000,0.000000,0.000000,0.000000,0.000000,0.500154,0.784071,0.000000,0.000000,0.755825,447.000000,447.000000,0.000000,0.000000,0.000000,0.000000,0.000000,0.000000,0.000000;
#CREDIT:;
#DISPLAYBPM:20.000000:78.000000;
#NOTES:
// measure 0
0000
0000
0000
0000
,  // measure 1
0000
0000
0000
0000
,  // measure 2
0000
0000
0000
0000
,  // measure 3
0010
0000
0100
0000
0001
0000
0100
0000
0010
0000
1000
0000
0001
0000
1000
0100
,  // measure 4
0010
0000
0001
0000
1000
0000
0001
0000
0100
0010
0010
0010
0010
1000
0001
1000
,  // measure 5
0100
0000
0010
0000
0100
0000
1000
0000
0010
0000
0100
0000
0001
0000
1000
0010
,  // measure 6
0100
0001
1000
0100
0010
0001
1000
0010
,  // measure 7
1000
0000
0100
0000
0010
0000
0001
0000
1000
0010
0010
0010
0010
0100
0001
1000
,  // measure 8
0100
0000
0010
0000
0001
0000
1000
0000
0001
0100
0100
0100
0100
0001
0010
0100
,  // measure 9
1000
0000
0010
0000
0100
0000
0001
0000
0010
0000
0100
0000
1000
0000
0001
0100
,  // measure 10
0010
1000
0100
0010
0001
0100
0010
1000
,  // measure 11
0001
0100
0010
1000
0100
0010
0100
0010
0001
0100
0010
1000
0001
0010
0001
0100
,  // measure 12
0010
0000
1000
0000
0100
0000
0010
0000
0001
0000
0000
0000
1000
0000
0000
0000
0010
0100
0010
0100
0001
0100
0001
0100
0001
1000
0001
1000
0010
0000
0100
0000
,  // measure 13
0010
1000
0100
0010
0100
0010
0001
1000
0001
0010
0100
1000
0010
0100
0001
1000
,  // measure 14
0100
0000
0000
0000
1000
0000
0010
0100
0001
0010
0100
1000
0001
0100
0010
1000
,  // measure 15
0100
1000
0100
1000
0100
1000
0100
1000
0010
0100
0010
0100
0010
0100
0010
0100
0001
0010
0001
0010
0001
0010
0001
0010
0001
1000
0001
1000
0001
1000
0001
1000
,  // measure 16
0001
0010
0100
1000
0001
0010
0100
1000
0001
0010
0100
1000
0001
0010
0100
1000
0010
0000
0000
0000
1000
0000
0000
0000
0100
0000
0000
0000
0010
0000
0000
0000
,  // measure 17
0100
0000
1000
0000
0001
0000
1000
0001
0010
0000
0100
0000
1000
0000
0010
0000
,  // measure 18
0100
0001
0001
0001
0001
1000
0010
1000
0100
0000
0010
0000
0001
0000
0100
0000
,  // measure 19
0010
0000
1000
0000
0100
0000
0010
0001
1000
0000
0000
0000
1000
0100
0001
0100
,  // measure 20
1000
0010
0001
0010
1000
0100
0010
0001
0100
0000
0010
0000
0100
0000
0001
0000
,  // measure 21
0010
0100
0100
0100
1000
0001
1000
0010
0100
0000
0001
0000
0010
0000
0100
0000
,  // measure 22
1000
0010
0010
0010
0010
1000
0100
0010
0001
0000
0100
0000
0001
0000
0010
0000
,  // measure 23
0100
0000
1000
0001
0010
0000
0100
1000
0001
0000
1000
0000
0100
0000
0010
0000
,  // measure 24
0001
0000
0100
0000
0010
0000
1000
0000
0100
1000
0001
1000
0010
0100
0001
0010
,  // measure 25
0100
1000
0010
0100
0001
1000
0001
0010
0100
0010
0001
1000
0010
0000
0100
0100
,  // measure 26
0000
0001
1000
0000
0001
0000
0100
0000
0010
0000
1000
0000
0100
0000
0010
0000
0001
0000
1000
0000
0100
0000
0010
0000
0100
0000
0010
0000
0001
0000
0100
0000
,  // measure 27
0001
0010
0100
1000
0010
1000
0100
0010
0100
1000
0001
1000
0010
0000
0100
0001
,  // measure 28
1000
0000
0001
0000
0010
0000
0100
0000
1000
0000
0010
0000
0100
0000
0001
0000
1000
0010
1000
0010
1000
0010
1000
0010
0100
0001
0100
0001
0100
0001
0100
0001
,  // measure 29
1000
0100
1000
0100
1000
0100
1000
0100
0010
0001
0010
0001
0010
0001
0010
0001
1000
0010
0100
0001
1000
0010
0100
0001
1000
0010
0100
0001
1000
0010
0100
0001
,  // measure 30
0010
0000
0100
0000
0010
0000
0001
0000
1000
0100
0100
1000
1000
0001
0001
0010
,  // measure 31
0010
0000
0001
0000
0100
0000
0010
0000
1000
0001
0001
0100
0100
0010
0010
1000
,  // measure 32
1000
0000
0100
0000
0010
0000
0001
0000
0100
0000
0010
0000
1000
0000
0000
0001
,  // measure 33
1000
0000
0010
0000
0100
0000
0001
0000
1000
0100
0001
0100
1000
0010
0001
0010
,  // measure 34
1000
0000
0001
0000
0100
0000
0010
0000
1000
0100
0001
0100
1000
0010
0001
0010
,  // measure 35
1000
0010
0100
0001
0010
0000
0000
0000
0000
0000
0000
0000
0000
0000
0000
0000
0000
0000
0000
0000
0000
0000
0000
0000
0000
0000
0000
0000
0000
0000
0000
0000
;
