#VERSION:0.83;
#TITLE:BaBan!!;
#SUBTITLE:-甘い罠-;
#ARTIST:Hiro / 永江理奈;
#TITLETRANSLIT:;
#SUBTITLETRANSLIT:-Amai Wana-;
#ARTISTTRANSLIT:Hiro / Rina Nagae;
#GENRE:ESPIONAGE ELECTRO;
#ORIGIN:;
#CREDIT:;
#BANNER:BaBan!! -Amai Wana-.png;
#BACKGROUND:BaBan!! -Amai Wana--bg.png;
#PREVIEWVID:;
#JACKET:BaBan!! -Amai Wana--jacket.png;
#CDIMAGE:;
#DISCIMAGE:;
#LYRICSPATH:;
#CDTITLE:cdtitle.png;
#MUSIC:BaBan!! -Amai Wana-.ogg;
#OFFSET:-0.635000;
#SAMPLESTART:81.110001;
#SAMPLELENGTH:15.000000;
#SELECTABLE:YES;
#BPMS:0.000=161.000;
#STOPS:;
#DELAYS:;
#WARPS:;
#TIMESIGNATURES:0.000=4=4;
#TICKCOUNTS:0.000=4;
#COMBOS:0.000=1;
#SPEEDS:0.000=1.000=0.000=0;
#SCROLLS:0.000=1.000;
#FAKES:;
#LABELS:0.000=Song Start;
#BGCHANGES:-1.500=BaBan!! -Amai Wana-.avi=1.000=0=0=0=StretchNoLoop==CrossFade_Fastest==,
99999=-nosongbg-=1.000=0=0=0 // don't automatically add -songbackground-
;
#KEYSOUNDS:;
#ATTACKS:
;

//---------------dance-single - Daff_4K----------------
#NOTEDATA:;
#CHARTNAME:Daff_4K;
#STEPSTYPE:dance-single;
#DESCRIPTION:Daff_4K;
#CHARTSTYLE:;
#DIFFICULTY:Beginner;
#METER:3;
#RADARVALUES:0.105585,0.193035,0.034781,0.000000,0.000000,85.000000,81.000000,4.000000,0.000000,0.000000,0.000000,0.000000,0.000000,0.000000,0.105585,0.193035,0.034781,0.000000,0.000000,85.000000,81.000000,4.000000,0.000000,0.000000,0.000000,0.000000,0.000000,0.000000;
#CREDIT:Daff_4K;
#NOTES:
0000
0000
0000
0000
,
0000
0000
0000
0000
,
0000
0000
0000
0000
,
0000
0000
0000
0000
,
0000
0000
0000
0000
,
0000
0000
0000
0000
,
0010
0000
0000
0000
,
0010
0000
0000
0000
,
0100
0000
0000
0000
,
0100
0000
0000
0000
,
1000
0000
0000
0000
,
0001
0000
0000
0000
,
0100
0000
0100
0000
,
0100
0000
0000
0000
,
0001
0000
0000
0000
,
0001
0000
0000
0000
,
1000
0000
0000
0000
,
1000
0000
0000
0000
,
0100
0000
0000
0000
,
0100
0000
0000
0000
,
0010
0000
0010
0000
,
0001
0000
0000
0000
,
1000
0000
0000
0000
,
1000
0000
0000
0000
,
0001
0000
0000
0000
,
0001
0000
0000
0000
,
0100
0000
0000
0000
,
0010
0000
0000
0000
,
1000
0000
0000
0000
,
1001
0000
0000
0000
,
0001
0000
0000
0000
,
0001
0000
0000
0000
,
1000
0000
0000
0000
,
1000
0000
0000
0000
,
0100
0000
0000
0000
,
0100
0000
0000
0000
,
0010
0000
0000
0000
,
0001
0000
0000
0000
,
1001
0000
0000
0000
,
0000
0000
0000
0000
,
1000
0000
0000
0000
,
1000
0000
0000
0000
,
0010
0000
0000
0000
,
0100
0000
0100
0000
,
0001
0000
0000
0000
,
0001
0000
0000
0000
,
0010
0000
0000
0000
,
0100
0000
0000
0000
,
1000
0000
1000
0000
,
1000
0000
0000
0000
,
0001
0000
0001
0000
,
0001
0000
0000
0000
,
1001
0000
0000
0000
,
0000
0000
0000
0000
,
1000
0000
0010
0000
,
1000
0000
0000
0000
,
0001
0000
0010
0000
,
0001
0000
0000
0000
,
0100
0000
0010
0000
,
0100
0000
0000
0000
,
0010
0000
0100
0000
,
0010
0000
0000
0000
,
1000
0000
0100
0000
,
1000
0000
0000
0000
,
0001
0000
0100
0000
,
0001
0000
0000
0000
,
0010
0010
0010
0000
,
0010
0000
0000
0000
,
0100
0100
0100
0000
,
0100
0000
0000
0000
,
1001
0000
0000
0000
,
0000
0000
0000
0000
,
0010
0000
0000
0000
,
0100
0000
0000
0000
,
0010
0000
0000
0000
;

//---------------dance-single - Daff_4K----------------
#NOTEDATA:;
#CHARTNAME:Daff_4K;
#STEPSTYPE:dance-single;
#DESCRIPTION:Daff_4K;
#CHARTSTYLE:;
#DIFFICULTY:Easy;
#METER:7;
#RADARVALUES:0.293155,0.418243,0.113039,0.426068,0.000000,236.000000,223.000000,13.000000,49.000000,0.000000,0.000000,0.000000,0.000000,0.000000,0.293155,0.418243,0.113039,0.426068,0.000000,236.000000,223.000000,13.000000,49.000000,0.000000,0.000000,0.000000,0.000000,0.000000;
#CREDIT:Daff_4K;
#NOTES:
// measure 0
0000
0000
0000
0000
,  // measure 1
0000
0000
0000
0000
,  // measure 2
0000
0000
0000
0000
,  // measure 3
0000
0000
0000
0000
,  // measure 4
0000
0000
0000
0000
,  // measure 5
0000
0000
0000
0000
,  // measure 6
1000
1000
0010
0100
,  // measure 7
0010
1000
0001
1000
,  // measure 8
0001
0001
0010
0100
,  // measure 9
0010
0001
1000
0001
,  // measure 10
0200
0000
0320
0000
,  // measure 11
2030
0000
3002
0000
,  // measure 12
0013
0100
1000
0001
,  // measure 13
2002
0000
0000
3003
,  // measure 14
2000
0010
0000
3020
,  // measure 15
0200
0000
0330
0001
,  // measure 16
2000
0100
0000
3200
,  // measure 17
0020
0000
0330
0000
,  // measure 18
0002
0010
0000
0023
,  // measure 19
0200
0000
0330
1000
,  // measure 20
0001
0100
1000
0100
,  // measure 21
0001
0010
1000
0010
,  // measure 22
0002
0100
0000
0103
,  // measure 23
0020
1000
0000
1030
,  // measure 24
2000
0100
0000
3100
,  // measure 25
0020
0001
0000
0031
,  // measure 26
0001
0100
0010
0100
,  // measure 27
1000
0100
0010
0100
,  // measure 28
0001
1000
0100
0010
,  // measure 29
0000
2002
0000
0000
0000
0000
3003
0000
,  // measure 30
0001
0100
2000
3000
,  // measure 31
0001
0100
2000
3000
,  // measure 32
0001
0010
2000
3000
,  // measure 33
0001
0010
2000
3000
,  // measure 34
1000
0100
0002
0003
,  // measure 35
1000
0100
0002
0003
,  // measure 36
1000
0010
0002
0003
,  // measure 37
1000
0010
0002
0003
,  // measure 38
0110
0000
1001
0000
0000
1001
0000
0110
,  // measure 39
0000
1001
0001
2000
,  // measure 40
0200
3300
0010
0002
,  // measure 41
2000
3003
1000
0020
,  // measure 42
0200
0330
0001
1000
,  // measure 43
1001
0100
1001
0002
,  // measure 44
0200
0303
0010
2000
,  // measure 45
0002
3003
0001
0020
,  // measure 46
0200
0330
1000
0001
,  // measure 47
1001
0100
1001
1000
,  // measure 48
0020
0000
0130
0001
,  // measure 49
0020
0000
0130
1000
,  // measure 50
0001
0001
0100
0010
,  // measure 51
1000
1000
0100
0010
,  // measure 52
2002
0000
0000
0000
,  // measure 53
0000
0000
0000
3003
,  // measure 54
1000
0010
0000
0100
0010
0000
1000
0001
,  // measure 55
0000
1000
0100
0010
,  // measure 56
0001
0100
0000
0010
0100
0000
0001
1000
,  // measure 57
0000
0001
0010
0000
0100
0000
1000
0000
,  // measure 58
0001
0010
0000
0100
0010
0000
0001
1000
,  // measure 59
0000
0001
0100
0010
,  // measure 60
1000
0100
0000
0010
0100
0000
1000
0001
,  // measure 61
0000
1000
0010
0000
0100
0000
0001
0000
,  // measure 62
1000
0100
0000
0010
0001
0000
1000
0010
,  // measure 63
0000
0100
0001
1000
,  // measure 64
0001
0100
0000
0010
1000
0000
0001
0010
,  // measure 65
0000
0100
1000
0001
,  // measure 66
1000
0010
0000
0010
0100
0000
0100
0001
,  // measure 67
0000
0001
0010
0000
0100
0000
1000
0000
,  // measure 68
0001
0010
0000
0010
0100
0000
0100
1000
,  // measure 69
0000
1000
0010
0000
0100
0000
0001
0000
,  // measure 70
2002
0000
0000
0000
,  // measure 71
0000
0000
0000
3003
,  // measure 72
0020
0000
0000
0000
,  // measure 73
0230
0000
0000
0000
,  // measure 74
0300
0000
0000
0000
;

//---------------dance-single - Daff_4K----------------
#NOTEDATA:;
#CHARTNAME:Daff_4K;
#STEPSTYPE:dance-single;
#DESCRIPTION:Daff_4K;
#CHARTSTYLE:;
#DIFFICULTY:Medium;
#METER:10;
#RADARVALUES:0.421100,0.514760,0.260858,0.478240,0.000000,339.000000,309.000000,30.000000,55.000000,0.000000,0.000000,0.000000,0.000000,0.000000,0.421100,0.514760,0.260858,0.478240,0.000000,339.000000,309.000000,30.000000,55.000000,0.000000,0.000000,0.000000,0.000000,0.000000;
#CREDIT:Daff_4K;
#NOTES:
// measure 0
0000
0000
0000
0000
,  // measure 1
0000
0000
0000
0000
,  // measure 2
0000
0000
0000
0000
,  // measure 3
0000
0000
0000
0000
,  // measure 4
0000
0000
0000
0000
,  // measure 5
0000
0000
0000
0000
,  // measure 6
1000
0100
1000
0000
0010
0000
1001
0000
,  // measure 7
0101
1010
0110
1001
,  // measure 8
0001
0100
0001
0000
0010
0000
1001
0000
,  // measure 9
1100
0011
0110
1001
,  // measure 10
1000
0100
1000
0000
0001
0100
0001
0000
,  // measure 11
1000
0010
1000
0000
0001
0010
0001
0000
,  // measure 12
0100
0010
0100
0010
1000
0001
1000
0001
,  // measure 13
0020
0000
0000
0130
,  // measure 14
2000
0010
0100
3010
,  // measure 15
0200
0001
0010
0301
,  // measure 16
0020
0100
0001
0130
,  // measure 17
2000
0000
3001
0000
1000
0010
0100
0000
,  // measure 18
0002
0010
0100
0013
,  // measure 19
0200
1000
0010
1300
,  // measure 20
0020
0100
1000
0130
,  // measure 21
0002
0000
1003
0000
0001
0010
0100
1000
,  // measure 22
0002
0100
1000
0103
,  // measure 23
0020
0000
1000
0000
0100
0000
1030
0001
,  // measure 24
2000
0100
0001
3100
,  // measure 25
0020
0000
0001
0000
0100
0000
0031
1000
,  // measure 26
0002
0103
0020
1030
,  // measure 27
2000
3100
0020
0031
,  // measure 28
0100
0010
0100
0000
0001
1000
0001
1000
,  // measure 29
0000
2002
0000
3003
0000
0001
0100
0001
,  // measure 30
0000
1000
0000
0001
0000
0010
0100
0010
,  // measure 31
0000
1000
0000
0010
0000
0001
1000
0001
,  // measure 32
0000
0100
0000
0010
0000
1000
0001
1000
,  // measure 33
0000
0100
0010
0100
0000
1000
0100
1000
,  // measure 34
0000
0001
0000
1000
0000
0010
0100
0010
,  // measure 35
0000
0001
0000
0010
0000
1000
0001
1000
,  // measure 36
0001
0100
0101
0010
,  // measure 37
1000
0100
1100
0010
,  // measure 38
0001
0000
1001
0000
1000
0100
0000
0001
,  // measure 39
0100
0000
1001
0000
0100
0010
0100
0000
,  // measure 40
0002
0010
1000
0013
,  // measure 41
0200
0010
1000
0310
,  // measure 42
0002
1000
0100
1003
,  // measure 43
0010
1001
0100
1001
,  // measure 44
2000
0010
0001
3010
,  // measure 45
0200
0010
0001
0310
,  // measure 46
2000
0001
0100
3001
,  // measure 47
0010
1001
0100
1001
,  // measure 48
1000
0000
0010
0100
0000
0001
0000
1000
,  // measure 49
0000
0100
0010
0000
0001
0000
0100
0010
,  // measure 50
0200
1000
0010
0301
,  // measure 51
1000
0001
1000
0000
0220
0000
0330
0000
,  // measure 52
2002
0000
0000
0000
,  // measure 53
0000
0000
0000
3003
,  // measure 54
1000
0020
0000
0130
0002
0000
1003
0200
,  // measure 55
0000
0310
0000
1001
0000
0110
0000
1000
,  // measure 56
0001
0200
0000
0310
2000
0000
3100
0020
,  // measure 57
0000
0031
1000
0001
0100
0010
0200
0000
,  // measure 58
0301
0020
0000
0130
2000
0000
3001
0200
,  // measure 59
0000
0310
0000
1001
0000
0110
0000
0001
,  // measure 60
1000
0200
0000
0310
0002
0000
0103
0020
,  // measure 61
0000
1030
0001
1000
0100
0010
0200
0000
,  // measure 62
1300
0002
0000
0103
2000
0000
3100
0020
,  // measure 63
0000
0130
0001
1000
0100
0000
1001
0000
,  // measure 64
0001
2000
0000
3100
0002
0000
0103
0020
,  // measure 65
0000
0130
1000
0001
0100
0000
1001
0000
,  // measure 66
1000
0010
0100
0010
1000
0000
0001
0100
,  // measure 67
0010
0100
0001
0000
1000
0000
0110
0000
,  // measure 68
0001
0010
0100
0010
0001
0000
1000
0100
,  // measure 69
0010
0100
1000
0000
0001
0000
0110
0000
,  // measure 70
2002
0000
0000
0000
,  // measure 71
0000
0000
0000
3003
,  // measure 72
2000
0000
3002
0000
,  // measure 73
0203
0000
0310
1000
,  // measure 74
0001
0000
0000
0000
;

//---------------dance-single - Daff_4K----------------
#NOTEDATA:;
#CHARTNAME:Daff_4K;
#STEPSTYPE:dance-single;
#DESCRIPTION:Daff_4K;
#CHARTSTYLE:;
#DIFFICULTY:Hard;
#METER:12;
#RADARVALUES:0.565193,0.611278,0.599974,0.486935,0.078257,455.000000,386.000000,69.000000,56.000000,0.000000,0.000000,0.000000,0.000000,0.000000,0.565193,0.611278,0.599974,0.486935,0.078257,455.000000,386.000000,69.000000,56.000000,0.000000,0.000000,0.000000,0.000000,0.000000;
#CREDIT:Daff_4K;
#NOTES:
// measure 0
0000
0000
0000
0000
,  // measure 1
0000
0000
0000
0000
,  // measure 2
0000
0000
0000
0000
,  // measure 3
0000
0000
0000
0000
,  // measure 4
0000
0000
0000
0000
,  // measure 5
0000
0000
0000
0000
,  // measure 6
1000
0010
0001
0000
0110
0000
1001
0000
,  // measure 7
1100
0000
0011
0000
0110
0000
1001
1000
,  // measure 8
0001
0010
1000
0000
0110
0000
1001
0000
,  // measure 9
0101
0000
1010
0000
0110
0000
1001
0001
,  // measure 10
1000
0100
0010
0001
1000
0010
0100
0001
,  // measure 11
0001
0100
0010
1000
0001
0010
0100
1000
,  // measure 12
1000
0000
0010
0000
0100
0000
0001
0000
0010
0000
0100
0000
1000
0001
1000
0002
,  // measure 13
2000
0000
0000
3003
,  // measure 14
0201
0000
1000
0000
0010
0000
0301
0020
,  // measure 15
1000
0000
0100
0000
0032
0000
0103
0010
,  // measure 16
2000
0000
0100
0000
0001
0000
3010
0200
,  // measure 17
0001
0000
1000
0000
0301
1000
0100
0000
,  // measure 18
1200
0000
0001
0000
0010
0000
1300
0020
,  // measure 19
0001
0000
0100
0000
2030
0000
3100
0010
,  // measure 20
0002
0000
0103
0010
2000
0000
3001
0010
,  // measure 21
0200
0000
0000
0000
1300
0000
0010
0000
0100
0000
0001
0000
1000
0001
1000
0001
,  // measure 22
1000
0100
0000
0011
0000
1100
0000
1010
,  // measure 23
0000
0101
0000
1001
0000
0110
0000
1001
,  // measure 24
0001
0100
0000
1010
0000
0101
0000
0011
,  // measure 25
0000
1100
0000
1001
0000
0110
0000
1001
,  // measure 26
0001
0010
0000
1100
0000
0011
0000
1001
,  // measure 27
1000
0010
0000
0101
0000
1010
0000
1001
,  // measure 28
0001
0010
0100
1000
0010
0100
0001
1000
,  // measure 29
0000
2002
0000
3003
0000
0001
0100
1000
,  // measure 30
0100
0010
0100
0002
0000
1003
0100
0010
,  // measure 31
1000
0010
0001
2000
0000
3010
0100
0010
,  // measure 32
0001
0010
1000
0002
0000
0013
0100
1000
,  // measure 33
0010
0000
0100
0000
0001
0100
0002
0000
0000
0000
1003
0000
0100
0000
0001
0000
,  // measure 34
0100
0010
0100
2000
0000
3001
0100
0010
,  // measure 35
0001
0010
1000
0002
0000
0013
0100
1000
,  // measure 36
1010
0000
0110
0000
0101
0000
0001
1000
,  // measure 37
0100
0010
0001
1000
0010
0100
0001
1000
,  // measure 38
1100
0000
0011
0000
0100
0010
0000
1001
,  // measure 39
0000
0000
1000
0000
0002
0000
0000
0000
0013
0000
0100
0010
0100
0010
0100
0000
,  // measure 40
2000
0000
3010
0001
0000
0110
0000
1001
,  // measure 41
0000
1000
0100
0001
1000
0010
0001
0100
,  // measure 42
0120
0000
0000
0000
1030
0000
0001
0000
0000
0001
0010
0000
0000
0010
0100
0000
,  // measure 43
0000
0100
1000
0000
0000
1000
0010
0000
0000
0010
0100
0000
0001
0000
1000
0000
,  // measure 44
0002
0000
0013
1000
0000
0110
0000
1001
,  // measure 45
0000
0001
0100
1000
0001
0010
1000
0100
,  // measure 46
0120
0000
0000
0000
0031
0000
1000
0000
0000
1000
0010
0000
0000
0010
0100
0000
,  // measure 47
0000
0100
0001
0000
2000
0000
0000
0000
3100
0000
0010
0000
0001
0000
1000
0000
,  // measure 48
0020
0000
0130
0001
0000
0110
0000
1001
,  // measure 49
0000
1000
0100
0000
1001
0000
0001
0200
,  // measure 50
1000
0010
0001
0310
,  // measure 51
1000
0100
0010
0001
0100
0010
1000
0000
,  // measure 52
2002
0000
0000
0000
,  // measure 53
0000
0000
0000
0000
3003
0000
0000
0000
0010
0000
1000
0001
1000
0000
0001
0000
,  // measure 54
1100
0012
0000
2003
0010
0000
3002
0100
,  // measure 55
0000
0013
0000
1100
0000
0011
0000
1000
,  // measure 56
0002
0100
0000
2003
0010
0000
3200
0001
,  // measure 57
0000
0310
0001
0100
1000
0001
0010
0100
,  // measure 58
0101
2010
0000
3002
0010
0000
2003
0100
,  // measure 59
0000
3010
0000
0101
0000
1010
0000
0001
,  // measure 60
2000
0100
0000
3002
0010
0000
0203
1000
,  // measure 61
0000
0310
1000
0100
0001
1000
0010
0100
,  // measure 62
0110
2001
0000
3200
0001
0000
0320
1000
,  // measure 63
0000
0031
1000
0010
0110
0000
1001
0000
,  // measure 64
0002
1000
0000
0203
1000
0000
0320
0001
,  // measure 65
0000
1030
0001
0010
0110
0000
1001
0000
,  // measure 66
1000
0010
0001
1000
0100
0001
0010
1000
,  // measure 67
0001
0100
1000
0010
0110
0000
1001
0000
,  // measure 68
0001
0010
1000
0001
0100
1000
0010
0100
,  // measure 69
0001
0000
0000
0001
1000
0000
0000
1000
0100
0000
0010
0000
0001
0000
0000
0000
,  // measure 70
2002
0000
0000
0000
,  // measure 71
0000
0000
0000
3003
,  // measure 72
2000
0000
3002
0000
,  // measure 73
0203
0320
2030
3001
,  // measure 74
1001
0000
0000
0000
;
