#VERSION:0.83;
#TITLE:BOOM BOOM DISCO NIGHT;
#SUBTITLE:;
#ARTIST:Y&Co.;
#TITLETRANSLIT:;
#SUBTITLETRANSLIT:;
#ARTISTTRANSLIT:;
#GENRE:EUROBEAT;
#ORIGIN:;
#CREDIT:;
#BANNER:;
#BACKGROUND:;
#PREVIEWVID:;
#JACKET:;
#CDIMAGE:;
#DISCIMAGE:;
#LYRICSPATH:;
#CDTITLE:;
#MUSIC:BOOM BOOM DISCO NIGHT.ogg;
#OFFSET:-0.016614;
#SAMPLESTART:49.552567;
#SAMPLELENGTH:15.780007;
#SELECTABLE:YES;
#BPMS:0.000=155.000;
#STOPS:;
#DELAYS:;
#WARPS:;
#TIMESIGNATURES:0.000=4=4;
#TICKCOUNTS:0.000=4;
#COMBOS:0.000=1;
#SPEEDS:0.000=1.000=0.000=0;
#SCROLLS:0.000=1.000;
#FAKES:;
#LABELS:0.000=Song Start;
#BGCHANGES:;
#KEYSOUNDS:;
#ATTACKS:
;

//---------------dance-single - Classic 9 | Modern 13----------------
#NOTEDATA:;
#CHARTNAME:;
#STEPSTYPE:dance-single;
#DESCRIPTION:Classic 9 | Modern 13;
#CHARTSTYLE:;
#DIFFICULTY:Hard;
#METER:13;
#RADARVALUES:0.742513,0.816676,0.507481,0.294667,0.495203,635.000000,573.000000,62.000000,36.000000,0.000000,0.000000,0.000000,0.000000,0.000000,0.742513,0.816676,0.507481,0.294667,0.495203,635.000000,573.000000,62.000000,36.000000,0.000000,0.000000,0.000000,0.000000,0.000000;
#CREDIT:DDRDAIKENKAI;
#NOTES:
// measure 0
0000
0000
0000
0000
,  // measure 1
0000
0000
0000
0000
,  // measure 2
0000
0000
0000
0000
,  // measure 3
0000
0000
0000
0000
,  // measure 4
0210
0000
0000
0301
0010
0000
0001
1000
0100
0000
0000
1000
0010
0000
1000
0001
,  // measure 5
0100
0000
0000
0001
0010
0000
0001
1000
0100
0000
0000
1000
0010
0000
1000
0001
,  // measure 6
0100
0000
0000
0001
0010
0000
0001
1000
0100
0000
0000
1000
0010
0000
0100
0000
,  // measure 7
0220
0000
0000
0000
0000
0000
0330
0000
0000
0000
0001
1000
0001
1000
0001
1000
,  // measure 8
0001
0010
0000
0001
1000
0000
0010
0000
1000
0000
0010
0100
0000
0010
0100
0000
,  // measure 9
0010
0000
1000
0000
0001
0000
0010
0001
0100
0000
0010
0000
0100
0000
0001
0000
,  // measure 10
1000
0010
0000
1000
0001
0000
0100
0000
0010
0000
0100
0001
0000
0100
0001
0000
,  // measure 11
0010
0100
0000
0100
1000
0000
1000
0010
0000
0010
0001
0000
0010
0000
1000
0000
,  // measure 12
0001
0100
0000
0001
1000
0000
0010
0000
1000
0000
0100
0010
0000
0100
0010
0000
,  // measure 13
0001
0000
0100
0000
0001
0000
0010
0100
1000
0000
0001
0000
0100
0000
0010
0000
,  // measure 14
1000
0100
1000
0000
0001
0000
1000
0000
0100
0000
1000
0010
0000
1000
0001
0000
,  // measure 15
0010
0001
0000
0001
1000
0000
1000
0010
0000
0010
0100
0010
0100
0010
0100
0010
,  // measure 16
1000
0000
0102
0000
1003
0200
0000
0320
,  // measure 17
0000
0031
1000
0010
0001
0010
1000
0001
,  // measure 18
0020
0000
0000
0230
0000
0000
1300
0000
0001
0000
0100
0000
0020
0000
0000
0000
,  // measure 19
2030
0000
3100
0010
0001
0000
1100
0000
,  // measure 20
1001
0000
0012
0000
1000
1003
0000
0020
,  // measure 21
0000
0030
0001
0000
0010
0000
1000
0000
0010
0000
0001
0000
0010
0000
0100
0000
,  // measure 22
2000
0000
0000
3200
0000
0000
0302
0000
0000
0000
0103
0000
0000
0000
0210
0000
,  // measure 23
0000
0301
0100
0001
0100
0001
0100
0001
,  // measure 24
1000
0010
0100
0001
0010
0100
1000
0001
,  // measure 25
1000
0100
0010
0001
0100
0010
1000
0001
,  // measure 26
1000
0010
0100
0010
0001
0010
1000
0001
,  // measure 27
0010
0000
1000
0000
0000
0000
1000
0000
0100
0000
0001
0000
1000
0000
0001
1000
,  // measure 28
0001
0010
0100
0010
1000
0010
0100
0010
,  // measure 29
0011
0000
0000
1001
0000
0000
0100
0000
1100
0000
0000
1010
0000
0000
0110
0000
,  // measure 30
2000
0000
3020
0000
0032
0000
0103
2000
,  // measure 31
0001
0000
0001
0000
0001
0000
3001
0000
1000
0001
1000
0001
1000
0001
0100
0000
,  // measure 32
0110
0010
1010
0000
0210
0000
0301
0001
,  // measure 33
0010
1000
0010
0001
0100
0010
0110
0000
,  // measure 34
1010
1000
1001
0000
0012
0000
1003
0010
,  // measure 35
0001
0010
0100
0010
1000
0100
0110
0000
,  // measure 36
1200
0000
1300
0010
0100
0001
0010
2000
,  // measure 37
0000
3010
0001
1000
0010
0100
0110
0000
,  // measure 38
1010
0000
2001
0000
3010
0000
1001
0100
,  // measure 39
0010
0000
0100
1000
0100
1000
0010
0100
,  // measure 40
0001
0000
0010
0000
0100
0000
0010
0000
0001
0000
1000
0001
1000
0001
1000
0000
,  // measure 41
1100
0000
0000
0101
0000
0000
2002
0000
0000
0000
0000
0000
3003
0000
0000
0000
,  // measure 42
1000
0100
0000
1000
0001
0000
0010
0000
0100
0000
0010
0001
0000
0100
0001
0000
,  // measure 43
0010
0000
0100
0000
1000
0000
0001
0100
0010
0000
1000
0000
0100
0000
0010
0000
,  // measure 44
0001
0100
0000
0001
1000
0000
0001
0000
0010
0000
0100
0010
0000
0100
1000
0000
,  // measure 45
0010
1000
0000
1000
0001
0000
0001
0010
0000
0010
0001
0000
1000
0000
0010
0000
,  // measure 46
0100
0010
0000
0100
0001
0000
0010
0000
0100
0000
0010
0001
0000
1000
0100
0000
,  // measure 47
0010
0000
0100
0000
1000
0000
0001
1000
0100
0000
1000
0000
0010
0000
0100
0000
,  // measure 48
0001
0010
0001
0000
0100
0000
0010
0000
1000
0000
0100
0010
0000
0100
0010
0000
,  // measure 49
0001
0100
0000
0001
0100
0000
0010
1000
0000
0010
1000
0000
1001
0000
0000
0000
,  // measure 50
0011
0000
1100
0000
0001
0100
0010
1000
,  // measure 51
1010
0000
0101
0000
1000
0100
0010
0001
,  // measure 52
0011
0000
1100
0000
0001
0100
0010
0100
,  // measure 53
0110
0000
0000
0010
0100
0000
0100
0010
0100
0000
0100
0000
0110
0000
0000
0000
,  // measure 54
1010
0000
1001
0000
1000
1100
0000
0100
,  // measure 55
0110
0000
0000
0110
0000
0000
0011
0000
0011
0000
0101
0000
0000
0000
0001
0010
,  // measure 56
0100
0000
0000
0100
1000
0000
1000
0001
1000
0001
1000
0000
0001
0000
0001
1000
,  // measure 57
0001
0000
0001
1000
0000
1000
0001
0000
2001
0000
3010
0100
0010
0100
0010
0000
,  // measure 58
0110
0100
0101
0000
0120
0000
1030
1000
,  // measure 59
0100
0001
0100
1000
0010
0100
0110
0000
,  // measure 60
0101
0001
1001
0000
2100
0000
3001
0100
,  // measure 61
1000
0100
0010
0100
0001
0010
0110
0000
,  // measure 62
0021
0000
0031
0100
0010
1000
0100
0002
,  // measure 63
0000
0103
1000
0001
0100
0010
0110
0000
,  // measure 64
0101
0000
1002
0000
0103
0000
1001
0010
,  // measure 65
0100
0000
0010
0001
0010
0001
0100
0010
,  // measure 66
1000
0000
0100
0000
0010
0000
0100
0000
1000
0000
0001
1000
0001
1000
0001
0000
,  // measure 67
0011
0000
0000
1010
0000
0000
2002
0000
0000
0000
0000
0000
3003
0000
0000
0000
,  // measure 68
1000
0010
0000
1000
0001
0000
0100
0000
0010
0000
0100
0001
0000
0010
0100
0000
,  // measure 69
0010
0000
0001
0000
1000
0000
0100
0010
0001
0000
0100
0000
0010
0000
1000
0000
,  // measure 70
0001
0010
0000
0001
1000
0000
0010
0000
0100
0000
0010
1000
0000
0100
1000
0000
,  // measure 71
0010
0100
0000
0100
0001
0000
0001
0100
0000
0100
0010
0000
1000
0000
0001
0000
,  // measure 72
1000
0010
0000
1000
0001
0000
0010
0000
0100
0000
0010
0001
0000
1000
0100
0000
,  // measure 73
0010
0000
0001
0000
0100
0000
0010
1000
0100
0000
1000
0000
0010
0000
0100
0000
,  // measure 74
0001
0010
0100
0000
1000
0000
0001
0000
0100
0000
0010
1000
0000
0100
1000
0000
,  // measure 75
0001
0010
0000
0001
1000
0000
0010
1000
0000
0001
0100
0010
0100
0010
0100
0010
,  // measure 76
2000
0000
0000
3000
;

//---------------dance-single - Classic 10 | Modern 16----------------
#NOTEDATA:;
#CHARTNAME:;
#STEPSTYPE:dance-single;
#DESCRIPTION:Classic 10 | Modern 16;
#CHARTSTYLE:;
#DIFFICULTY:Challenge;
#METER:16;
#RADARVALUES:0.958836,0.973730,0.433815,0.474741,1.137740,820.000000,767.000000,53.000000,58.000000,0.000000,0.000000,1.000000,0.000000,0.000000,0.958836,0.973730,0.433815,0.474741,1.137740,820.000000,767.000000,53.000000,58.000000,0.000000,0.000000,1.000000,0.000000,0.000000;
#CREDIT:DDRDAIKENKAI;
#NOTES:
0000
0000
0000
0000
,
0000
0000
0000
0000
,
0000
0000
0000
0000
,
0000
0000
0000
0000
,
0100
0000
0010
0000
1002
0000
0000
0000
1003
0010
0000
0001
0000
0010
0100
0000
,
0001
0000
0001
0000
1000
0000
0000
0000
0001
0100
0000
1000
0000
0100
0010
0000
,
1000
0000
1000
0000
0002
0000
0000
0000
1003
0100
1000
0100
1000
0100
1000
0100
,
0020
0000
0000
0000
0000
0000
0030
0000
0000
0000
0001
1000
0001
1000
0001
1000
,
0001
0200
0000
0301
1000
0000
0010
0000
1000
0100
1000
0020
0000
1030
0001
1000
,
0100
1000
0100
1000
0010
1000
0001
0100
0001
0010
0001
0010
0001
1000
0010
0100
,
0010
2000
0000
3001
0010
0000
0100
0000
0010
0001
0100
0020
0000
1030
0001
0100
,
0001
0010
0001
1000
0100
1000
0001
0100
0001
1000
0010
1000
0010
1000
0001
0100
,
0010
2000
0000
3001
1000
0000
0100
0000
0010
0100
0010
0002
0000
0013
0100
1000
,
0010
0100
0010
0100
0001
1000
0010
1000
0100
0010
0100
0010
0001
0100
0010
1000
,
0001
0100
0001
0000
1000
0000
0000
0000
0100
0000
1000
0000
0001
0000
0000
0000
1000
0000
0010
0000
0100
0000
0002
0000
0000
0000
0103
0000
0010
0000
0100
0000
,
0001
0000
0010
0000
0000
0000
0010
0000
0100
0000
0000
0000
0100
0000
1000
0000
0000
0000
1000
0000
0001
0000
0100
0000
0001
0100
0001
0000
1000
0000
0100
0000
,
1000
0000
0001
0000
0012
0000
0000
0000
0013
0100
0000
1000
0100
1000
0002
0000
,
0103
0000
0010
0000
0100
0000
0001
0000
1000
0010
0000
0100
0001
0010
0100
0000
,
1000
0000
0001
0000
0100
0000
0001
0000
1000
0100
0000
0010
0001
0010
0100
0000
,
2000
0000
0010
0000
3010
0000
0100
0000
0001
1000
0000
1000
0010
0100
0010
0100
,
0020
0000
1030
0000
1020
0000
0000
0000
1030
0001
0000
1000
0010
1000
0002
0000
,
1003
0000
0100
0000
0010
0000
1000
0000
0010
0001
0000
0100
0010
0100
0001
0000
,
0010
0000
0001
0000
0100
0000
1000
0000
0100
0000
0010
1000
0001
0000
2001
0000
,
0000
0000
3002
0000
0103
0000
0002
0000
0103
0000
0001
1000
0001
1000
0001
1000
,
0010
0100
0010
0000
1000
0100
1000
0000
0001
0010
0001
0010
0100
1000
0001
0000
,
1000
0010
1000
0000
0001
0100
0001
0000
0100
0010
0100
0010
0100
0001
1000
0000
,
0100
0010
0100
0000
1000
0010
1000
0000
0001
0100
0001
0100
0010
1000
0001
0000
,
1000
0010
1000
0000
0010
0100
0010
0000
0100
0001
0100
0001
1000
0100
1000
0100
,
0010
0001
1000
0000
0010
1000
0001
0000
0100
0010
1000
0000
0100
0010
0001
0000
,
0011
0000
0000
1001
0000
0000
0010
0000
1010
0000
0000
1001
0000
0000
0101
0000
,
2000
0000
3020
0000
0032
0000
0103
4000
,
0001
0000
0001
0000
0001
0000
0001
3000
0100
1000
0100
1000
0100
1000
0100
0000
,
0110
0000
0010
0000
0011
0000
0000
0000
0101
0000
0001
1000
0010
1000
0002
0000
,
1003
0010
0100
0010
0001
0010
1010
0000
,
0011
0000
0001
0000
0101
0000
0000
0000
1010
0000
1000
0100
0010
0100
1000
0000
,
0001
0010
1000
0010
0001
0100
0110
0000
,
1010
0000
0010
0000
0100
0001
0100
0000
0010
0000
1000
0100
0010
0100
1000
0000
,
0001
0100
0010
0100
1000
0100
0110
0000
,
1002
0000
2003
3100
0001
2000
3010
0001
,
2000
3010
0100
2000
3100
0001
2000
3001
,
0010
0000
2000
0000
3001
0000
0100
0000
2000
0000
3001
0010
0001
0010
0001
0010
,
0011
0000
0000
1100
0000
0000
1002
0000
0000
0000
1003
0010
1000
0010
1000
0010
,
1000
0020
0000
1030
0001
0000
0100
0000
0001
0010
0001
0200
0000
0301
1000
0001
,
0010
0001
0010
0001
0100
0001
1000
0010
1000
0100
1000
0100
1000
0001
0100
0010
,
0100
0002
0000
1003
0100
0000
0010
0000
0100
1000
0010
0200
0000
0301
1000
0010
,
1000
0100
1000
0001
0010
0001
1000
0010
1000
0001
0100
0001
0010
0001
1000
0010
,
0100
0002
0000
1003
0001
0000
0010
0000
0100
0010
0100
2000
0000
3100
0010
0001
,
0100
0010
0100
0010
1000
0001
0100
0001
0010
0100
0010
0100
1000
0010
0100
0001
,
1000
0010
1000
0000
0001
0000
0000
0000
0010
0000
0001
0000
1000
0000
0000
0000
0001
0000
0100
0000
0010
0000
2000
0000
0000
0000
3010
0000
0100
0000
0010
0000
,
1000
0000
0100
0000
0000
0000
0100
0000
0010
0000
0000
0000
0010
0000
0001
0000
0000
0000
0001
0000
1000
0000
0010
0000
1000
0010
1000
0000
0001
0000
0010
0000
,
0011
0000
1010
0000
0001
0001
1000
0100
,
1010
0000
0011
0000
0100
0100
0001
0010
,
1001
0000
0110
0000
1000
1000
0001
1000
,
2100
0000
0000
3001
0100
0000
0100
0010
0100
0000
0100
0000
0110
0000
0000
0000
,
1010
0000
1010
0000
0010
1010
0000
0010
,
0110
0000
0000
1010
0000
0000
0010
0000
0110
0000
0101
0000
0000
0000
0001
0100
,
0001
0000
0000
0001
0010
0000
0010
0001
0010
0001
1000
0000
0010
0000
0010
0100
,
0010
0000
1000
0010
0000
0100
0010
0000
0110
0000
0001
1000
0100
1000
0100
1000
,
1100
0000
0100
0000
0011
0000
0000
0000
1010
0000
1000
0001
0100
0001
2000
0000
,
3001
0100
0010
0100
1000
0100
0101
0000
,
1100
0000
1000
0000
1010
0000
0000
0000
0101
0000
0001
0010
0100
0010
0001
0000
,
1000
0100
0001
0100
1000
0010
0110
0000
,
0101
0000
0100
0000
0010
1000
0010
0000
0100
0000
0001
0010
0100
0010
0001
0000
,
1000
0010
0001
0010
0100
0010
0110
0000
,
2001
0000
3002
0013
1000
0002
0103
1000
,
0002
0103
0010
0002
0013
1000
0002
1003
,
0100
0000
0002
0000
1003
0000
0010
0000
0002
0000
1003
0100
1000
0100
1000
0100
,
1100
0000
0000
0011
0000
0000
2001
0000
0000
0000
3001
0100
0001
0100
0001
0100
,
0001
0020
0000
0130
0001
0000
0100
0000
1000
0010
0100
2000
0000
3100
0001
0100
,
0010
1000
0001
1000
0010
0100
0001
0010
0100
1000
0100
0010
0001
0100
0010
0100
,
0001
0200
0000
0310
0001
0000
0010
0000
1000
0100
0010
2000
0000
3010
0001
0100
,
0001
0010
0100
0001
0100
1000
0010
0100
1000
0100
0010
0100
0001
0010
0001
1000
,
0100
0002
0000
0103
0010
0000
0001
0000
1000
0010
1000
0200
0000
0310
0100
0010
,
0001
0100
0010
0100
1000
0100
0010
1000
0100
0010
0100
0001
0100
1000
0001
0100
,
0010
1000
0010
0000
0100
0000
0000
0000
0001
0000
0010
0000
0100
0000
0000
0000
1000
0000
0010
0000
0100
0000
0002
0000
0000
0000
1003
0000
0010
0000
0100
0000
,
1000
0000
0100
0000
0000
0000
0100
0000
0001
0000
0000
0000
0001
0000
0010
0000
0000
0000
0010
0000
0100
0000
1000
0000
0100
1000
0100
0000
1000
0000
0001
0000
,
2000
0000
0000
3000
;

//---------------dance-single - Classic 1 | Modern 2----------------
#NOTEDATA:;
#CHARTNAME:;
#STEPSTYPE:dance-single;
#DESCRIPTION:Classic 1 | Modern 2;
#CHARTSTYLE:;
#DIFFICULTY:Beginner;
#METER:2;
#RADARVALUES:0.204630,0.217726,0.057296,0.098222,0.000000,175.000000,168.000000,7.000000,12.000000,0.000000,0.000000,0.000000,0.000000,0.000000,0.204630,0.217726,0.057296,0.098222,0.000000,175.000000,168.000000,7.000000,12.000000,0.000000,0.000000,0.000000,0.000000,0.000000;
#CREDIT:DDRDAIKENKAI;
#NOTES:
0000
0000
0000
0000
,
0000
0000
0000
0000
,
0000
0000
0000
0000
,
0000
0000
0000
0000
,
2002
3003
0000
0000
,
1000
0000
1000
0000
,
0001
0001
0001
0000
,
2002
0000
3003
0000
,
1000
1000
1000
0000
,
0100
0000
0010
0000
,
0001
0001
0001
0000
,
1000
0000
0010
0000
,
0100
0100
0100
0000
,
0001
0000
1000
0000
,
0010
0000
0010
0000
,
0220
0000
0330
0000
,
1000
1000
0000
0001
,
0000
1000
0000
0001
,
0001
0000
1000
0000
,
0010
0000
0100
0000
,
0010
0010
0000
0100
,
0000
0010
0000
0100
,
0100
0000
0001
0000
,
1001
0000
0000
0000
,
1000
0000
0001
0000
,
0100
0100
0100
0000
,
0010
0000
0100
0000
,
0010
0010
0010
0000
,
1000
0000
0001
0000
,
1000
0000
0001
0000
,
0100
0000
0010
0000
,
0220
0000
0330
0000
,
1000
1000
1000
0000
,
0001
0001
0001
0000
,
0100
0100
0100
0000
,
0010
0010
0010
0000
,
1000
0000
0100
0000
,
0010
0000
0001
0000
,
0100
0100
0000
0001
,
0000
1000
0000
0010
,
0000
0100
0000
0010
,
0010
0000
0000
0000
,
0100
0100
0100
0000
,
0001
0000
1000
0000
,
0100
0100
0100
0000
,
0010
0000
0001
0000
,
1000
1000
1000
0000
,
0010
0010
0010
0000
,
0100
0000
0001
0000
,
2002
0000
3003
0000
,
1000
1000
1000
0000
,
0001
0001
0001
0000
,
0100
0100
0100
0000
,
0010
0010
0010
0000
,
1000
1000
1000
0000
,
0010
0000
0100
0000
,
0001
0000
1000
0000
,
0100
0100
0100
0000
,
0010
0010
0010
0000
,
0100
0000
1000
0000
,
0001
0001
0001
0000
,
0100
0000
0010
0000
,
1000
1000
1000
0000
,
0010
0000
0100
0000
,
0001
0001
0000
0010
,
0000
0100
0000
0010
,
0000
0100
0000
1000
,
1000
0000
0000
0000
,
0001
0001
0001
0000
,
0100
0100
0100
0000
,
0010
0010
0010
0000
,
1000
1000
1000
0000
,
0100
0100
0100
0000
,
0010
0010
0010
0000
,
0001
0000
1000
0000
,
2002
0000
0000
0000
,
3003
0000
0000
0000
;

//---------------dance-single - Classic 4 | Modern 6----------------
#NOTEDATA:;
#CHARTNAME:;
#STEPSTYPE:dance-single;
#DESCRIPTION:Classic 4 | Modern 6;
#CHARTSTYLE:;
#DIFFICULTY:Easy;
#METER:6;
#RADARVALUES:0.300513,0.314106,0.057296,0.180074,0.000000,257.000000,250.000000,7.000000,22.000000,0.000000,0.000000,0.000000,0.000000,0.000000,0.300513,0.314106,0.057296,0.180074,0.000000,257.000000,250.000000,7.000000,22.000000,0.000000,0.000000,0.000000,0.000000,0.000000;
#CREDIT:DDRDAIKENKAI;
#NOTES:
0000
0000
0000
0000
,
0000
0000
0000
0000
,
0000
0000
0000
0000
,
0000
0010
0000
0000
0000
0000
0000
0000
,
1000
0000
0001
0010
,
0100
0000
1000
0010
,
0100
0000
0010
1000
,
2002
0000
0000
3003
,
1000
1000
0001
0100
,
0001
0001
0010
0100
,
0010
0010
0100
1000
,
0100
0100
1000
0010
,
1000
1000
0010
0010
,
0100
0100
0001
0001
,
0010
0100
1000
0001
,
2002
0000
0000
3003
,
1000
1000
0001
0100
,
0010
0100
0010
1000
,
0001
0010
0100
0010
,
0002
0000
0200
0303
,
0010
0010
1000
0001
,
1000
0100
0010
0001
,
0010
0000
0100
0000
1000
0000
0010
0020
,
0000
0100
0100
0130
,
0010
1000
0001
1000
,
0100
0010
0001
0010
,
0100
1000
0001
1000
,
0010
0100
0001
0010
,
0010
0001
1000
0100
,
0010
0010
0010
0010
,
0001
0100
1000
0010
,
0002
0000
0003
0000
,
1000
1000
0010
0100
,
0010
0010
0010
0000
,
0001
0001
0010
0100
,
0010
0010
0010
0000
,
0001
0001
0100
0010
,
0100
0100
0100
0000
,
1000
0100
0000
0010
,
0000
1000
0000
0001
,
0000
0010
0000
0100
,
0220
0000
0000
0330
0000
0000
0000
0000
,
0010
0010
0001
1000
,
0010
0100
0010
1000
,
0010
0010
1000
0001
,
0010
0100
1000
0001
,
0100
0100
0001
1000
,
0100
0001
0100
1000
,
0010
0010
1000
0001
,
2002
0000
0000
3003
,
0100
0100
0010
1000
,
0100
0100
0010
0001
,
0100
0100
0001
0010
,
0100
0100
0100
0100
,
0010
0010
0001
1000
,
0010
0010
1000
1000
,
0001
0010
0100
1000
,
0100
0010
0002
0003
,
1000
1000
0001
0100
,
0010
0010
0010
0000
,
0100
0100
0001
1000
,
0001
0001
0001
0000
,
0010
0010
0100
1000
,
0010
0010
0020
0030
,
1000
0001
0001
1000
,
1000
0010
0010
0100
,
0002
0003
2000
3000
,
2002
0000
0000
3003
0000
0000
0000
0000
,
0001
0010
0100
1000
,
0010
0100
0001
1000
,
0100
0010
0001
1000
,
0010
0100
0001
0010
,
1000
0010
0001
0010
,
0100
1000
0100
0001
,
0100
1000
0100
0010
,
0220
0000
0000
0330
,
2002
0000
0000
3003
;

//---------------dance-single - Classic 7 | Modern 10----------------
#NOTEDATA:;
#CHARTNAME:;
#STEPSTYPE:dance-single;
#DESCRIPTION:Classic 7 | Modern 10;
#CHARTSTYLE:;
#DIFFICULTY:Medium;
#METER:10;
#RADARVALUES:0.536714,0.565391,0.458370,0.491111,0.081852,459.000000,403.000000,56.000000,60.000000,0.000000,0.000000,0.000000,0.000000,0.000000,0.536714,0.565391,0.458370,0.491111,0.081852,459.000000,403.000000,56.000000,60.000000,0.000000,0.000000,0.000000,0.000000,0.000000;
#CREDIT:DDRDAIKENKAI;
#NOTES:
0000
0000
0000
0000
,
0000
0000
0000
0000
,
0000
0000
0000
0000
,
0000
0000
0000
0000
,
1000
0001
2001
0000
3001
0000
0100
0000
,
0010
0010
0100
0100
,
0001
1000
0002
0000
0013
0000
0010
0000
,
0220
0000
0000
0330
0000
1000
2000
0000
,
3001
1000
0000
0000
1001
0000
0000
0000
0001
0000
0100
0000
1000
0000
0000
0000
,
0100
0001
1000
0000
0100
1000
0100
0000
,
0010
0100
0000
0000
0110
0000
0000
0000
1000
0000
0010
0000
0001
0000
0000
0000
,
0020
0000
0000
0000
2030
0000
0000
3002
0000
0000
0013
0000
0100
0000
0100
0000
,
1000
0001
0000
0000
1001
0000
0000
0000
0001
0000
0010
0000
1000
0000
0000
0000
,
0010
0001
1000
0000
0010
1000
0010
0000
,
0100
0100
0001
0000
0010
0100
1000
0000
,
2020
0000
3030
0220
0000
0330
0101
0000
,
1001
0000
1100
0000
0100
1000
0100
0000
,
1000
0001
0100
0001
1000
0001
0100
0000
,
0020
0032
2003
3200
,
0301
0010
0100
1000
0001
0000
2001
0000
,
0001
0000
3002
0000
1003
0001
0100
0000
,
0010
1000
0010
0100
0010
1000
0010
0000
,
0002
0000
0023
0000
2030
0000
3100
0020
,
0000
0031
0100
0001
0100
0100
0001
0000
,
0010
0001
0100
0000
0010
1000
0100
0000
,
0001
0100
1000
0000
1000
0010
0001
0000
,
0010
1000
0100
0000
0010
0001
0100
0000
,
1000
0100
0001
0000
0001
0010
1000
0000
,
0010
0001
1000
0000
0010
1000
0001
0000
,
0100
0000
0000
0100
0000
0000
0100
0000
0010
0000
0000
0010
0000
0000
0010
0000
,
1000
0000
0010
0000
0001
0000
0100
2000
,
0001
0000
0001
0000
0100
0100
3100
0000
,
1100
0000
0110
0000
0011
0000
0001
2000
,
0000
3001
0100
0001
0010
0000
1100
0000
,
1010
0000
0110
0000
0012
0000
1003
0100
,
0010
0100
0010
0100
0010
0000
1001
0000
,
0102
0000
1003
0000
0001
0100
0001
0020
,
0000
0130
0010
0100
1000
0000
1001
0000
,
1000
0000
1020
0000
0230
0000
0301
0010
,
0100
0000
1000
0100
0010
0001
0100
0020
,
0000
0000
1000
0000
0130
0100
0001
1000
,
0100
0000
0000
0010
0000
0000
0220
0000
0000
0000
0000
0000
0330
0000
0000
0000
,
1000
0001
0000
0000
1001
0000
0000
0000
1000
0000
0010
0000
0001
0000
0000
0000
,
0010
1000
0001
0000
0010
0001
0010
0000
,
0100
0010
0000
0000
0110
0000
0000
0000
0001
0000
0100
0000
1000
0000
0000
0000
,
0200
0000
0000
0000
0302
0000
0000
2003
0000
0000
3100
0000
0010
0000
0010
0000
,
0001
1000
0000
0000
1001
0000
0000
0000
1000
0000
0100
0000
0001
0000
0000
0000
,
0100
1000
0001
0000
0100
0001
0100
0000
,
0010
0010
1000
0000
0100
0010
0001
0000
,
0202
0000
0303
0220
0000
0330
1010
0000
,
1100
0000
1100
0000
0100
0010
0000
0010
,
0011
0000
0011
0000
0001
0100
0000
0100
,
0110
0000
0110
0000
0010
1000
0000
1000
,
0001
0000
0000
0001
1000
0000
0001
0000
1000
0000
0100
0000
0010
0000
0000
0000
,
0011
0000
0011
0000
0100
0101
0000
0010
,
1010
0000
0000
1010
0000
0000
1000
0000
0100
0000
1100
0000
0000
0000
0100
0000
,
0100
0000
0000
0100
0010
0000
0100
0000
0010
0000
0010
0000
0001
0000
0001
0000
,
0100
0010
1000
0001
0200
0001
0301
0000
,
0011
0000
0110
0000
1100
0000
1000
0002
,
0000
1003
0010
1000
0001
0000
0011
0000
,
0101
0000
0110
0000
2100
0000
3001
0010
,
0100
0010
0100
0010
0001
0000
1001
0000
,
2100
0000
3001
0000
1000
0010
1000
0200
,
0000
0310
0100
0010
0001
0000
1001
0000
,
0001
0000
0201
0000
0320
0000
1030
0100
,
0010
0000
0001
0010
0100
1000
0010
0200
,
0000
0000
0001
0000
0310
0010
1000
0001
,
0010
0000
0000
0100
0000
0000
0220
0000
0000
0000
0000
0000
0330
0000
0000
0000
,
1000
0020
0000
0000
1030
0000
0001
0000
1000
0000
0100
0000
0010
0000
0000
0000
,
0010
0001
0100
0100
0010
1000
0001
0000
,
0010
0200
0000
0000
0310
0000
0001
0000
0100
0000
0010
0000
1000
0000
0000
0000
,
0100
0020
0000
0000
0032
0000
0000
2003
0000
0000
3100
0000
0010
0000
0010
0000
,
0100
2000
0000
0000
3001
0000
0010
0000
0001
0000
0100
0000
0010
0000
0000
0000
,
1000
0010
1000
1000
0001
0100
0001
0000
,
0010
0010
0001
1000
0100
0010
0001
0000
,
2002
0000
3003
2020
0000
3030
0101
0000
,
2000
0000
0000
3000
;
