#TITLE:BOCA;
#SUBTITLE:;
#ARTIST:DREAMCATCHER;
#TITLETRANSLIT:;
#SUBTITLETRANSLIT:;
#ARTISTTRANSLIT:;
#GENRE:;
#CREDIT:;
#BANNER:;
#BACKGROUND:;
#LYRICSPATH:;
#CDTITLE:;
#MUSIC:BOCA.ogg;
#OFFSET:-0.013000;
#SAMPLESTART:64.790001;
#SAMPLELENGTH:13.913000;
#SELECTABLE:YES;
#BPMS:0.000000=100.000000
,107.000000=50.000000
,109.000000=100.000000
;
#STOPS:48.000000=0.600000
;
#BGCHANGES:0.000=BOCA.mp4=1.000=0=0=1=====,
99999=-nosongbg-=1.000=0=0=0 // don't automatically add -songbackground-
;
#KEYSOUNDS:;
#ATTACKS:;

//---------------dance-single - ----------------
#NOTES:
     dance-single:
     :
     Hard:
     13:
     0.577887,0.623717,0.370553,0.362833,0.725667,524.000000,476.000000,48.000000,47.000000,0.000000,0.000000,0.577887,0.623717,0.370553,0.362833,0.725667,524.000000,476.000000,48.000000,47.000000,0.000000,0.000000:
// measure 0
0000
0000
0000
0000
,  // measure 1
0000
0000
0000
0000
,  // measure 2
0000
0000
0000
0000
,  // measure 3
0000
0000
0000
0000
0000
0000
0000
0010
,  // measure 4
2001
0000
0000
0100
0000
0000
3001
0000
1000
0100
1000
0100
0010
0001
0100
0000
,  // measure 5
0201
0000
0000
0010
0000
0000
0301
0000
0100
0010
0100
0010
1000
0001
0010
0000
,  // measure 6
0120
0000
0000
0001
0000
0000
0130
0000
0010
0001
0010
0001
1000
0010
0100
0000
,  // measure 7
0020
0000
0000
2030
0100
0000
3002
0000
0013
0000
0000
0002
0100
0000
1003
0000
,  // measure 8
1002
0000
0000
0100
0000
0000
1003
0000
0001
0100
0001
0100
0010
1000
0100
0000
,  // measure 9
1200
0000
0000
0010
0000
0000
1300
0000
0100
0010
0100
0010
0001
1000
0010
0000
,  // measure 10
0200
0000
0000
0310
1000
0001
1000
0001
0020
0000
0000
0130
1000
0001
1000
0001
,  // measure 11
1000
0010
0100
0010
1000
0000
0100
0000
0020
0000
0000
0031
0020
0000
0130
0000
,  // measure 12
1001
0000
0001
0100
0110
0000
1010
0000
0101
0000
1000
0100
1100
0000
0000
0001
,  // measure 13
0010
0000
0001
0100
0010
1000
0100
0010
0001
1000
0010
0100
0001
1000
0000
1000
,  // measure 14
0010
0000
1000
0100
0010
0001
0100
0010
1000
0001
0010
0100
1000
0001
0000
0001
,  // measure 15
0100
0000
0001
0010
1000
0010
0001
1000
0001
0000
1000
0000
0001
0100
0010
0100
,  // measure 16
0001
0000
2000
0000
0100
0000
0000
3001
1000
0100
0010
0100
1000
0000
1020
0000
,  // measure 17
0100
0000
0130
0000
0101
0000
0000
1100
0000
0000
1001
0000
1000
0010
0100
0010
,  // measure 18
1000
0000
0002
0000
0010
0000
0000
1003
0001
0010
0100
0010
0001
0000
0101
0000
,  // measure 19
1000
0000
0001
0000
0100
0010
0000
0000
1000
0100
0000
0000
0120
0000
0000
0001
,  // measure 20
0000
0000
0130
0000
0010
0001
0000
0000
1000
0010
0000
0000
0120
0000
0000
1000
,  // measure 21
0000
0000
0130
0000
0001
0001
0000
0000
0010
0100
0000
0000
2100
0000
0000
0001
,  // measure 22
0000
0000
3100
0000
0010
0001
0000
0000
1000
0010
0000
0000
0120
0000
0000
1000
,  // measure 23
0000
0000
0130
0000
0001
0010
0000
0000
0100
1000
0000
0000
2001
0000
0000
0100
,  // measure 24
0000
0000
3001
0000
0010
0100
0000
0000
0010
0001
0000
0000
1002
0000
0000
0100
,  // measure 25
0000
0000
1003
0000
0010
0000
1000
0100
0010
0100
1000
0000
1001
0000
0100
0010
,  // measure 26
0100
0000
0010
0000
0100
0000
0000
0000
1001
0000
0000
0000
0001
0000
0100
0000
0010
0000
1000
0000
0100
0000
0010
0000
0001
0000
0000
0010
0100
0000
1000
0000
,  // measure 27
0010
0000
0100
1001
0001
0100
0001
0100
0000
0010
1001
0000
1000
0100
1000
0100
,  // measure 28
0000
0010
1001
0000
0001
0100
0001
0100
0000
0010
1001
0000
0011
0000
0000
0110
,  // measure 29
0000
1000
0001
0000
1000
0010
1000
0010
0000
0100
1001
0000
0001
0010
0001
0010
,  // measure 30
0000
0000
0100
0000
1001
0000
0000
0000
1000
0000
0010
0000
1000
0000
0010
0000
0000
0000
0100
0000
1001
0000
0000
0000
0001
0000
0000
0001
0000
0000
0100
0000
,  // measure 31
0001
0010
0100
0000
2100
0000
0000
0100
0000
0000
0001
0000
0100
0000
0000
3100
,  // measure 32
0000
0000
0010
0000
0001
0000
0000
0000
0102
0000
0000
0000
0000
0000
0100
0000
0000
0000
0000
0000
1003
0000
0000
0000
0001
0000
0000
0100
0000
0000
0001
0000
,  // measure 33
1000
0100
0010
0000
0021
0000
0000
0001
0000
0000
0100
0000
0001
0000
0000
0031
,  // measure 34
0000
1000
0010
0000
0100
0000
0000
0001
0010
0000
0100
0000
1000
0010
1000
0001
,  // measure 35
0100
0001
0100
0001
1000
0000
0001
0100
0010
0000
1000
0000
0100
0000
1000
0001
,  // measure 36
0000
1000
0100
0000
0010
0000
0001
1000
0001
0000
0100
0000
0110
0000
0000
1000
,  // measure 37
0001
0000
1000
0000
1100
0000
1000
0001
0000
1000
0100
0000
0010
0000
0000
0001
,  // measure 38
1000
0000
0002
0000
0203
0000
0000
0320
0000
0000
2030
0000
3200
0000
0000
0320
,  // measure 39
0000
0000
0032
0000
1003
0000
0010
0100
0010
0000
1000
0000
0100
0000
0010
0001
,  // measure 40
0000
1000
0100
0000
1000
0000
0010
0100
0010
0000
0100
0000
0001
0000
0000
0010
,  // measure 41
0100
0000
0000
0000
1000
0000
0000
0000
0001
0000
0000
0000
0100
0000
0010
0000
0000
0000
1000
0000
0001
0000
0000
0000
0010
0000
0001
1000
0002
0000
0000
0000
,  // measure 42
0103
0000
0010
0000
1000
0100
1000
0001
0000
0010
0100
0000
0010
0001
0100
0010
,  // measure 43
1000
0000
0100
0000
0010
0000
0001
0000
0200
0000
0000
0000
0000
0000
0000
0000
0000
0000
0000
0000
0320
0000
0000
0000
0000
0000
0000
0000
1030
0001
1000
0001
,  // measure 44
1000
0000
0000
0000
0001
0100
0010
1000
0000
0010
0101
0000
1000
0100
0010
0001
,  // measure 45
0000
0010
1100
0000
0001
0100
0010
1000
0000
0010
0101
0000
1001
0000
0000
0110
,  // measure 46
0000
1000
1001
0000
1000
0000
0002
0000
0013
0100
0020
0000
0130
1000
0200
0000
,  // measure 47
1300
0000
0001
0000
2000
0000
0000
0000
3020
0000
0000
0000
0000
0000
0130
0000
0000
0000
0000
0000
0110
0000
0000
0000
1000
0000
0000
0001
0000
0000
1000
0000
,  // measure 48
0100
0010
0001
0000
0200
0000
0000
0000
0302
0000
0023
0000
0230
0000
0000
0000
,  // measure 49
2300
0000
0000
0000
3020
0000
0000
0000
0230
0000
0000
0000
0000
0000
0310
0000
0000
0000
0000
0000
1001
0000
0000
0000
0001
0000
0000
0100
0000
0000
0001
0000
,  // measure 50
1000
0100
0010
0000
0001
0010
1000
0010
0000
0100
0011
0000
1000
0010
0001
0010
,  // measure 51
0000
0100
1010
0000
0100
0000
0000
0001
0010
0000
0100
0000
1000
0010
0100
0001
,  // measure 52
0010
1001
0000
0000
0000
0000
0000
0000
;

//---------------dance-single - ----------------
#NOTES:
     dance-single:
     :
     Medium:
     11:
     0.372759,0.442638,0.208436,0.270195,0.270195,338.000000,311.000000,27.000000,35.000000,0.000000,0.000000,0.372759,0.442638,0.208436,0.270195,0.270195,338.000000,311.000000,27.000000,35.000000,0.000000,0.000000:
0000
0000
0000
0000
,
0000
0000
0000
0000
,
0000
0000
0000
0000
,
0000
0000
0000
0000
,
0001
0000
0000
0100
0000
0000
0001
0000
0100
0000
0000
0010
0000
0000
1000
0000
,
0100
0000
0000
0010
0000
0000
0100
0000
1000
0000
0000
0001
0000
0000
0100
0000
,
0010
0000
0000
1000
0000
0000
0010
0000
0100
0000
0000
0001
0000
0000
1000
0000
,
0200
0000
0000
0010
0000
0000
0010
0000
0000
0000
0000
1000
0000
0000
1300
0000
,
0001
0000
0000
1000
0000
0000
0010
0000
0100
0000
0000
0010
0000
0000
1000
0000
,
0001
0000
0000
0010
0000
0000
0100
0000
1000
0000
0000
0010
0000
0000
0100
0000
,
0001
0000
0000
1000
0000
0000
0010
0000
0100
0000
0000
0010
0000
0000
1000
0000
,
0100
0100
0010
0001
0200
0000
0320
0000
,
1030
0000
0000
0000
0101
0000
0101
0000
1100
0000
0101
0000
1100
0000
0000
0001
,
0100
0000
0010
0000
1000
0000
0000
0001
0010
0000
0001
0000
0100
0000
0000
0010
,
1000
0000
0001
0000
0010
0000
0000
0100
0010
0000
0001
0000
0100
0000
0000
0010
,
1000
0000
0100
0000
0010
0000
0000
0001
1000
0000
0010
0000
0100
0000
0100
0000
,
0001
0000
1000
0000
0100
0000
0000
0100
0010
0000
0001
0000
1000
0000
1000
0000
,
0010
0000
0100
0000
0001
0000
0000
1000
0000
0000
0001
0000
0100
0000
0100
0000
,
0010
0000
1000
0000
0001
0000
0000
0001
0010
0000
0100
0000
0010
0000
0010
0000
,
0001
0000
1000
0000
0010
0000
0000
0000
0100
0000
0000
0000
0002
0000
0000
0100
,
0000
0000
0103
0000
0010
0000
0000
0000
1000
0000
0000
0000
0200
0000
0000
0010
,
0000
0000
0310
0000
0001
0000
0000
0000
1000
0000
0000
0000
0020
0000
0000
0100
,
0000
0000
0130
0000
0001
0000
0000
0000
0010
0000
0000
0000
0200
0000
0000
1000
,
0000
0000
1300
0000
0001
0000
0000
0000
1000
0000
0000
0000
0020
0000
0000
0100
,
0000
0000
0130
0000
0001
0000
0000
0000
0010
0000
0000
0000
0200
0000
0000
1000
,
0000
1300
0001
0010
0100
0010
0001
0101
,
0000
1000
1100
1000
0001
0100
0010
1000
,
0100
0000
0010
1001
0001
0000
0000
0100
0000
0000
0110
0000
1000
0000
0000
0100
,
0000
0000
0110
0000
0001
0000
0000
0100
0000
0000
0110
0000
1000
0000
0000
0001
,
0000
0000
1000
0000
0001
0000
0000
0010
0000
0000
0110
0000
1000
0000
0000
0010
,
0000
0000
0110
0000
0001
0000
0000
0010
0000
0000
0110
0000
1000
0000
1000
0000
,
0001
0000
1000
0000
0010
0000
0000
1000
0000
0000
1100
0000
0010
0000
0000
0001
,
0000
0000
0101
0000
0010
0000
0000
1000
0000
0000
1100
0000
0001
0000
0001
0000
,
1000
0000
0010
0000
0100
0000
0000
0001
0000
0000
0011
0000
0100
0000
0000
1000
,
0000
0000
1010
0000
0100
0000
0000
0001
0010
0000
0100
0000
2000
0000
3002
0000
,
0100
0000
0103
0000
0010
0000
0000
0010
0000
0000
0010
0000
1000
0000
0000
0001
,
1000
0000
0000
0000
0100
0000
0000
0100
0000
0000
0100
0000
0010
0000
0000
0001
,
1000
0000
0000
0000
0001
0000
0000
0001
0000
0000
0001
0000
0100
0000
0000
0010
,
1000
0000
0000
0000
0002
0000
0000
0203
0000
0000
0320
0000
2030
0000
0000
3200
,
0000
0000
0320
0000
0031
0000
0000
0001
0000
0000
0001
0000
1000
0000
0000
0010
,
0100
0000
0000
0000
0010
0000
0000
0010
0000
0000
0010
0000
1000
0000
0000
0100
,
0010
0000
0000
0000
0001
0000
0000
0001
0000
0000
0001
0000
1000
0000
0000
0100
,
0010
0000
0000
0000
0002
0000
0000
0023
0000
0000
0230
0000
2300
0000
0000
3020
,
0000
0130
2002
0000
3003
0000
0000
0000
,
0000
0000
0000
0000
0001
0000
0001
0100
0000
0000
1010
0000
1000
0000
1000
0100
,
0000
0000
0011
0000
0001
0000
0001
0100
0000
0000
1010
0000
0001
0000
0000
1000
,
0000
1000
0001
0000
1000
0000
0002
0000
0013
0000
0020
0000
0130
0000
0200
0000
,
1300
0000
2000
0000
3001
0000
0001
0100
0000
0000
1010
0000
1000
0000
1000
0000
,
0001
1000
0200
0000
0320
0032
0203
0000
,
0320
2030
3200
0000
0000
0310
0001
0001
,
1000
0000
0001
0000
1000
0010
1000
0010
0000
0000
0101
0000
0001
0010
0001
0010
,
0000
0000
1100
0000
1000
0000
0000
0001
0100
0000
0010
0000
1000
0000
0000
0000
,
0100
1001
0000
0000
0000
0000
0000
0000
;

//---------------dance-single - ----------------
#NOTES:
     dance-single:
     :
     Easy:
     7:
     0.247036,0.301798,0.108078,0.192997,0.000000,224.000000,210.000000,14.000000,25.000000,0.000000,0.000000,0.247036,0.301798,0.108078,0.192997,0.000000,224.000000,210.000000,14.000000,25.000000,0.000000,0.000000:
0000
0000
0000
0000
,
0000
0000
0000
0000
,
0000
0000
0000
0000
,
0000
0000
0000
0000
,
1001
0000
0001
0010
,
0011
0000
1000
0010
,
1010
0000
0001
0100
,
0101
1000
0000
0001
,
1001
0000
1000
0100
,
1100
0000
0001
0010
,
0011
0001
0000
1000
,
0001
0100
0020
2030
,
3001
0000
0010
0010
0010
0010
0100
0000
,
0100
0000
1000
0001
1000
0000
0100
0000
,
0100
0000
0010
0001
1000
0000
0010
0000
,
0010
0000
0100
0001
1000
0000
0001
0001
,
0001
0000
1000
0000
0100
0100
0100
0000
,
0010
0000
0001
0000
0001
0000
1000
1000
,
1000
0000
0010
0000
0100
0100
0100
0000
,
0001
1000
0100
0020
,
0000
0032
0000
2003
,
0000
3020
0000
0230
,
0000
0302
0000
2003
,
0000
3001
0010
0002
,
0000
1003
0100
2000
,
0000
0000
3001
0000
0100
0000
0010
0010
,
0000
0100
0010
0010
1000
0001
2000
0000
,
0000
3001
1000
1000
0000
0100
1000
1000
,
0000
0001
1000
1000
0000
0010
0100
0000
,
0110
0000
0001
0001
0000
0100
0001
0001
,
0000
1000
0001
0001
0000
0010
0001
0000
,
1000
0020
0100
1000
,
0130
0000
0200
0000
0010
0000
0001
0001
,
0301
0002
0010
1000
,
0013
0000
1000
0000
0001
0100
0020
0000
,
2030
0000
3100
0010
0100
0000
1000
0000
,
0001
0000
0100
0010
0100
0000
0001
0000
,
1000
0020
0000
0000
,
0130
0001
0001
1000
,
1000
0000
0100
0010
0001
0000
1000
0000
,
1000
0000
0001
0100
0010
0000
1000
0000
,
0001
2000
0100
3200
,
0000
0000
0310
0001
0010
0000
0001
1000
,
0001
2002
3003
0000
,
0000
0000
1000
1000
0000
0100
0010
0010
,
0000
0001
0100
0100
0000
0010
1000
0000
,
1001
0000
0001
0001
0000
0010
0100
0100
,
0000
1000
0010
0010
0000
0100
0010
0000
,
0110
0000
2000
0000
3001
0100
0020
0000
,
1030
0100
0020
0000
0130
0000
1000
0001
,
1000
0000
1001
0001
0000
0100
0110
0010
,
0000
0010
1000
0000
0001
0010
0100
0000
,
0010
1001
0000
0000
0000
0000
0000
0000
;
