#TITLE:BLUE FLAME;
#SUBTITLE:;
#ARTIST:Alice Nine;
#TITLETRANSLIT:;
#SUBTITLETRANSLIT:;
#ARTISTTRANSLIT:;
#GENRE:;
#CREDIT:;
#BANNER:BLUE FLAME.png;
#BACKGROUND:;
#LYRICSPATH:;
#CDTITLE:;
#MUSIC:BLUE FLAME.ogg;
#OFFSET:2.350000;
#SAMPLESTART:62.933998;
#SAMPLELENGTH:15.000000;
#LASTBEATHINT:3.992202;
#SELECTABLE:YES;
#BPMS:0.000000=176.000000
;
#STOPS:
;
#BGCHANGES:;
#KEYSOUNDS:;
#ATTACKS:;

//---------------dance-single - ----------------
#NOTES:
     dance-single:
     :
     Beginner:
     3:
     0.177847,0.279437,0.071651,0.179126,0.000000,139.000000,131.000000,8.000000,20.000000,0.000000,0.000000,0.177847,0.279437,0.071651,0.179126,0.000000,139.000000,131.000000,8.000000,20.000000,0.000000,0.000000:
0000
0000
0000
0000
,
0000
0000
0000
0000
,
0000
0000
0000
0000
,
0000
0000
0000
0000
,
0000
0000
0000
0000
,
0000
0000
0000
0000
,
1000
0000
1000
0000
,
0100
0000
0100
0000
,
0010
0000
0010
0000
,
0010
0000
0000
0000
,
0001
0000
0010
0000
,
0001
0000
0100
0000
,
0100
0000
0010
0000
,
2002
0000
3003
0000
,
1000
0000
0100
0000
,
1000
0000
0010
0000
,
0010
0000
0100
0000
,
2002
0000
3003
0000
,
1000
0000
0010
0000
,
1000
0000
0001
0000
,
0010
0000
1000
0000
,
0001
0000
1000
0000
,
0010
0000
0001
0000
,
1000
0000
0001
0000
,
0100
0000
0100
0000
,
0010
0010
0010
0000
,
1000
0000
0100
0000
,
1000
1000
0010
0000
,
0100
0000
0001
0000
,
2000
0000
3000
0000
,
0001
0000
0010
0000
,
0001
0001
0100
0000
,
0010
0000
1000
0000
,
0020
0000
0030
0000
,
2000
0000
0000
0000
,
0000
0000
3000
0000
,
0002
0000
0000
0000
,
0000
0000
0003
0000
,
0200
0000
0000
0000
,
0000
0000
0300
0000
,
0020
0000
0000
0000
,
0000
0000
0030
0000
,
1000
1000
0001
0000
,
0001
0001
1000
0000
,
0010
0000
0100
0000
,
0110
0000
1001
0000
,
0000
0001
0000
1000
,
0000
1001
0000
0000
,
1000
1000
1000
0000
,
0010
0000
0100
0000
,
0001
0001
0001
0000
,
0010
0000
0100
0000
,
1000
0001
1000
0000
,
0001
1000
0001
0000
,
0100
0000
0100
0000
,
0220
0000
0330
0000
,
0001
0001
0001
0000
,
0010
0000
0100
0000
,
1000
1000
1000
0000
,
0010
0000
0100
0000
,
0001
1000
0001
0000
,
0220
0000
0330
0000
,
1000
0000
1000
0000
,
0001
0000
0001
0000
,
0100
0100
0010
0000
,
0010
0010
0100
0000
,
0001
0000
0001
0000
,
1000
0000
1000
0000
,
0100
0100
0010
0000
,
0010
0010
0100
0000
,
2002
0000
0000
0000
,
3003
0000
0000
0000
,
2000
0000
0000
0000
,
3010
0000
0000
0000
,
0002
0000
0000
0000
,
0013
0000
0000
0000
,
0020
0000
0000
0000
,
0230
0000
0000
0000
,
0300
0000
0000
0000
;

//---------------dance-single - ----------------
#NOTES:
     dance-single:
     :
     Hard:
     13:
     0.614148,0.778304,0.214952,0.358253,0.089563,480.000000,456.000000,24.000000,40.000000,0.000000,0.000000,0.614148,0.778304,0.214952,0.358253,0.089563,480.000000,456.000000,24.000000,40.000000,0.000000,0.000000:
0000
0000
0000
0000
,
0000
0000
0000
0000
,
0000
0000
0000
0000
,
0000
0000
0000
0000
,
0000
0000
0000
0000
,
0000
0000
0000
0000
,
0001
0100
0001
0100
,
1000
0100
1000
0100
,
0010
0000
1000
0001
1000
0000
0010
0000
1000
0001
1000
0000
0100
0000
0010
0000
,
0000
0000
0000
0000
0000
0001
0001
0002
,
0000
0013
0001
1000
0010
1000
1100
0000
,
0011
0000
1000
0010
1000
0001
0100
0020
,
0000
0130
0001
1000
0100
0000
0110
0000
,
0001
1000
0100
0000
0100
0000
1000
0001
0100
0000
0100
0000
0010
0000
2000
0000
,
0000
3010
1000
0001
0010
0001
0101
0000
,
1010
0000
0001
0010
0001
1000
0100
0020
,
0000
0130
1000
0001
0100
0000
0110
0000
,
1000
0000
0100
0000
0010
0000
0001
0000
0010
0000
0100
0000
1000
0001
1000
0001
,
0100
0000
0100
0000
0001
0100
0010
1000
,
0001
0000
0001
0000
1000
0100
0010
0001
,
1000
1000
0100
0010
,
0001
1000
0010
1000
0001
0100
1000
0100
,
0001
0000
0001
0000
1000
0100
0010
0001
,
1000
0000
1000
0000
0001
0100
0010
1000
,
0100
0100
0010
0010
,
0001
1000
0010
1000
0100
0010
0110
0000
,
0001
0010
0100
1000
0001
0010
1000
0010
,
0001
1000
0100
0010
0001
1000
0100
1000
,
0010
0001
1000
0100
0001
0100
0010
1000
,
0001
0001
0010
0001
0001
0100
0020
0000
,
1030
0010
0100
0001
1000
0010
0001
0010
,
1000
0001
0100
0010
1000
0001
0010
0001
,
0100
0010
1001
0000
0100
0010
1001
0000
,
0001
0010
0100
0010
0100
1000
0010
0100
0010
0100
0001
1000
,
0200
0010
0010
0010
,
1300
0010
0100
0001
1000
0010
0100
0001
,
0020
0100
0100
0100
,
0031
0100
1000
0001
0010
1000
0010
0100
,
0002
0010
0010
0010
,
1003
0100
1000
0010
0001
0010
0100
0001
,
2000
0100
0100
0100
,
3001
0010
0001
0001
1000
0010
0010
0000
,
1001
0000
1000
0100
1000
0100
0001
0100
,
1000
0000
0001
0100
0001
0100
1000
0100
,
0001
0010
0001
0100
0001
0010
0001
1000
,
0100
0010
0001
1000
0010
0100
0001
1000
,
0000
1100
0101
0000
0101
1100
0000
1010
,
0011
0000
0220
0000
0000
0000
0330
1001
,
0000
0100
0010
0001
1000
0001
0100
0001
,
1000
0010
0001
1000
0100
0001
0010
0000
,
0100
0010
0001
0010
0100
0010
1000
0001
,
0100
1000
0010
1000
0001
0100
0010
2000
,
0000
3010
0001
1000
0100
1000
0001
0020
,
0000
0130
0001
1000
0010
1000
0100
0002
,
0000
0103
0010
1000
0010
0001
0100
0010
,
1000
0100
0010
0000
0010
0000
0001
0100
0010
0000
0010
0000
0100
0000
0110
0000
,
0000
0001
0100
0010
1000
0010
0100
1000
,
0001
0010
1000
0001
0100
0001
1000
0000
,
0100
0010
0001
0010
1000
0001
0100
0001
,
1000
0010
0100
1000
0001
0100
0010
0200
,
0000
0310
0001
1000
0100
0001
1000
0200
,
0000
0310
1000
0010
0001
0000
0100
0010
,
0000
1000
0001
0010
0001
1000
0100
1000
,
0010
0000
0001
0010
1000
1000
0001
0102
,
0000
0013
0001
1000
0010
1000
0100
0120
,
0000
0130
1000
0010
1000
0100
0010
0020
,
0000
0031
1000
0010
1000
0001
0100
0001
,
0010
0000
1000
0010
0001
0001
1000
2100
,
0000
3010
1000
0001
0010
0001
0100
0110
,
0000
0000
1000
0010
0100
0001
0100
0000
0010
1000
0001
0100
0010
0000
0220
0000
,
0000
0000
0000
0000
,
0000
0000
0000
0300
,
2030
0000
0000
3200
0000
0000
0320
0000
,
2030
0000
0000
3020
0000
0000
0032
0000
,
0203
0000
0000
0320
0000
0000
0032
0000
,
0023
0000
0000
2030
0000
0000
3200
0000
,
0320
0000
0000
0032
0000
0000
0203
0000
,
0302
0000
0000
2003
0000
0000
0002
0000
,
0000
0000
0000
0000
,
3003
0000
0000
0000
;

//---------------dance-single - ----------------
#NOTES:
     dance-single:
     :
     Medium:
     9:
     0.437580,0.495284,0.161214,0.394078,0.017913,342.000000,324.000000,18.000000,44.000000,0.000000,0.000000,0.437580,0.495284,0.161214,0.394078,0.017913,342.000000,324.000000,18.000000,44.000000,0.000000,0.000000:
0000
0000
0000
0000
,
0000
0000
0000
0000
,
0000
0000
0000
0000
,
0000
0000
0000
0000
,
0000
0000
0000
0000
,
0000
0000
0000
0000
,
1000
1000
0010
0010
,
0100
0100
0001
0001
,
0010
0000
0010
0000
0100
0000
0100
0010
,
0000
0000
0000
0000
0000
0001
1000
0002
,
0000
1003
0100
0000
1000
0000
1010
0000
,
0101
0000
0001
0000
0010
0100
1000
0200
,
0000
0310
0001
0000
1000
0000
1001
0000
,
0010
1000
0001
0020
0000
0000
0130
2000
,
0000
3001
0100
0000
0001
0000
0011
0000
,
1100
0000
1000
0000
0010
0100
0001
0200
,
0000
0310
1000
0000
0001
0000
1001
0000
,
0010
0001
1000
0020
0000
0000
0130
0000
,
0010
0000
1000
0000
0010
1000
0010
0000
,
0100
0000
0001
0000
0100
0001
0100
0000
,
0001
0000
1000
0000
0100
1000
0100
0000
,
0010
0001
0100
0010
,
1000
0000
0100
0000
1000
0001
0010
0000
,
0001
0000
0100
0000
0001
1000
0010
0000
,
0100
0000
0001
0000
1000
0100
0010
0000
,
0200
0000
0010
0010
0310
0000
1001
0000
,
1000
0010
1000
0000
0001
0100
0000
0100
,
0010
1000
0100
0011
,
0001
0100
0001
0000
1000
0010
0000
0010
,
0100
0001
0010
1100
,
1000
0010
1000
0000
0001
0000
0010
0000
,
0001
0100
0001
0000
1000
0000
0010
0000
,
0100
0001
1000
0000
0100
1000
0001
0000
,
0100
0000
0100
0000
0100
0000
0010
0000
0010
0000
0010
0000
,
2000
0100
0001
0100
,
3020
0100
2030
0100
,
3001
0010
0100
0000
1000
0001
0100
0000
,
0010
0100
0010
0000
1000
0000
1001
0000
,
0002
0010
1000
0010
,
0203
0010
0302
0010
,
1003
0000
0100
0010
0000
0010
0001
0000
,
0100
0000
0100
0010
0000
0010
1000
0000
,
0200
0010
0010
0010
,
1300
0000
1000
0010
0000
0100
0001
0000
,
0010
0100
1100
0110
,
0012
0000
0000
1000
2000
0000
0000
0000
,
3003
1000
0010
0000
1000
0010
0000
1000
,
0001
2002
0000
3003
,
0001
0000
0100
0001
0100
0000
0001
1000
,
0001
1000
2020
3030
,
1000
0000
0100
1000
0100
0000
0010
0100
,
0010
0001
0202
0303
,
0010
0000
0100
0000
0001
0010
0100
0000
,
0010
0000
0100
0000
1000
0010
0100
0000
,
0010
1000
0001
0010
,
0100
0010
0100
0010
0200
0000
0300
0000
,
1000
0001
0100
0000
0001
0010
0100
0000
,
1000
0010
0220
0330
,
0001
0100
0010
0000
1000
0001
0010
0000
,
0100
1000
2002
3003
,
0001
0100
0000
0100
0010
0000
0010
2000
,
0000
0001
0001
0000
0002
0000
3003
0000
,
1000
0000
0001
0000
0001
0010
0100
0000
,
1000
0000
0001
0000
0100
0001
0100
0001
,
0200
0010
0310
1000
,
2000
0001
3001
0010
,
0001
0000
1000
0000
1000
0010
0100
0000
,
0001
0000
1000
0000
0100
1000
0100
1000
,
0200
0010
0310
0001
,
1000
0100
0001
0100
1000
0000
1000
0002
,
0000
0000
0000
0010
0000
0000
0100
0000
,
2003
0000
0000
3020
0000
0000
0100
0000
,
2030
0000
0000
0100
0000
0000
0001
0000
,
3200
0000
0000
0010
0000
0000
2300
0000
,
3002
0000
0000
0100
0000
0000
1000
0000
,
0023
0000
0000
1000
0000
0000
0230
0000
,
2300
0000
0000
0010
0000
0000
0001
0000
,
3200
0000
0000
0001
0000
0000
0020
0000
,
0000
0000
0000
0000
,
0330
0000
0000
0000
;

//---------------dance-single - ----------------
#NOTES:
     dance-single:
     :
     Easy:
     6:
     0.282764,0.349296,0.053738,0.376165,0.000000,221.000000,215.000000,6.000000,42.000000,0.000000,0.000000,0.282764,0.349296,0.053738,0.376165,0.000000,221.000000,215.000000,6.000000,42.000000,0.000000,0.000000:
// measure 0
0000
0000
0000
0000
,  // measure 1
0000
0000
0000
0000
,  // measure 2
0000
0000
0000
0000
,  // measure 3
0000
0000
0000
0000
,  // measure 4
0000
0000
0000
0000
,  // measure 5
0000
0000
0000
0000
,  // measure 6
1000
0001
1000
0000
,  // measure 7
0001
1000
0001
0000
,  // measure 8
0100
0000
0010
0000
0100
0000
0000
0110
,  // measure 9
0000
0000
0000
0000
,  // measure 10
1000
0100
0010
0001
,  // measure 11
0010
0100
1000
0000
,  // measure 12
0001
1000
0020
0000
,  // measure 13
0230
0000
0310
0000
,  // measure 14
0100
0001
1000
0010
,  // measure 15
1000
0001
0100
0000
,  // measure 16
0001
1000
0200
0000
,  // measure 17
0320
0000
0230
0000
,  // measure 18
1300
0001
1000
0100
,  // measure 19
1000
1000
1000
0000
,  // measure 20
0001
0100
0010
0000
,  // measure 21
1000
0100
0010
0000
,  // measure 22
0001
1000
0001
0100
,  // measure 23
0001
0001
0001
0000
,  // measure 24
0010
0001
0100
0000
,  // measure 25
0010
1000
0100
0000
,  // measure 26
1000
1000
0010
0010
,  // measure 27
0100
0001
0100
0000
,  // measure 28
0001
0001
0010
0010
,  // measure 29
0100
1000
0100
0000
,  // measure 30
0010
0001
0100
0001
,  // measure 31
1000
0010
1000
0100
,  // measure 32
0110
0000
1001
0000
,  // measure 33
0002
2003
3002
2003
,  // measure 34
3020
0000
0230
0000
,  // measure 35
0302
0000
1003
1000
,  // measure 36
0002
0000
0010
0000
,  // measure 37
0203
0000
0310
0010
,  // measure 38
2000
0000
0100
0000
,  // measure 39
3020
0000
0130
0100
,  // measure 40
0002
0000
1000
0000
,  // measure 41
0023
0000
0100
0000
,  // measure 42
0031
0100
0001
0100
,  // measure 43
0010
1000
0100
0100
,  // measure 44
1000
0010
1000
0010
,  // measure 45
0100
0001
0010
0010
,  // measure 46
0000
0110
0000
1001
,  // measure 47
2000
0002
0000
3003
,  // measure 48
0001
0010
0001
0001
,  // measure 49
1000
0100
1000
1000
,  // measure 50
0001
0001
0100
0100
,  // measure 51
0010
0010
0010
0000
,  // measure 52
1000
0100
0001
0000
,  // measure 53
0001
0100
1000
0000
,  // measure 54
1000
0010
0100
0001
,  // measure 55
2000
0000
0002
3003
,  // measure 56
1000
0010
1000
1000
,  // measure 57
0001
0100
0001
0001
,  // measure 58
1000
1000
0100
0100
,  // measure 59
0010
0010
0010
0000
,  // measure 60
0002
0000
2003
0000
,  // measure 61
3010
0010
0010
0000
,  // measure 62
0100
0001
0010
0001
,  // measure 63
1000
0100
0010
0000
,  // measure 64
0020
0001
0031
0100
,  // measure 65
0020
1000
1030
0000
,  // measure 66
0100
1000
0010
1000
,  // measure 67
0001
0100
0010
0000
,  // measure 68
0200
0001
0301
0010
,  // measure 69
0200
0000
1000
0000
1300
0000
0000
2002
,  // measure 70
0000
0000
0000
0000
,  // measure 71
0003
0000
0000
0000
,  // measure 72
3002
0000
0203
0000
,  // measure 73
0320
0000
0230
0000
,  // measure 74
2300
0000
3200
0000
,  // measure 75
0320
0000
0230
0000
,  // measure 76
0302
0000
2003
0000
,  // measure 77
3200
0000
0020
0000
,  // measure 78
0330
0000
0000
0000
;
