#VERSION:0.83;
#TITLE:BLUE CLAPPER;
#SUBTITLE:;
#ARTIST:hololive IDOL PROJECT;
#TITLETRANSLIT:;
#SUBTITLETRANSLIT:;
#ARTISTTRANSLIT:;
#GENRE:;
#ORIGIN:;
#CREDIT:;
#BANNER:BLUE CLAPPER.png;
#BACKGROUND:BLUE CLAPPER-bg.png;
#PREVIEWVID:;
#JACKET:BLUE_CLAPPER-jacket.png;
#CDIMAGE:;
#DISCIMAGE:;
#LYRICSPATH:;
#CDTITLE:cdtitle.png;
#MUSIC:BLUE CLAPPER.ogg;
#OFFSET:0.000000;
#SAMPLESTART:81.723999;
#SAMPLELENGTH:13.448000;
#SELECTABLE:YES;
#BPMS:0.000=145.000;
#STOPS:;
#DELAYS:;
#WARPS:;
#TIMESIGNATURES:0.000=4=4;
#TICKCOUNTS:0.000=4;
#COMBOS:0.000=1;
#SPEEDS:0.000=1.000=0.000=0;
#SCROLLS:0.000=1.000;
#FAKES:;
#LABELS:0.000=Song Start;
#BGCHANGES:;
#KEYSOUNDS:;
#ATTACKS:
;

//---------------dance-single - MEGAtive----------------
#NOTEDATA:;
#CHARTNAME:;
#STEPSTYPE:dance-single;
#DESCRIPTION:MEGAtive;
#CHARTSTYLE:;
#DIFFICULTY:Beginner;
#METER:3;
#RADARVALUES:0.202933,0.234388,0.000000,0.047351,0.000000,180.000000,180.000000,0.000000,6.000000,0.000000,0.000000,0.000000,0.000000,0.000000,0.202933,0.234388,0.000000,0.047351,0.000000,180.000000,180.000000,0.000000,6.000000,0.000000,0.000000,0.000000,0.000000,0.000000;
#CREDIT:;
#NOTES:
0000
0000
0000
0000
,
0000
0000
0000
0000
,
0000
0000
0000
0000
,
0000
0000
0000
0000
,
0000
0000
0000
0000
,
0001
0000
0001
0000
,
1000
0000
1000
0000
,
0010
0000
0010
0000
,
0100
0000
0100
0000
,
0001
0000
0001
0000
,
1000
0000
1000
0000
,
0100
0000
0100
0000
,
0010
0000
0010
0000
,
0001
0000
0001
0000
,
1000
0000
1000
0000
,
0010
0000
0100
0000
,
0002
0003
0000
0000
,
1000
0000
1000
0000
,
1000
0000
1000
0000
,
0001
0000
0001
0000
,
0001
0000
0001
0000
,
1000
0000
1000
0000
,
0010
0000
0010
0000
,
0100
0000
0100
0000
,
0001
0000
0001
0000
,
1000
0000
0000
0000
,
0001
0010
0001
0000
,
1000
0010
1000
0000
,
0001
0010
0001
0000
,
1000
0010
0100
0001
,
1000
0100
1000
0000
,
0001
0100
0001
0000
,
1000
0010
1000
0000
,
0002
0000
0000
1003
,
0001
0010
0000
0010
,
0001
1000
0000
1000
,
0001
0100
0000
0100
,
0001
0010
0001
0000
,
1000
0100
0000
0100
,
1000
0001
0000
0001
,
1000
0010
0000
0010
,
0200
0000
0000
0310
,
1000
0000
1000
0000
,
0001
0000
0001
0000
,
0010
0000
0010
0000
,
0100
0000
0100
0000
,
1000
0001
1000
0000
,
0010
0100
0010
0000
,
1000
0100
1000
0001
,
0100
0000
0000
1000
,
1000
0010
0100
0000
,
0010
1000
0001
0000
,
0001
0010
0100
0000
,
1000
0001
0100
0000
,
0010
1000
0100
0000
,
0010
0001
1000
0000
,
0010
0100
0001
1000
,
0200
0000
0000
0300
,
1000
0100
0010
0000
,
0100
1000
0001
0000
,
0001
0100
0010
0000
,
1000
0001
0010
0000
,
0100
1000
0010
0000
,
0100
0001
1000
0000
,
0100
0010
0001
1000
,
0020
0030
0000
0000
,
1000
0001
1000
0000
,
0100
0010
0100
0000
,
1000
0001
1000
0000
,
0010
0100
0010
0100
,
0001
1000
0001
0000
,
0010
0100
0010
0000
,
0001
1000
0001
0000
,
0100
0010
0100
0010
,
2000
3000
0000
0000
;

//---------------dance-single - MEGAtive----------------
#NOTEDATA:;
#CHARTNAME:;
#STEPSTYPE:dance-single;
#DESCRIPTION:MEGAtive;
#CHARTSTYLE:;
#DIFFICULTY:Easy;
#METER:7;
#RADARVALUES:0.358515,0.382163,0.071027,0.086810,0.000000,318.000000,309.000000,9.000000,11.000000,0.000000,0.000000,0.000000,0.000000,0.000000,0.358515,0.382163,0.071027,0.086810,0.000000,318.000000,309.000000,9.000000,11.000000,0.000000,0.000000,0.000000,0.000000,0.000000;
#CREDIT:;
#NOTES:
0000
0000
0000
0000
,
0000
0000
0000
0000
,
0000
0000
0000
0000
,
0000
0000
0000
0000
,
0000
0000
0000
0000
,
0001
0001
0100
0100
,
0001
0001
0010
0010
,
0001
1000
0010
0100
,
0001
1000
0100
0010
,
0001
0001
0001
0001
,
1000
1000
1000
1000
,
0010
0010
0010
0010
,
0100
0100
0100
0100
,
0001
0010
0100
1000
,
0001
0100
0010
1000
,
0001
0001
1000
1000
,
2002
3003
0000
0000
,
1001
0000
0001
0000
0001
0000
0001
0010
,
0001
0000
1000
0000
1000
0000
1000
0010
,
1000
0000
0001
0000
0001
0000
0001
0100
,
0001
0000
1000
0000
1000
0000
1000
0100
,
1000
0010
0100
0001
,
0010
0100
1000
0001
,
0100
0010
0100
0000
0001
1000
0001
0000
,
0010
0100
0010
0000
0001
1000
0001
0000
,
0100
0000
0000
1001
,
1000
0001
0100
0010
,
1000
0000
0100
0000
0010
0001
0010
0000
,
0001
0010
0100
1000
,
0010
0100
0010
0000
1000
0001
1000
0000
,
0100
1000
0001
0100
,
0001
0010
0100
1000
,
0001
0100
0010
0100
,
0002
0000
1003
1001
,
0001
0010
0001
0000
1000
0000
0010
0000
,
0100
0010
0100
0000
0001
0000
1000
0000
,
0100
0010
0100
0000
1000
0000
0001
0000
,
1000
0010
1000
0000
0001
0000
0010
0000
,
0100
1000
0100
0000
1000
0000
0001
0000
,
0100
0010
0100
0000
0001
0000
1000
0000
,
0100
0010
0100
0000
1000
0000
0001
0000
,
2000
0000
0000
3001
,
1001
1000
1000
1000
,
0001
0001
0001
0001
,
0100
0100
0100
0100
,
0010
0010
0010
0010
,
1000
0100
0010
0001
,
1000
0010
0100
0001
,
1000
0100
1000
0000
0001
0100
0001
0000
,
2000
3000
0000
1001
,
1000
0000
0001
0000
0100
0000
0010
0100
,
0010
0000
1000
0001
1000
0000
0200
0000
,
1300
0000
0001
0000
0010
0000
0100
0010
,
0100
0000
1000
0001
1000
0000
0010
0100
,
0001
0000
0001
0000
0001
0010
0001
0000
,
1000
0000
1000
0000
1000
0010
1000
0000
,
0001
1000
0001
0000
0010
0100
0010
0000
,
0002
0000
1003
1001
,
0001
0000
1000
0000
0010
0000
0100
0010
,
0100
0000
0001
1000
0001
0000
0020
0000
,
0031
0000
1000
0000
0100
0000
0010
0100
,
0010
0000
0001
1000
0001
0000
0100
0010
,
1000
0000
1000
0000
1000
0100
1000
0000
,
0001
0000
0001
0000
0001
0100
0001
0000
,
1000
0001
1000
0000
0100
0010
0100
0000
,
2000
3000
0000
1001
,
0001
0000
0100
0000
0010
0100
0010
0000
,
1000
0000
0100
0000
0010
0100
0010
0000
,
0001
0000
0100
0000
0010
0100
0010
0000
,
1000
0000
0100
0000
0010
0100
0010
0000
,
0001
0000
0100
0000
0010
0100
0010
0000
,
1000
0000
0100
0000
0010
0100
0010
0000
,
0001
0000
0100
0000
0010
0100
0010
0000
,
1000
1000
0001
0001
,
2002
0000
3003
0000
;

//---------------dance-single - MEGAtive----------------
#NOTEDATA:;
#CHARTNAME:;
#STEPSTYPE:dance-single;
#DESCRIPTION:MEGAtive;
#CHARTSTYLE:;
#DIFFICULTY:Medium;
#METER:10;
#RADARVALUES:0.470129,0.499751,0.260431,0.126270,0.067081,417.000000,384.000000,33.000000,16.000000,0.000000,0.000000,0.000000,0.000000,0.000000,0.470129,0.499751,0.260431,0.126270,0.067081,417.000000,384.000000,33.000000,16.000000,0.000000,0.000000,0.000000,0.000000,0.000000;
#CREDIT:;
#NOTES:
0000
0000
0000
0000
,
0000
0000
0000
0000
,
0000
0000
0000
0000
,
0000
0000
0000
0000
,
0000
0000
0000
0000
,
1000
0000
1000
0000
0100
0010
0100
0000
,
1000
0000
1000
0000
0010
0100
0010
0000
,
1000
0001
1000
0100
,
0010
0001
0100
0001
,
1001
0000
0000
1000
0000
0000
1000
0000
0000
0010
0000
0000
0100
0000
0000
0000
,
0001
0000
0000
0001
0000
0000
0001
0000
0000
0010
0000
0000
0100
0000
0000
0000
,
1000
0000
0000
1000
0000
0000
1000
0000
0000
0010
0000
0000
0100
0000
0000
0000
,
0001
0000
0000
0001
0000
0000
0001
0000
0000
0010
0000
0000
0100
0000
0000
0000
,
1000
0000
2010
0000
3010
1000
0001
0000
,
0010
0000
0012
0000
0013
0001
1000
0000
,
0010
0100
0010
0000
1000
0001
1000
0000
,
0200
0300
0000
0000
,
1001
0000
0000
0000
1000
0000
0000
0000
1000
0000
0000
0100
0000
0000
0010
0000
,
0001
0000
0000
0000
0001
0000
0000
0000
0001
0000
0000
0100
0000
0000
0010
0000
,
1000
0000
0000
0000
1000
0000
0000
0000
1000
0000
0000
0100
0000
0000
0010
0000
,
0001
0000
0000
0000
0001
0000
0000
0000
0001
0000
0000
0100
0000
0000
0010
0000
,
1000
0100
1000
0100
0010
0001
0010
0001
,
1000
0010
1000
0010
0100
0001
0100
0001
,
1000
0100
1000
0010
0100
0001
0010
0100
,
1000
0010
0100
0001
0010
0100
1000
0010
,
0100
0000
0000
1001
,
0001
0100
0001
0000
1000
0010
0100
0010
,
1000
0100
1000
0000
0001
0010
0100
0010
,
0001
0100
0001
0000
1000
0010
0100
0010
,
1000
0100
0010
0000
0001
0100
0010
0000
,
1000
0100
1000
0000
0001
0010
0100
0010
,
0001
0100
0001
0000
1000
0010
0100
0010
,
1000
0100
1000
0000
0001
0010
0100
0010
,
0002
0000
1000
0000
1003
0010
1000
0000
,
0001
0100
0010
1000
0100
0000
0110
0000
,
0010
0001
1000
0010
0100
0000
0110
0000
,
0010
1000
0001
0010
0100
0000
0110
0000
,
0010
0001
1000
0010
0100
0001
0010
0000
,
0001
0010
0100
1000
0010
0000
0110
0000
,
0100
0001
1000
0100
0010
0000
0110
0000
,
0100
1000
0001
0100
0010
0000
0110
0000
,
2002
0000
0000
0000
0000
0000
0000
0000
0000
3003
0000
0000
0001
0000
0000
0000
0100
0000
0010
0000
0000
0000
0000
0000
,
1001
0000
0000
0000
1000
0000
0000
0000
1000
0000
0000
0100
0000
0000
0010
0000
,
0001
0000
0000
0000
0001
0000
0000
0000
0001
0000
0000
0100
0000
0000
0010
0000
,
1000
0000
0000
0000
1000
0000
0000
0000
1000
0000
0000
0010
0000
0000
0100
0000
,
0001
0001
0001
0001
,
1001
1000
1000
1000
,
0010
0010
0010
0010
,
0100
0001
1000
0100
0010
0001
1000
0010
,
0100
0000
0000
1001
,
1100
0000
0101
0000
1100
0000
0100
1000
,
0001
0100
0010
1000
0200
0000
0310
0000
,
0011
0000
1010
0000
0011
0000
0010
0001
,
0100
0010
1000
0001
0020
0000
0130
0000
,
0010
0001
2000
0000
0010
0010
3010
0000
,
0010
1000
0002
0000
0010
0010
0013
0000
,
0001
0000
0010
0000
0001
0000
1000
0000
0010
0000
0000
0100
0001
0000
1000
0000
,
0100
0000
0100
0000
0100
1000
0001
0000
,
0101
0000
1100
0000
0101
0000
0100
0001
,
1000
0100
0010
0001
0200
0000
0310
0000
,
1010
0000
0011
0000
1010
0000
0010
1000
,
0100
0010
0001
1000
0020
0000
0130
0000
,
0010
1000
0002
0000
0010
0010
0013
0000
,
0010
0001
2000
0000
0010
0010
3010
0000
,
1000
0010
0100
0001
1000
0100
0010
0001
,
0100
0000
0000
1001
,
1000
0100
1000
0000
0001
0100
0001
0000
,
1000
0100
0010
0100
1000
0000
1001
0000
,
0001
0100
0001
0000
1000
0100
1000
0000
,
0001
0100
0010
0100
0001
0000
1001
0000
,
1000
0100
1000
0000
0001
0100
0001
0000
,
1000
0100
0010
0100
1000
0000
1001
0000
,
0001
0100
0001
0000
1000
0100
1000
0000
,
0001
0001
1000
1001
,
0220
0000
0330
0000
;

//---------------dance-single - MEGAtive----------------
#NOTEDATA:;
#CHARTNAME:;
#STEPSTYPE:dance-single;
#DESCRIPTION:MEGAtive;
#CHARTSTYLE:;
#DIFFICULTY:Hard;
#METER:13;
#RADARVALUES:0.555812,0.734929,0.126270,0.323566,0.347241,493.000000,477.000000,16.000000,41.000000,0.000000,0.000000,0.000000,0.000000,0.000000,0.555812,0.734929,0.126270,0.323566,0.347241,493.000000,477.000000,16.000000,41.000000,0.000000,0.000000,0.000000,0.000000,0.000000;
#CREDIT:;
#NOTES:
// measure 0
0000
0000
0000
0000
,  // measure 1
0000
0000
0000
0000
,  // measure 2
0000
0000
0000
0000
,  // measure 3
0000
0000
0000
0000
,  // measure 4
0000
0000
0000
0000
,  // measure 5
0001
0000
0000
0001
0000
0000
0001
0000
0010
0000
0100
0000
0010
0000
0000
0000
,  // measure 6
0001
0000
0000
0001
0000
0000
0001
0000
0100
0000
0010
0000
0100
0000
0000
0000
,  // measure 7
0001
0000
0000
0010
0000
0000
0001
0000
0000
1000
0000
0000
0010
0000
0000
0000
,  // measure 8
1000
0000
0000
0010
0000
0000
1000
0000
0000
0001
0000
0000
0010
0000
0000
0000
,  // measure 9
0001
0000
0000
0100
0010
0000
1000
0000
0010
0100
0000
0000
0001
0000
0000
0000
,  // measure 10
1000
0000
0000
0100
0010
0000
0001
0000
0010
0100
0000
0000
1000
0000
0000
0000
,  // measure 11
0001
0000
0000
0010
0100
0000
1000
0000
0100
0010
0000
0000
0001
0000
0000
0000
,  // measure 12
1000
0000
0000
0010
0100
0000
0001
0000
0100
0010
0000
0000
1000
0000
0000
0000
,  // measure 13
0001
0000
0000
0100
0010
0000
1000
0000
0100
0000
0010
0000
0100
0000
0000
0000
,  // measure 14
1000
0000
0000
0100
0010
0000
0001
0000
0100
0000
0010
0000
0100
0000
0000
0000
,  // measure 15
0001
0000
0000
0100
0010
0000
1000
0000
0010
0100
0000
0000
0001
0000
1000
0000
,  // measure 16
0002
0003
0000
0000
,  // measure 17
1001
0000
0000
0000
0001
0000
0000
0000
0001
0000
0000
0100
0010
0000
1000
0000
,  // measure 18
0001
0000
0000
0000
0001
0000
0000
0000
0001
0000
0000
0010
0100
0000
1000
0001
,  // measure 19
1000
0000
0000
0000
1000
0000
0000
0000
1000
0000
0000
0010
0100
0000
0001
0000
,  // measure 20
1000
0000
0000
0000
1000
0000
0000
0000
1000
0000
0000
0100
0010
0000
0001
1000
,  // measure 21
0001
0100
0010
1000
0100
0010
0001
0100
,  // measure 22
0010
1000
0001
0010
0100
1000
0010
0100
,  // measure 23
0001
0010
0001
0000
0100
0010
0100
0000
0001
0010
0001
0000
0100
0010
0100
0000
,  // measure 24
0001
0010
0100
0000
1000
0010
0100
0000
0001
0010
0100
0000
1000
0010
0100
0000
,  // measure 25
0001
0000
0000
1001
,  // measure 26
0001
0010
0001
1000
0100
0001
0100
1000
,  // measure 27
0001
0100
0001
1000
0010
0001
0010
1000
,  // measure 28
0001
0010
0001
1000
0100
0001
0100
1000
,  // measure 29
0010
0001
0010
1000
0100
0001
0200
0000
,  // measure 30
1300
0100
1000
0001
0010
1000
0010
0001
,  // measure 31
1000
0010
1000
0001
0100
1000
0100
0001
,  // measure 32
1000
0100
1000
0001
0010
1000
0010
0001
,  // measure 33
0100
0010
0000
0100
0010
0000
1000
0000
0001
0000
0010
0000
0022
0000
0033
0000
,  // measure 34
0001
0000
1000
0000
0020
0000
0000
0001
0000
0031
0000
0010
2000
0000
0000
0000
,  // measure 35
3001
0000
1000
0000
0200
0000
0000
0001
0000
0301
0000
0100
2000
0000
0000
0000
,  // measure 36
3001
0000
1000
0000
0020
0000
0000
0001
0000
0031
0000
0010
2000
0000
0000
0000
,  // measure 37
3001
0000
1000
0000
0200
0000
0000
0001
0000
0301
0000
0100
1000
0000
0001
0000
,  // measure 38
1000
0000
0001
0000
0200
0000
0000
1000
0000
1300
0000
0100
0002
0000
0000
0000
,  // measure 39
1003
0000
0001
0000
0020
0000
0000
1000
0000
1030
0000
0010
0002
0000
0000
0000
,  // measure 40
1003
0000
0001
0000
0200
0000
0000
1000
0000
1300
0000
0100
0002
0000
0000
0000
,  // measure 41
1003
0000
0000
0001
0000
0000
0010
0000
0000
0100
0000
0000
1000
0000
0001
0000
0100
0000
0010
0000
0000
0000
0000
0000
,  // measure 42
1001
0000
0000
0000
1000
0000
0000
0000
1000
0000
0000
0100
0000
0000
0010
0000
,  // measure 43
0001
0000
0000
0000
0001
0000
0000
0000
0001
0000
0000
0100
0010
0000
1000
0000
,  // measure 44
0001
0000
0000
0000
0001
0000
0000
0000
0001
0000
0000
0010
0000
0000
0100
0000
,  // measure 45
1000
1000
1000
1000
,  // measure 46
1001
0101
1100
0101
,  // measure 47
0011
1010
0011
1010
,  // measure 48
1000
0100
0010
0001
0100
0010
1000
0001
,  // measure 49
0010
0000
0000
0011
,  // measure 50
0010
0001
0010
1000
0010
0001
0100
1000
,  // measure 51
0100
0010
1000
0100
0020
0000
0032
0000
,  // measure 52
0103
0001
0100
1000
0100
0001
0010
1000
,  // measure 53
0010
0100
1000
0010
0200
0000
0301
1000
,  // measure 54
0100
0010
0200
0000
0010
0010
0310
0001
,  // measure 55
0100
0010
0200
0000
0010
0010
0310
0000
,  // measure 56
1000
0000
0100
0000
0010
0000
0100
0000
0001
0000
0100
0010
0100
0000
1000
0000
,  // measure 57
0002
0000
0100
0000
0103
0010
2000
0000
,  // measure 58
3010
1000
0010
0001
0010
1000
0100
0001
,  // measure 59
0100
0010
0001
0100
0020
0000
2030
0000
,  // measure 60
3100
1000
0100
0001
0100
1000
0010
0001
,  // measure 61
0010
0100
0001
0010
0200
0000
1300
0001
,  // measure 62
0100
0000
0010
0000
0200
0000
0000
0000
0010
0000
0010
0000
0310
0000
1000
0001
,  // measure 63
0010
0100
0020
0000
0100
0100
0130
0000
,  // measure 64
1000
0000
0010
0000
0100
0000
0001
0000
0010
0000
0100
0000
1000
0010
0100
0001
,  // measure 65
2000
3000
0000
1001
,  // measure 66
0001
0000
0010
0100
0000
0001
0000
0100
0010
0000
0001
0000
2000
0000
0000
0000
,  // measure 67
3001
0000
0100
0010
0000
0001
0000
0010
0100
0000
0001
0000
2000
0000
0000
0000
,  // measure 68
3001
0000
0010
0100
0000
0001
0000
0100
0010
0000
0001
0000
2000
0000
0000
0000
,  // measure 69
3001
0000
0100
0010
0000
0001
0000
0010
0100
0000
0001
1000
0002
0000
0000
0000
,  // measure 70
1003
0000
0010
0100
0000
1000
0000
0100
0010
0000
1000
0000
0002
0000
0000
0000
,  // measure 71
1003
0000
0100
0010
0000
1000
0000
0010
0100
0000
1000
0000
0002
0000
0000
0000
,  // measure 72
1003
0000
0010
0100
0000
1000
0000
0100
0010
0000
1000
0000
0002
0000
0000
0000
,  // measure 73
1003
0100
0000
0001
0100
0000
1000
0000
0001
0000
0001
0000
2002
0000
3003
0000
,  // measure 74
0220
0000
0330
0000
;
