#VERSION:0.83;
#TITLE:BLACK SHOUT;
#SUBTITLE:;
#ARTIST:Peaky P-key;
#TITLETRANSLIT:;
#SUBTITLETRANSLIT:;
#ARTISTTRANSLIT:;
#GENRE:;
#ORIGIN:;
#CREDIT:;
#BANNER:BLACK_SHOUT_Groovy_Mix_Cover_Art.png;
#BACKGROUND:BLACK_SHOUT_Groovy_Mix_Cover_Art.png;
#PREVIEWVID:;
#JACKET:;
#CDIMAGE:;
#DISCIMAGE:;
#LYRICSPATH:;
#CDTITLE:;
#MUSIC:Peaky P-key - BLACK SHOUT.mp3;
#OFFSET:-0.040000;
#SAMPLESTART:79.176003;
#SAMPLELENGTH:12.000000;
#SELECTABLE:YES;
#BPMS:0.000=92.500,
46.000=185.000,
256.000=92.500,
269.000=370.000,
277.000=185.000;
#STOPS:54.000=1.946,
112.000=0.649,
254.000=1.946,
268.000=0.649,
309.000=0.649;
#DELAYS:;
#WARPS:;
#TIMESIGNATURES:0.000=4=4;
#TICKCOUNTS:0.000=4;
#COMBOS:0.000=1;
#SPEEDS:0.000=1.000=0.000=0;
#SCROLLS:0.000=1.000;
#FAKES:;
#LABELS:0.000=Song Start;
#BGCHANGES:;
#KEYSOUNDS:;
#ATTACKS:
;

//---------------dance-single - ----------------
#NOTEDATA:;
#CHARTNAME:;
#STEPSTYPE:dance-single;
#DESCRIPTION:;
#CHARTSTYLE:;
#DIFFICULTY:Hard;
#METER:16;
#RADARVALUES:0.764251,0.925699,1.123450,0.718396,0.473836,700.000000,553.000000,147.000000,94.000000,0.000000,0.000000,0.000000,0.000000,0.000000,0.764251,0.925699,1.123450,0.718396,0.473836,700.000000,553.000000,147.000000,94.000000,0.000000,0.000000,0.000000,0.000000,0.000000;
#CREDIT:;
#NOTES:
0000
0000
0000
0000
,
0000
0000
0000
0000
,
0000
0000
0000
0000
0000
0000
0000
0000
1000
0000
0000
0010
0000
0000
0100
0000
,
0000
0000
0001
0000
1000
0000
0000
0000
0110
0000
0000
0010
0000
0000
0001
1000
,
2002
0000
0000
0000
0000
0000
3003
0000
2001
0000
3010
0000
0200
0000
0310
0001
,
0000
0020
0000
0001
0000
0031
0000
0000
1001
0000
0100
0010
0002
0000
0013
0001
,
0000
0200
0000
1000
0000
1300
0000
0000
2001
0000
3010
0000
0200
0000
0310
0001
,
0000
0020
0000
0001
0000
0031
0000
0000
1020
0000
0000
0000
1030
0000
0000
0201
,
0000
0000
0301
0010
0100
0010
0000
0000
0201
0000
0301
0000
2100
0000
3001
0010
,
0000
0200
0000
1000
0000
1300
0000
0000
1020
0000
0130
0001
0020
0000
1030
0100
,
0000
0000
0000
2000
0000
0000
0000
0000
0000
0001
0000
0000
0000
0000
0000
3200
0000
0000
0000
0000
0000
0300
0000
0000
1002
0000
0000
0000
0000
0000
1003
0000
0000
0000
0000
0000
0110
0000
0000
0000
1000
0000
0000
0000
0010
0000
0000
0000
,
1100
0000
0000
0000
0001
0000
0000
0000
0100
0000
0000
0000
0202
0000
0000
0000
0000
0000
0303
0000
0000
0000
0000
0000
1001
0000
0000
0000
0000
0000
0000
0000
0000
0000
0000
0000
0000
0000
0000
0000
0000
0000
0010
0000
0000
0100
0000
0000
,
0001
0000
0000
0100
1002
0000
0103
0010
,
0100
0000
1001
0000
0000
0000
0100
0010
2000
0000
0000
0000
3001
0000
0000
0000
,
0110
0000
1000
0010
2000
0000
3001
0000
0110
0000
0001
0100
0002
0000
1003
0000
,
0110
0000
1000
0010
2000
0000
3001
0000
0110
0000
0000
0000
0110
0000
0110
0000
,
0110
0000
1000
0010
2000
0000
3001
0000
0110
0000
0001
0100
0002
0000
1003
0000
,
0210
0000
0310
0000
1001
0000
1001
0000
0010
0100
0010
0100
0010
0100
0010
0100
,
0001
0000
1000
0010
2000
0000
3001
0000
0110
0000
0001
0100
0002
0000
1003
0000
,
0110
0000
1000
0010
2000
0000
3001
0000
0110
0000
0000
0100
0010
0000
1100
0000
,
1001
0000
1000
0010
2000
0000
3001
0000
0110
0000
0001
0100
0002
0000
1003
0000
,
0110
0000
1000
0010
2000
0000
3001
0000
0100
0010
0001
0000
0100
0010
0100
0010
,
1000
0101
1200
1300
,
0110
0010
0100
0002
0003
0010
0100
0100
,
1001
0101
1010
1001
,
0110
0000
0010
0000
0100
0000
0000
0001
0010
0000
1100
0000
1100
0000
0010
0100
,
1000
1010
0201
0301
,
0110
0000
0100
0000
0010
0000
2000
0000
0001
0000
3010
0100
0010
0100
0010
0100
,
0002
0003
0002
2003
,
3100
0010
0100
0010
0100
0010
0100
0010
0001
0000
0010
0000
0110
0000
0000
0000
,
2000
0010
3010
0000
1010
1000
0010
0101
,
0000
0001
2000
3000
0101
0100
0110
0000
,
0002
0000
0100
0000
0103
0000
0000
0000
0101
0000
0001
0000
0100
0000
0000
1000
,
0100
0011
0100
0100
1001
0010
0110
0000
,
2000
0010
3010
0000
1010
1000
0010
0101
,
0000
0000
0010
0000
0100
0000
0010
0000
1001
0000
1000
0010
1000
0000
0110
0000
,
1001
0000
0001
0100
0001
0000
0110
0000
1001
0000
1000
0010
1000
0000
0010
1000
,
0010
1000
0100
1000
0010
1000
0001
1000
0002
0000
0000
0000
1003
0000
0000
0000
,
0001
0000
1010
1020
0000
1030
0100
0020
,
0001
0130
0001
0000
2000
0000
3001
0000
,
1000
0000
0101
0201
0000
0301
0010
0100
,
0101
0000
0010
0100
0010
0000
0001
0100
0002
0000
0000
0000
1003
0000
0000
0000
,
0001
0000
1010
1020
0000
1030
0100
0020
,
0001
0000
0130
0000
0001
0000
0000
0000
2000
0000
0000
0000
3001
0000
0100
0010
,
1000
0000
0101
0201
0000
0301
0010
1000
,
0010
0100
0010
0100
0010
0000
0100
0000
0201
0000
0000
0010
0000
0000
0310
0000
,
2001
0000
0000
0010
0000
0000
3010
0000
0100
0001
0010
0001
1000
0010
0100
0010
,
1000
0001
0100
0001
1000
0000
0000
0000
1001
0000
0000
0000
0110
0000
0000
0000
,
0101
0000
1010
1010
0000
1001
0000
1000
,
0010
0000
1000
0000
0001
0000
0010
0100
1000
0000
0000
0000
1100
0000
0010
0000
,
0101
0000
0101
0101
0000
1001
0000
0001
,
0100
0000
0001
0000
1000
0000
0100
0010
0001
0000
0000
0000
0110
0000
0000
0000
,
0011
0000
1010
1010
0000
1010
0000
1000
,
0010
1000
0001
0010
2002
0000
3003
0000
,
0220
0000
0000
0000
0330
0000
2001
0000
0000
0000
0010
0000
3010
0000
0100
0001
,
0010
0001
0010
0001
0100
0010
0100
0010
1000
0000
0000
0000
0110
0000
0000
0000
,
0011
0000
1010
1010
0000
1001
0000
1000
,
0010
0000
1000
0000
0001
0000
0010
0100
1000
0000
0000
0000
1100
0000
0010
0000
,
0101
0000
0101
0101
0000
1001
0000
0001
,
1000
0000
0001
0000
0100
0000
0100
0010
1000
0000
0000
0000
0021
0000
0000
0000
,
0032
0000
1003
0000
0100
0000
1100
0000
0001
0000
0010
0000
,
1001
0000
0000
0000
0000
0000
0000
0000
1000
0000
0000
0000
0000
0000
0000
0000
0001
0000
0000
0000
0000
0000
0000
0000
2001
0000
0000
0000
0000
0000
0000
0000
0000
0000
0000
0000
3001
0000
0000
0000
0000
0000
0010
0000
0000
0100
0000
0000
,
0002
0000
1003
0000
2000
0000
3001
0100
,
0001
2002
0000
3003
2000
0000
3001
0000
,
0201
0000
0010
0300
2010
0000
3010
0201
0000
0001
0000
0301
0000
0010
0000
0000
,
1020
0000
0031
0100
0102
0000
0103
1020
0000
1000
0000
1030
0000
0100
0000
0000
,
2100
0000
0001
3000
0021
0000
0031
2100
0000
0100
0000
3100
0000
0001
0000
0000
,
2002
3003
1001
0000
0001
0100
0001
0000
,
1001
0000
0010
0100
0010
0100
0010
0000
,
1000
0100
1000
0000
1010
0000
0101
0010
,
1000
1001
0000
0120
0000
1030
0002
1000
,
0103
0110
1001
0000
0101
0010
1010
0000
,
1001
1001
0000
0210
0010
0301
0010
0001
,
1000
0000
0000
0000
0000
0000
0100
0000
0000
0010
0000
0000
0001
0000
0000
0000
0000
0000
0000
0000
0000
0000
0000
0000
0201
0000
0000
0000
0000
0000
0000
0000
0000
0000
0000
0000
0302
0000
0000
0000
0000
0000
0000
0000
1003
0000
0000
0000
,
0000
0110
0000
1001
0000
1001
0000
0110
0000
1001
0000
1010
,
0000
0000
0000
0000
0101
0000
0000
0000
0000
0000
0000
0000
2001
0000
0000
0000
0000
0000
0000
0000
0000
0000
0000
0000
3001
0000
0000
0000
0000
0000
0010
0000
0000
0100
0000
0000
0002
0000
0000
0000
0000
0000
0000
0000
0000
0000
0000
0000
,
1003
0000
2001
0000
3001
0100
0011
1001
,
0000
0000
0100
0010
2000
0000
0000
0000
3000
0000
0000
0000
1000
0000
0100
0000
,
1000
0000
0100
0000
0010
0000
0100
0010
0001
0000
0000
0000
1001
0000
0100
0010
,
0100
1001
0001
0010
0100
2002
0000
0000
,
0000
0000
0000
3003
;

//---------------dance-single - ----------------
#NOTEDATA:;
#CHARTNAME:;
#STEPSTYPE:dance-single;
#DESCRIPTION:;
#CHARTSTYLE:;
#DIFFICULTY:Challenge;
#METER:18;
#RADARVALUES:0.946580,1.234266,1.436793,1.092879,0.645792,867.000000,679.000000,188.000000,143.000000,0.000000,0.000000,0.000000,0.000000,0.000000,0.946580,1.234266,1.436793,1.092879,0.645792,867.000000,679.000000,188.000000,143.000000,0.000000,0.000000,0.000000,0.000000,0.000000;
#CREDIT:;
#NOTES:
0000
0000
0000
0000
0000
0000
0000
0000
0201
0000
0000
0010
0000
0000
0301
0000
,
2010
0000
0000
0001
0000
0000
3001
0000
1020
0000
0000
0100
0000
0000
1030
0000
,
0102
0000
0000
1000
0000
0000
1003
0000
1001
0000
0000
0100
0000
0000
0010
0000
,
0000
0000
1000
0000
0001
0000
0000
0000
0110
0000
0000
0100
0000
0000
1000
0010
,
0002
0000
0023
0000
0230
0000
2300
3000
1002
0000
0103
0000
2010
0000
3100
1000
,
0000
0120
0000
1000
0000
1030
0000
0000
1001
0000
0010
0100
1002
0000
0103
0001
,
0000
0210
0000
0001
0000
0301
0000
0000
1002
0000
0103
0000
2010
0000
3100
1000
,
0000
0120
0000
1000
0000
1030
0000
0000
0201
0000
0000
0000
0301
0000
0000
1020
,
0000
0000
1030
0100
0010
0100
0000
0000
1020
0100
1000
1030
0012
0100
1000
0103
,
1000
0010
0100
0001
1000
0100
0010
0001
0201
0010
0001
0301
2100
0010
0001
3010
,
0001
0000
0000
0100
0000
0000
0010
0000
0000
1000
0000
0000
0001
0000
0000
0010
0000
0000
0100
0000
0000
1000
0000
0000
2001
0000
0000
0000
0000
0000
3001
0000
0000
0000
0000
0000
0110
0000
0000
0000
1001
0000
0000
0000
0110
0000
0000
0000
,
0011
0000
0000
0000
1001
0000
0000
0000
0110
0000
0000
0000
1001
0000
0000
0010
0000
0000
0100
0000
0000
1000
0000
0000
2002
0000
0000
0000
0000
0000
0000
0000
0000
0000
0000
0000
3003
0000
0000
0000
0000
0000
0100
0000
0000
0010
0000
0000
,
2020
0000
3030
0010
2002
0003
3010
0100
,
0010
0000
2002
0000
3003
0000
0010
0100
2002
3000
1003
0001
1000
0000
0000
0000
,
0110
0000
0001
0100
0002
0000
1003
0000
0110
0000
1000
0010
2000
0000
3001
0000
,
0110
0000
0001
0100
0002
0000
1003
0000
0110
0000
0010
0100
0010
0000
0110
0000
,
0110
0000
0001
0100
0002
0000
1003
0000
0110
0000
1000
0010
2000
0000
3001
0100
,
0020
0000
0130
0000
1001
0000
1000
0001
0200
0320
0230
0320
0230
0320
0230
0320
,
1030
0000
0001
0100
0002
0000
1003
0000
0110
0000
1000
0010
2000
0000
3001
0000
,
0110
0000
0001
0100
0002
0000
1003
0000
0110
0000
0010
0100
0010
0000
0011
0000
,
1001
0000
0001
0100
0002
0000
1003
0000
0110
0000
1000
0010
2000
0000
3001
0000
,
0110
0000
0001
0100
0002
0000
1003
0000
0010
0100
1000
0100
0020
0230
0320
0230
,
0301
1010
0021
0031
,
0110
0100
0010
2000
3002
0103
0210
0310
,
1001
1010
0101
1001
,
0110
0000
0100
0000
0010
0000
1000
0100
1000
0000
0011
0000
0011
0000
0100
0010
,
1001
0101
1020
1030
,
0110
0000
0010
0000
0100
0000
0002
0000
1000
0000
0203
0320
0230
0320
0230
0320
,
2030
0000
0000
0000
3000
0000
0000
0000
1100
0000
0020
2030
3002
0203
0320
0230
,
0320
0230
0320
0230
0320
0230
0320
0230
1300
0000
0200
0300
0110
0000
1100
0000
,
0002
0000
0200
0300
0103
0000
1010
0000
0001
0000
0201
0300
0100
0000
1010
0000
,
2000
0000
0001
0000
0002
0000
3003
0000
1010
0000
0020
0030
0110
0000
0011
0000
,
2000
0000
0020
0030
3010
0000
0101
0000
1000
0000
1020
0030
0010
0000
0001
0100
,
0010
0000
1100
0000
0010
0100
0010
0100
1001
0000
0200
0300
0110
0000
1100
0000
,
0002
0000
0200
0300
0103
0000
1010
0000
0001
0000
0201
0300
0100
0000
1010
0000
,
0100
0000
0010
0100
0010
0000
0101
0000
1001
0000
0001
0100
0001
0000
0110
0000
,
1001
0000
1000
0010
1000
0000
0110
0000
1001
0000
0001
0100
0001
0000
0100
0001
,
0100
0001
0010
0001
0100
0001
1000
0001
2000
0000
0000
0000
3001
0000
0100
0010
,
1000
0000
0101
0201
0000
0301
0010
0200
,
0001
0000
0310
0000
0001
0000
0010
0100
0002
0000
0000
0000
1003
0000
0010
0100
,
0001
0000
1010
1020
0000
1030
0100
0010
,
1010
0000
0100
0010
1000
0000
0100
0010
2000
0000
0000
0000
3001
0000
0100
0010
,
1000
0000
0101
0201
0000
0301
0010
0200
,
0001
0000
0310
0000
1001
0000
0010
0100
0002
0000
0000
0000
1003
0000
0010
0100
,
0001
0000
1010
1020
0000
1030
0100
0001
,
0100
0010
0100
0010
0100
0000
0010
0000
1010
0000
0010
0200
0310
0000
0100
0000
,
1001
0000
0001
0200
0301
0000
0100
0000
0010
1000
0100
1000
0001
0100
0010
0100
,
0001
1000
0010
1000
0001
0000
0000
0000
1001
0000
0000
0000
0110
0000
0000
0000
,
1010
0000
0101
0101
0010
1001
1000
0001
,
0100
0000
0001
0000
1000
0000
0100
0010
1001
0000
0000
0000
0011
0000
0100
0000
,
1010
0000
1010
1010
0100
1001
0001
1000
,
0010
0000
1000
0000
0001
0000
0010
0100
1001
0000
0000
0000
0110
0000
0000
0000
,
1100
0000
0101
0101
0010
0101
1000
0001
,
0100
0000
0001
0000
1000
0000
0100
0010
1001
0000
0000
0000
0110
0000
0000
0000
,
1001
0000
0000
0000
0010
0000
1002
0000
1000
0000
0100
0000
0103
0000
0010
1000
,
0100
1000
0100
1000
0010
0100
0010
0100
1001
0000
0000
0000
0110
0000
0000
0000
,
1100
0000
0101
0101
0010
1001
1000
0001
,
0100
0000
0001
0000
1000
0000
0100
0010
1001
0000
0000
0000
0011
0000
0100
0000
,
1010
0000
1010
1010
0100
1001
0010
1000
,
0001
0000
1000
0000
0010
0000
0010
0100
0001
0000
0000
0000
1200
0000
0000
0000
,
2300
0000
3001
0000
0110
0000
0011
0000
1001
0000
0110
0000
,
1001
0000
0000
0000
0000
0000
0000
0000
0101
0000
0000
0000
0000
0000
0000
0000
1010
0000
0000
0000
0000
0000
0000
0000
1002
0000
0000
0000
0000
0000
0000
0000
0000
0000
0000
0000
1003
0000
0000
0000
0000
0000
0100
0000
0000
0010
0000
0000
,
2000
0000
3001
0000
0002
0000
1003
0010
,
1100
0000
2002
0000
3003
0000
0010
0100
2002
3000
1003
0001
1000
0000
0000
0000
,
0020
1000
0100
1030
0002
0010
0103
0020
0100
1000
0100
1030
0010
0100
0010
0001
,
0200
0001
0010
0301
2000
0100
3010
0200
0010
0001
0010
0301
0100
0010
0100
1000
,
0020
1000
0100
1030
0002
0010
0103
0020
0100
1000
0100
1030
0010
0100
0010
0001
,
2002
3003
1001
0000
0100
0010
1000
0000
,
1001
0000
0100
0010
0100
0010
0100
0001
,
0010
0001
1001
0010
0101
0010
1010
0100
,
1001
1001
1000
0210
0010
0301
2010
0001
,
3010
0110
1001
0100
1010
0100
0101
0010
,
1001
1001
0010
0120
0100
1030
0101
1010
,
0101
0000
0000
0000
0000
0000
0010
0000
0000
0100
0000
0000
0001
0000
0000
0000
0000
0000
0000
0000
0000
0000
0000
0000
1020
0000
0000
0000
0000
0000
0000
0000
0000
0000
0000
0000
2030
0000
0000
0000
0000
0000
0000
0000
3001
0000
0000
0000
,
0000
0110
0000
1001
0000
1001
0000
0110
0000
1001
0000
0101
,
0000
0000
0000
0000
1010
0000
0000
0000
0000
0000
0000
0000
1002
0000
0000
0000
0000
0000
0000
0000
0000
0000
0000
0000
1003
0000
0000
0000
0000
0000
0100
0000
0000
0010
0000
0000
2000
0000
0000
0000
0000
0000
0000
0000
0000
0000
0000
0000
,
3001
0000
1002
0000
1003
0010
1100
1001
,
1000
0000
0010
0100
0202
0000
0000
0000
0303
0000
0000
0000
0011
0000
0011
0000
,
0011
0000
0110
0000
1100
0000
0010
0100
1001
0000
0000
0000
1001
0000
0010
0100
,
0010
0000
1001
0000
1000
0010
0100
0010
0100
0000
2002
0000
0000
0000
0000
0000
,
0000
0000
0000
3003
;

//---------------dance-single - ----------------
#NOTEDATA:;
#CHARTNAME:;
#STEPSTYPE:dance-single;
#DESCRIPTION:;
#CHARTSTYLE:;
#DIFFICULTY:Medium;
#METER:13;
#RADARVALUES:0.564454,0.709703,0.557904,0.512048,0.309522,517.000000,444.000000,73.000000,67.000000,0.000000,0.000000,0.000000,0.000000,0.000000,0.564454,0.709703,0.557904,0.512048,0.309522,517.000000,444.000000,73.000000,67.000000,0.000000,0.000000,0.000000,0.000000,0.000000;
#CREDIT:;
#NOTES:
0000
0000
0000
0000
,
0000
0000
0000
0000
,
0000
0000
0000
0000
0000
0000
0000
0000
0001
0000
0000
0100
0000
0000
0010
0000
,
0000
0000
1000
0000
0001
0000
0000
0000
0110
0000
0000
0100
0000
0000
1000
0001
,
2002
0000
0000
0000
0000
0000
0003
0000
3001
0000
0100
0000
0010
0000
0001
0100
,
0000
0010
0000
0100
0000
0010
0000
0000
1000
0000
1000
0100
1000
0000
0010
1000
,
0000
0100
0000
1000
0000
0100
0000
0000
0001
0000
0100
0000
0010
0000
0001
0100
,
0000
0010
0000
0100
0000
0010
0000
0000
0101
0000
0000
0000
0110
0000
0000
1010
,
0000
0000
1000
0100
1000
0010
0000
0000
0010
0000
0001
0000
1000
0000
0010
0001
,
0000
1000
0000
0001
0000
1000
0000
0000
0100
0000
0100
0001
0100
0000
1000
0100
,
0000
0000
0000
0001
0000
0000
0000
0000
0000
0100
0000
0000
0000
0000
0000
0001
0000
0000
0000
0000
0000
0000
0000
0000
1000
0000
0000
0000
0000
0000
0001
0000
0000
0000
0000
0000
0100
0000
0000
0000
0100
0000
0000
0000
0001
0000
0000
0000
,
0010
0000
0010
0000
0001
0000
0200
0000
0000
0300
0000
0000
1001
0000
0000
0000
0000
0000
0000
0000
0000
0000
0000
0000
,
1010
0000
0000
0000
2001
0000
3010
0100
,
0010
0000
1001
0000
0000
0000
0001
0100
0002
0000
0000
0000
1003
0000
0000
0000
,
0110
0000
0000
0100
0002
0000
1003
0000
0100
0000
0000
0010
2000
0000
3001
0000
,
0010
0000
0000
0100
0002
0000
1003
0000
0110
0000
0000
0000
0010
0000
0100
0000
,
0010
0000
0000
0100
0002
0000
1003
0000
0100
0000
0000
0010
2000
0000
3001
0000
,
0010
0000
0100
0000
1000
0000
0001
0000
0100
0000
0100
0000
1000
0001
1000
0000
,
1001
1000
0002
1003
0000
0001
2000
3001
,
0000
1000
0002
1003
0000
0010
0100
0001
,
1001
1000
0002
1003
0000
0001
2000
3001
,
0000
1000
0002
1003
0010
1000
0002
0003
,
0101
1010
1020
0031
,
1000
0001
0000
2000
3000
1000
0010
0000
,
1001
0010
0010
0100
,
0010
0100
0000
1000
0000
0001
0010
0010
,
0001
0101
0201
1300
,
0001
0000
1000
0000
0000
0000
0002
0000
0003
0000
0001
0000
0010
0000
1000
0001
,
2000
3000
0000
0000
,
0001
0100
0001
0100
0001
0000
1000
0010
1000
0000
0000
0000
0011
0000
0000
0000
,
0012
0000
0103
0000
0011
0100
1000
1010
,
0000
0010
0002
0003
1010
0000
0110
0000
,
2010
0000
3100
0000
1010
0100
0000
0001
,
0000
1100
0010
0010
1001
0000
0110
0000
,
0012
0000
0103
0000
0011
0100
1000
1010
,
0000
0010
1000
0100
1001
0010
0100
0010
,
1001
0100
0010
0100
1001
0010
0100
0010
,
1001
0000
0010
0000
0100
0001
1000
0001
2000
0000
0000
0000
3001
0000
0000
0000
,
1000
0000
0001
0200
0000
0301
0000
0200
,
1000
0310
0002
1003
,
0001
0000
1000
0020
0000
1030
0000
0010
,
1000
0100
2000
3001
,
1000
0000
0001
0200
0000
0301
0010
0200
,
1000
0310
0002
1003
,
0001
0000
0010
0020
0000
0030
0010
0001
,
1000
0000
0000
0000
0010
0000
0000
0000
1020
0000
0000
1000
0000
0000
1030
0000
,
0201
0000
0000
0001
0000
0000
0001
0000
0310
0000
0100
0000
0001
0000
0010
0000
,
0001
1000
0001
1000
0001
0000
0000
0000
1001
0000
0000
0000
0110
0000
0000
0000
,
1010
0000
0001
0100
0000
1010
0000
0001
,
0000
0200
0000
0000
0301
0000
0001
0100
,
0001
0000
0010
0001
0000
1100
0000
0001
,
0000
0200
0000
0000
0301
0000
0010
0000
,
1000
0000
0001
0010
0000
1001
0000
0010
,
0000
1000
0000
0000
2002
0000
3003
0000
,
0220
0000
0330
1002
0000
0000
0103
0001
,
0100
0001
0100
0000
0010
1000
0010
0000
0001
0000
0000
0000
0010
0000
0000
0000
,
1000
0000
0001
0010
0000
1001
0000
0010
,
0000
2000
0000
0000
3001
0000
0001
0100
,
0001
0000
0010
0001
0000
1100
0000
0001
,
0000
0000
0100
0000
0010
0000
0010
0100
0010
0000
0000
0000
1200
0000
0000
0000
,
1300
0000
1000
0000
0001
0000
0010
0000
0010
0000
0001
0000
,
1000
0000
0000
0000
0000
0000
0000
0000
0100
0000
0000
0000
0000
0000
0000
0000
0100
0000
0000
0000
0000
0000
0000
0000
1002
0000
0000
0000
0000
0000
0000
0000
0000
0000
0000
0000
0003
0000
0000
0000
0000
0000
0100
0000
0000
0010
0000
0000
,
2000
0000
3001
0000
0002
0000
1003
0010
,
1000
2002
0000
3003
0002
0000
1003
0000
,
1000
0000
0100
0000
0001
0000
1000
0100
0000
0001
0000
0100
0000
0001
0000
0000
,
0001
0000
0001
0010
0001
0000
0100
0001
0000
0010
0000
0001
0000
0010
0000
0000
,
0010
0000
1000
0000
0100
0000
0010
1000
0000
0100
0000
1000
0000
0100
0000
0000
,
2002
3003
1001
0000
1000
0000
0001
0000
,
0110
0010
0100
0010
,
1000
0001
0101
1010
,
0001
0101
0000
2010
0000
3001
0000
2020
,
0000
3030
1001
0000
1000
0100
1000
0000
,
0001
1000
0000
0120
0000
1030
0000
2200
,
0000
0000
0000
3300
0000
0000
1000
0000
0000
0000
0000
0000
1020
0000
0000
0000
0000
0000
1030
0000
0000
0000
1000
0000
,
0000
0010
0000
1001
0000
0001
0000
0010
0000
1001
0000
0100
,
0000
0000
0000
0000
0100
0000
0000
0000
0000
0000
0000
0000
1002
0000
0000
0000
0000
0000
0000
0000
0000
0000
0000
0000
0003
0000
0000
0000
0000
0000
1000
0000
0000
0010
0000
0000
2000
0000
0000
0000
0000
0000
0000
0000
0000
0000
0000
0000
,
3000
0000
1001
0000
1000
0010
1000
1001
,
0000
0000
0001
0100
0002
0000
0000
0000
0003
0000
0000
0000
0001
0000
0010
0000
,
0100
0000
1000
0000
0100
0000
0000
0000
1001
0000
0000
0000
1001
0000
0010
0100
,
0010
0001
1000
0100
0010
2002
0000
0000
,
0000
0000
0000
3003
;

//---------------dance-single - ----------------
#NOTEDATA:;
#CHARTNAME:;
#STEPSTYPE:dance-single;
#DESCRIPTION:;
#CHARTSTYLE:;
#DIFFICULTY:Easy;
#METER:10;
#RADARVALUES:0.352647,0.493706,0.366841,0.099353,0.091710,323.000000,275.000000,48.000000,13.000000,0.000000,0.000000,0.000000,0.000000,0.000000,0.352647,0.493706,0.366841,0.099353,0.091710,323.000000,275.000000,48.000000,13.000000,0.000000,0.000000,0.000000,0.000000,0.000000;
#CREDIT:;
#NOTES:
// measure 0
0000
0000
0000
0000
,  // measure 1
0000
0000
0000
0000
,  // measure 2
0000
0000
1000
0010
,  // measure 3
0001
1000
0100
0010
,  // measure 4
2002
0000
0000
3000
1003
0000
0100
0000
,  // measure 5
1000
0000
0000
0010
0000
0100
0000
0000
0001
0000
0000
0000
0001
0000
0000
0000
,  // measure 6
0001
0000
0000
0001
0000
0010
0000
0000
1000
0000
0000
0000
0100
0000
0000
0000
,  // measure 7
1000
0000
0000
0010
0000
0100
0000
0000
1000
0000
0000
0000
0100
0000
0000
0000
,  // measure 8
0010
0001
0100
0001
,  // measure 9
0100
0000
0000
1000
0000
0001
0000
0000
0010
0000
0000
0000
0010
0000
0000
0000
,  // measure 10
0010
0000
0000
0010
0000
1000
0000
0000
0001
0000
0000
0000
0010
0000
0000
0000
,  // measure 11
0100
0000
2000
3000
1001
0000
0000
0000
,  // measure 12
0101
0000
1001
0000
,  // measure 13
1001
0000
1001
0110
,  // measure 14
0110
1000
0000
0001
,  // measure 15
0100
1000
0000
0001
,  // measure 16
0100
1000
0000
0001
,  // measure 17
0100
0001
0010
1000
,  // measure 18
1001
1000
0000
0001
,  // measure 19
0000
1000
0000
0001
,  // measure 20
1001
1000
0000
0001
,  // measure 21
0000
1000
0001
0100
,  // measure 22
1001
0001
0001
1000
,  // measure 23
0001
0000
0000
0001
0000
0000
0100
0000
,  // measure 24
1001
0100
0100
0010
,  // measure 25
0100
0000
0000
0001
0000
0000
0100
0000
,  // measure 26
1001
1000
1000
0001
,  // measure 27
1000
0000
0000
1000
0000
0000
0100
0000
,  // measure 28
1001
0000
0000
0000
,  // measure 29
0110
0110
1001
0100
,  // measure 30
0100
0000
0010
0000
0100
0010
0000
0100
,  // measure 31
0000
1000
1001
0100
,  // measure 32
0100
0000
0010
0000
0100
0010
0000
1000
,  // measure 33
0000
0001
1001
0100
,  // measure 34
0100
0000
0010
0000
0100
0010
0000
0100
,  // measure 35
0000
0001
1001
0000
,  // measure 36
0110
0000
1001
0000
,  // measure 37
0110
0010
0001
0000
,  // measure 38
0001
0000
0010
0000
,  // measure 39
0010
0000
1000
0000
,  // measure 40
1000
0000
0100
0000
,  // measure 41
0100
0000
0001
0000
,  // measure 42
0001
0000
0010
0000
,  // measure 43
0010
0000
1000
0000
,  // measure 44
1000
0000
0100
0000
,  // measure 45
0100
0100
0201
0301
,  // measure 46
1020
1030
0100
1000
,  // measure 47
0001
1000
0001
0000
1001
0000
0010
0000
,  // measure 48
0100
0000
1000
0010
0000
0100
0000
1000
,  // measure 49
0000
0010
0000
0000
1000
0000
1000
0000
,  // measure 50
1000
0000
0100
1000
0000
0010
0000
1000
,  // measure 51
0000
0010
0000
0000
1000
0000
0100
0000
,  // measure 52
0001
0000
1000
0100
0000
0001
0000
0100
,  // measure 53
0000
0001
0000
0000
1001
0000
0000
0000
,  // measure 54
0110
0000
1001
0010
,  // measure 55
0010
0000
1000
0010
1000
0000
0100
0000
,  // measure 56
0001
0000
1000
0100
0000
0001
0000
0100
,  // measure 57
0000
0002
0000
0000
1003
0000
1000
0000
,  // measure 58
1000
0000
0100
1000
0000
0010
0000
1000
,  // measure 59
0000
0010
0000
0000
0100
0000
2001
0000
,  // measure 60
3001
0000
0100
0000
,  // measure 61
0001
0000
1001
0000
,  // measure 62
0110
0000
1001
0010
,  // measure 63
0100
1000
1001
0001
,  // measure 64
0001
0000
0010
0000
1000
0000
0000
0010
0000
1000
0000
0010
0000
1000
0000
0000
,  // measure 65
1000
0000
1000
0000
1000
0000
0000
1000
0000
0100
0000
1000
0000
0100
0000
0000
,  // measure 66
0100
0000
0001
0000
0010
0000
0000
0001
0000
0010
0000
0001
0000
0010
0000
0000
,  // measure 67
1001
1001
0000
0000
,  // measure 68
0110
0000
0000
1001
,  // measure 69
0000
1000
0010
0001
,  // measure 70
1000
0010
0000
0001
0000
0010
0000
0002
,  // measure 71
0000
0003
1001
0000
0001
0010
0001
0000
,  // measure 72
1000
0001
0000
0010
0000
0001
0000
0020
,  // measure 73
0000
0030
0001
0000
1001
0000
1000
0000
,  // measure 74
0000
0000
0000
0110
0000
0000
0000
0000
0000
1001
0000
0010
,  // measure 75
0000
0100
0000
2001
0000
0000
3000
0000
0000
0002
0000
0000
,  // measure 76
0003
0000
1001
0000
0001
0100
0001
1000
,  // measure 77
0000
1001
0000
1000
,  // measure 78
0100
0010
1001
1001
,  // measure 79
0100
0000
0001
0010
0000
2002
0000
0000
,  // measure 80
0000
0000
0000
3003
;

//---------------dance-single - ----------------
#NOTEDATA:;
#CHARTNAME:;
#STEPSTYPE:dance-single;
#DESCRIPTION:;
#CHARTSTYLE:;
#DIFFICULTY:Beginner;
#METER:4;
#RADARVALUES:0.208531,0.370280,0.443266,0.015285,0.000000,191.000000,133.000000,58.000000,2.000000,0.000000,0.000000,0.000000,0.000000,0.000000,0.208531,0.370280,0.443266,0.015285,0.000000,191.000000,133.000000,58.000000,2.000000,0.000000,0.000000,0.000000,0.000000,0.000000;
#CREDIT:;
#NOTES:
0000
0000
0000
0000
,
0000
0000
0000
0000
,
0000
0000
0001
0000
,
0000
0000
1000
0000
,
1001
0000
0001
0000
,
0001
0000
1000
0000
,
1000
0000
0001
0000
,
0001
0000
0010
0000
,
0100
0000
0010
0000
,
0010
0000
0100
0000
,
0100
0000
1000
0000
,
0001
0000
1001
0000
,
1001
0000
1001
0000
,
1001
0000
1001
0110
,
0110
0000
0000
0000
,
0110
0000
0000
0000
,
0110
0000
0000
0000
,
0110
0000
0110
0000
,
1001
0000
0000
0000
,
1000
0000
0000
0000
,
1001
0000
0000
0000
,
0001
0000
0000
0000
,
1001
0000
1000
0000
,
1000
0000
0000
0000
,
1001
0000
0010
0000
,
0010
0000
0000
0000
,
1001
0000
0001
0000
,
0001
0000
0000
0000
,
1001
0000
0000
0000
,
0100
0000
1001
0000
,
0010
0000
0010
0000
,
0010
0000
1001
0000
,
0100
0000
0100
0000
,
0100
0000
1001
0000
,
0001
0000
1000
0000
,
0001
0000
1001
0000
,
0110
0000
1001
0000
,
0110
0000
1000
0000
,
0000
0000
0100
0000
,
0000
0000
0001
0000
,
0000
0000
0010
0000
,
0000
0000
1000
0000
,
0000
0000
0100
0000
,
0000
0000
0001
0000
,
0000
0000
0010
0000
,
0000
0000
1001
0000
,
0110
0000
0010
0000
,
0100
0000
1001
0000
,
0010
0000
1000
0000
,
0100
0000
1001
0000
,
0010
0000
0001
0000
,
0100
0000
1001
0000
,
1000
0000
0010
0000
,
0100
0000
1001
0000
,
0110
0000
1001
0000
,
0110
0000
1001
0000
,
1000
0000
0010
0000
,
1000
0000
1001
0000
,
0001
0000
0100
0000
,
0001
0000
0110
0000
,
1001
0000
0110
0000
,
1001
0000
1001
0000
,
0110
0000
1001
0000
,
0110
0000
1001
1000
,
1000
0000
0001
0000
,
0100
0000
0010
0000
,
0010
0000
0100
0000
,
1001
0000
0000
0000
,
0000
0000
0000
0000
,
0000
0001
0000
1000
,
0000
0001
0000
1000
,
0000
1001
0000
1000
,
0000
0001
0000
1000
,
0000
1001
0000
0001
,
0000
0110
0000
0100
,
0000
1001
0000
1001
,
0000
1001
0000
1001
,
0000
1001
0000
0000
,
0000
0000
1001
1001
,
0000
0000
0110
0000
0000
2002
0000
0000
,
0000
0000
0000
3003
;
