#TITLE:BLACK ROSES;
#SUBTITLE:;
#ARTIST:Mutsuhiko Izumi;
#TITLETRANSLIT:;
#SUBTITLETRANSLIT:;
#ARTISTTRANSLIT:;
#CREDIT:;
#BANNER:BLACK ROSES BN.png;
#BACKGROUND:BLACK ROSES BG.png;
#LYRICSPATH:;
#CDTITLE:CDTITLE.png;
#MUSIC:BLACK ROSES.ogg;
#OFFSET:0.080;
#SAMPLESTART:89.540;
#SAMPLELENGTH:15.000;
#SELECTABLE:YES;
#BPMS:0.000=200.000;
#STOPS:;
#BGCHANGES:0.313=BLACK ROSES.avi=1.000=1=1=0,
99999=-nosongbg-=1.000=0=0=0 // don't automatically add -songbackground-
;

//---------------dance-single - ----------------
#NOTES:
     dance-single:
     :
     Hard:
     17:
     1.000,1.000,0.119,0.144,0.657:
0000
0000
0000
0000
,
0000
0000
0000
0000
,
0000
0000
0000
0000
,
0000
0000
0000
0000
,
0000
0000
0000
0000
,
1000
0010
1000
0001
1000
0001
0010
0100
,
1000
0100
0010
0001
0100
0001
0100
0010
,
0100
0001
0100
0010
1000
0100
0010
0001
,
1000
0010
0100
0001
0100
0010
0001
0100
,
0001
0110
1001
1010
0110
0011
1010
0110
,
0101
0102
2000
3003
,
0010
1000
0010
0100
0001
0010
0100
1000
,
0100
0010
0100
0001
0100
0001
0010
0100
,
1000
0100
0010
0001
0100
0010
0001
0100
,
0010
0001
0010
0100
1000
0100
0010
0001
,
0100
0010
0100
0010
0100
0010
1000
0010
,
0100
0001
0010
0100
0001
0100
0010
0001
,
1000
1001
0000
0001
1001
1000
0001
0010
,
0100
0000
0010
0100
0010
0000
1000
0100
,
0010
0001
0010
0100
0001
0010
0100
1000
,
0100
0010
0001
1000
0010
0100
0010
0001
,
0010
0100
1000
0010
0100
0001
0100
0010
,
1000
0001
0100
0010
0100
0001
0100
0001
,
1000
0010
1000
0010
1000
0000
0100
0001
0100
0001
0100
0000
0010
0000
0100
0000
,
0001
1000
0001
1000
0001
0000
1000
0010
1000
0010
1000
0000
0100
0000
0001
0000
,
1000
0010
1000
0010
1000
0100
1000
0100
1000
0001
1000
0001
1000
0010
1000
0010
,
1000
0000
0010
0000
1000
0000
0001
0000
1000
0000
0000
0000
0001
0000
0010
0100
,
1000
0010
1000
0010
0100
0001
0010
0100
,
1000
0010
1000
0001
0100
0001
0100
0001
,
1000
0010
1000
0010
1000
0000
0100
0000
0010
0100
0010
0100
0010
0000
0001
0000
,
1000
0001
1000
0001
1000
0000
0001
0000
0100
0000
0010
0000
0001
0000
0100
0000
,
0010
0100
0010
1000
0100
0001
0100
0010
,
0001
0100
0010
0100
0010
1000
0100
0010
,
0001
0100
0001
0100
0001
0000
0010
0000
1000
0010
1000
0010
1000
0000
0100
0000
,
0010
0001
0010
0001
0010
0000
0100
0000
0010
0100
0010
0100
0010
0000
0100
0000
,
0001
0100
0010
1000
0010
0100
0001
0100
,
1000
0010
1000
0000
0010
0000
0100
0010
0100
0000
0001
0000
1000
0001
1000
0000
,
0001
0100
0010
1000
0100
0010
0001
0010
,
0100
0010
0100
0000
1000
0000
0001
0100
0001
0000
0010
0000
1000
0010
1000
0000
,
0100
0001
1000
0010
0100
0001
1000
0010
,
1000
0010
1000
0000
0100
0000
0001
0100
0001
0000
0010
0000
1000
0010
1000
0000
,
0100
0010
1000
0001
0100
0010
0001
1000
,
0010
0100
0010
0000
1000
0001
1000
0000
0001
0100
0001
0000
0000
0000
1000
0000
,
0010
0001
0010
1000
0001
0010
0100
0001
,
0010
0100
1000
0001
0100
0010
1000
0010
,
0001
0100
0010
0001
1000
0100
0010
0001
,
2000
0000
0100
0000
0001
0000
3010
0100
,
0001
1000
0010
0100
0001
0010
1000
0100
,
0010
1000
0001
0100
0010
0100
0001
0010
,
1000
0100
0010
1000
0001
0100
0010
0001
,
0010
0100
0010
0000
1000
0001
1000
0000
0100
0010
0100
0000
0100
0001
0100
0000
,
0001
1000
0001
1000
0001
1000
0001
1000
0001
0000
0100
0000
0010
0000
0100
0000
,
0001
0000
1000
0000
0100
0000
0001
0000
1000
0001
1000
0001
1000
0001
1000
0001
,
1000
0000
0100
0000
0010
0000
0100
0000
0001
0000
0100
0001
0100
0001
0100
0001
,
0100
0000
0001
0000
0010
0000
0100
0000
0010
1000
0010
1000
0010
1000
0010
0000
,
0010
1000
0001
0000
0100
0010
0001
0000
1000
0001
1000
0000
0010
0100
0010
0000
,
0001
0100
0001
0000
1000
0010
1000
0000
0100
0010
0100
0000
0001
0100
0001
0000
,
1000
0100
0010
0001
0010
0100
1000
0010
,
2010
0001
0002
3003
,
2000
0000
0000
0000
0000
3001
0010
0100
,
2000
0000
0000
0001
3002
0000
0000
0100
,
0203
0000
0000
0000
0000
0301
1000
0010
,
0200
0000
0000
0001
0302
0000
0000
0000
,
2003
0000
0000
3020
0000
0000
0230
0000
,
0302
0000
0000
2003
0000
0000
3001
0000
,
1000
0010
1000
0010
1000
0100
1000
0100
1000
0001
1000
0001
1000
0100
1000
0100
,
1000
0010
1000
0010
1000
0100
0010
0001
,
1000
0010
1000
0000
0100
0010
0100
0000
0010
0001
0010
0000
1000
0100
0010
0000
,
0001
0010
0100
0000
0010
0001
0010
0000
1000
0010
1000
0000
0100
0010
0100
0000
,
0010
0001
0010
0000
1000
0010
1000
0000
0100
0010
0100
0000
0001
0100
0001
0000
,
1000
0010
1000
0000
0100
0010
0100
0000
0010
0001
0010
0000
1000
0100
0010
0000
,
0001
0010
0001
0010
0001
0000
1000
0010
1000
0010
1000
0000
0001
0000
0100
0000
,
0001
0100
0001
0100
0001
0000
1000
0010
1000
0010
1000
0000
0100
0000
0010
0000
,
1000
0010
1000
0010
1000
0001
1000
0001
1000
0100
1000
0100
1000
0001
1000
0001
,
1000
0000
0000
0000
0010
0000
1010
0000
0000
0000
0000
0000
0000
0000
1000
0100
,
0010
0100
0001
0100
0010
1000
0100
0010
,
0100
0010
0100
0010
0100
0000
0001
0000
1000
0000
0001
0000
0010
0000
0100
0000
,
1000
0010
1000
0010
1000
0000
0100
0001
0100
0001
0100
0000
0001
0000
1000
0001
,
1000
0001
1000
0000
0001
0000
0100
0000
0010
0000
0001
0000
1000
0010
1000
0010
,
1000
0100
0010
0001
0100
0010
1000
0001
,
1000
0010
1000
0010
1000
0000
0100
0000
0010
0000
0100
0000
0001
0000
1000
0001
,
1000
0001
1000
0000
0010
0000
0100
0010
0100
0010
0100
0000
0001
0000
1000
0100
,
1000
0100
1000
0000
0010
0000
0001
0010
0001
0010
0001
0000
1000
0000
0001
1000
,
0001
1000
0001
0000
0100
0000
0001
0000
0100
0000
0010
0000
0100
0000
0010
0000
,
1000
0100
0010
0000
0100
0000
0001
0010
0100
0000
0001
0000
1000
0100
0010
0000
,
0001
1000
0010
0100
0010
0001
0100
0001
,
1000
0010
1000
0000
0010
0000
0100
0010
0100
0000
0010
0000
0001
0100
0001
0000
,
1000
0010
0100
0010
0001
1000
0001
0100
,
0010
1000
0010
0000
0001
0000
0100
0010
0001
0000
0010
0000
1000
0100
0010
0000
,
0001
0100
0001
0100
1000
0001
0100
0010
,
1000
0010
1000
0000
0010
0000
0100
0010
0001
0000
0010
0000
0100
1000
0100
0000
,
0001
0100
0001
0100
0001
0100
0001
0100
0001
0000
1000
0010
1000
0010
1000
0010
,
2000
0000
0000
0000
,
3010
0100
0010
0100
0010
0100
0010
0100
0010
0000
0010
0000
0100
0000
0010
0000
,
0001
0000
0001
1001
0000
0000
0000
0000
;

//---------------dance-single - ----------------
#NOTES:
     dance-single:
     :
     Beginner:
     4:
     0.326,0.400,0.085,0.034,0.000:
0000
0000
0000
0000
,
0000
0000
0000
0000
,
0000
0000
0000
0000
,
0000
0000
0000
0000
,
0000
0000
0000
0000
,
0010
0010
0010
0000
,
1000
1000
1000
0000
,
0001
0001
0001
0000
,
0100
0100
0100
0000
,
0000
0000
0000
0000
,
0000
0000
0000
0000
,
1000
1000
1000
0000
,
0001
0001
0001
0000
,
0100
0100
0100
0000
,
0010
0010
0010
0000
,
1000
1000
1000
0000
,
0001
0001
0001
0000
,
0100
0100
0100
0000
,
0010
0010
0010
0000
,
1000
1000
1000
0000
,
0001
0001
0001
0000
,
0100
0100
0100
0000
,
0010
0010
0010
0000
,
1000
1000
1000
0000
,
0001
0001
0001
0000
,
0100
0100
0100
0000
,
0010
0010
0010
0000
,
1000
1000
1000
0000
,
1001
0000
0000
0000
,
0001
0001
0001
0000
,
1001
0000
0000
0000
,
1000
1000
1000
0000
,
1001
0000
0000
0000
,
0001
0001
0001
0000
,
1001
0000
0000
0000
,
1000
1000
1000
1000
,
0001
0001
0001
0001
,
0100
0100
0100
0100
,
0010
0010
0010
0010
,
1000
1000
1000
1000
,
0001
0001
0001
0001
,
0100
0100
0100
0100
,
0010
0010
0010
0010
,
0001
1000
0001
0000
,
1000
0010
1000
0000
,
0001
0100
0001
0000
,
0100
0010
0100
0000
,
0001
1000
0001
0000
,
0010
1000
0010
0000
,
0001
0100
0001
0000
,
1000
0010
1000
0000
,
1000
1000
1000
0000
,
0001
0010
0100
0100
,
0100
0010
0100
0000
,
1001
0000
0010
0000
,
0100
0100
0100
0010
,
1000
1000
1000
0001
,
0010
0010
0010
0100
,
0001
1000
1001
0000
,
0002
0000
0000
0000
,
0000
0000
0000
0000
,
2003
0000
0000
0000
,
0000
0000
0000
0000
,
3020
0000
0000
0000
,
0230
0000
0000
0000
,
0301
0001
0001
0001
,
1000
0000
0001
0000
,
0100
0100
0100
0000
,
1000
1000
1000
0000
,
0001
0001
0001
0000
,
0100
0100
0100
0000
,
0010
0010
0010
0000
,
1000
1000
1000
0000
,
0001
0001
0001
0000
,
1000
1000
1000
0000
,
0001
0001
0001
0000
,
1000
1000
1000
0000
,
0010
0010
0010
0000
,
0100
0100
0100
0000
,
0001
0001
0001
0000
,
1000
1000
1000
0000
,
0010
0010
0010
0000
,
0100
0100
0100
0000
,
0001
0001
0001
0001
,
1000
1000
1000
1000
,
0010
0010
0010
0010
,
0100
0100
0100
0100
,
0001
0001
0001
0001
,
0010
0010
0010
0010
,
1000
1000
1000
1000
,
0001
0001
0001
0001
,
1001
0000
1001
0000
,
1001
0000
0000
0000
,
0000
0000
0000
1000
,
0001
0000
0000
1001
0000
0000
0000
0000
;

//---------------dance-single - ----------------
#NOTES:
     dance-single:
     :
     Easy:
     8:
     0.534,0.560,0.373,0.068,0.000: // measure 1
0000
0000
0000
0000
,  // measure 2
0000
0000
0000
0000
,  // measure 3
0000
0000
0000
0000
,  // measure 4
0000
0000
0000
0000
,  // measure 5
0000
0000
0000
0000
,  // measure 6
1000
0000
0010
1000
0010
0000
0100
0000
,  // measure 7
0001
0000
0100
0001
0100
0000
0010
0000
,  // measure 8
0100
0000
0010
1000
0010
0000
0100
0000
,  // measure 9
0001
1000
1001
0000
,  // measure 10
0000
0001
0010
0100
1000
0000
0001
0000
,  // measure 11
1001
0110
1001
0000
,  // measure 12
1000
0010
1000
0000
0100
0000
0001
0000
,  // measure 13
1000
0010
1000
0000
0100
0000
0001
0000
,  // measure 14
0100
0010
0100
0000
1000
0000
0010
0000
,  // measure 15
0010
0100
0010
0000
1000
0000
0001
0000
,  // measure 16
0100
0001
0100
0000
0010
0000
1000
0000
,  // measure 17
0001
0100
0001
0000
0010
0000
0100
0000
,  // measure 18
0010
0100
0010
0000
1000
0000
0001
0000
,  // measure 19
1000
0001
1000
0000
0010
0000
1000
0000
,  // measure 20
1000
0001
1000
0000
0100
0010
0001
0010
,  // measure 21
0100
0010
1000
0010
,  // measure 22
0100
0000
0001
0000
0010
0100
0010
0001
,  // measure 23
0010
0100
0010
1000
,  // measure 24
0001
1001
1000
1010
,  // measure 25
0010
0110
0010
0011
,  // measure 26
0001
1000
0001
0000
0100
0010
0100
0000
,  // measure 27
0110
1001
0110
0000
,  // measure 28
1000
0010
1000
0000
0100
0000
0001
0000
,  // measure 29
0100
0010
0100
0000
0001
0000
0100
0000
,  // measure 30
1000
0010
1000
0000
0100
0000
0010
0000
,  // measure 31
0100
0010
0100
0000
0001
0000
0100
0000
,  // measure 32
1000
0010
1000
0000
0100
0000
0001
0000
,  // measure 33
0100
0010
0100
0000
0001
0000
0100
0000
,  // measure 34
0001
0100
0001
0000
1000
0000
0010
0000
,  // measure 35
0100
0010
0100
0000
0001
0000
0100
0000
,  // measure 36
0010
0100
0001
1000
,  // measure 37
1001
0000
0000
1010
0000
0000
1100
0000
,  // measure 38
1000
0010
0100
0001
,  // measure 39
0101
0000
0000
0110
0000
0000
1001
0000
,  // measure 40
0001
0100
0010
1000
,  // measure 41
1010
0000
0000
0110
0000
0000
0101
0000
,  // measure 42
0001
0100
0010
1000
,  // measure 43
1001
1001
0110
0000
,  // measure 44
1000
0100
0010
0000
0001
0000
0100
0000
,  // measure 45
0001
0010
0100
0000
1000
0000
0010
0000
,  // measure 46
0100
0010
0001
0000
1000
0000
0010
0000
,  // measure 47
0100
0010
0001
0000
0001
0000
0100
0000
,  // measure 48
0010
0100
1000
0000
0100
0000
1000
0000
,  // measure 49
0100
0010
0001
0000
0100
0000
0001
0000
,  // measure 50
1000
0100
0010
0000
0001
0000
0100
0000
,  // measure 51
0010
0100
1000
0000
1001
0000
1001
0000
,  // measure 52
2001
0001
0001
3001
,  // measure 53
0002
0000
0000
0003
1000
0000
0010
0000
,  // measure 54
2010
0010
0010
3010
,  // measure 55
0010
0001
0100
0001
,  // measure 56
0100
0010
0100
0000
1000
0001
1000
0000
,  // measure 57
0100
0001
0100
0000
0010
1000
0010
0000
,  // measure 58
0100
0001
0010
0100
,  // measure 59
1000
0001
1001
0000
,  // measure 60
2000
0000
0000
0010
,  // measure 61
3020
0000
0000
0000
,  // measure 62
0032
0000
0000
1000
,  // measure 63
2003
0000
0000
0000
,  // measure 64
3002
0000
0000
0100
0000
0000
1000
0000
,  // measure 65
0010
0000
0000
0100
0000
0000
1003
0000
,  // measure 66
1000
0001
1000
0000
0100
0000
0010
0000
,  // measure 67
0001
1001
1000
0010
,  // measure 68
1000
0010
1000
0000
0100
0000
0010
0000
,  // measure 69
0001
0100
0001
0000
0010
0000
1000
0000
,  // measure 70
0100
0010
0100
0000
0001
0000
0100
0000
,  // measure 71
0001
0100
0001
0000
1000
0000
0010
0000
,  // measure 72
0100
0010
0100
0000
0001
0000
0100
0000
,  // measure 73
0001
1000
0001
0000
0100
0000
0001
0000
,  // measure 74
0100
0010
0100
0000
0010
0000
1000
0000
,  // measure 75
1000
0001
1000
0001
1000
0000
0001
0000
,  // measure 76
0100
0001
0100
0000
0010
0000
1000
0000
,  // measure 77
0100
0010
0100
0000
0001
0000
0100
0000
,  // measure 78
0010
1000
0010
0000
0100
0000
0001
0000
,  // measure 79
0100
0001
0100
0000
0001
0000
1000
0000
,  // measure 80
0010
1000
0010
0000
0100
0000
0010
0000
,  // measure 81
0001
0100
0001
0000
0100
0000
1000
0000
,  // measure 82
0010
0100
0010
0000
0001
0000
0100
0000
,  // measure 83
0001
0100
0001
0000
1000
0000
0010
0000
,  // measure 84
0100
0001
0100
1000
,  // measure 85
1001
0000
0000
0110
0000
0000
0101
0000
,  // measure 86
0001
0100
0010
1000
,  // measure 87
1001
0000
0000
1010
0000
0000
0110
0000
,  // measure 88
0010
1000
0001
0100
,  // measure 89
0101
0000
0000
0110
0000
0000
1010
0000
,  // measure 90
0010
1000
0001
0100
,  // measure 91
0101
0000
0000
0110
0000
0000
1001
0000
,  // measure 92
1000
1001
0010
0001
,  // measure 93
1001
0000
0000
0000
,  // measure 94
0100
0000
0010
0000
0100
0010
0100
0010
,  // measure 95
0100
0000
0000
0110
0000
0000
0000
0000
;

//---------------dance-single - Copied from----------------
#NOTES:
     dance-single:
     Copied from:
     Medium:
     14:
     0.728,0.760,0.237,0.525,0.017:
0000
0000
0000
0000
,
0000
0000
0000
0000
,
0000
0000
0000
0000
,
0000
0000
0000
0000
,
0000
0000
0000
0000
,
1000
0010
1000
0010
1000
0000
1010
0000
,
0001
0010
0100
0010
0001
0000
0101
0000
,
0010
0100
0010
0100
0010
0000
0110
0000
,
0100
0010
0100
0010
0200
0000
0000
0000
,
0301
0010
0100
1000
0100
0010
0001
0010
,
0200
0302
2000
3003
,
2000
0000
0000
0000
0000
3100
0010
0001
,
0020
0000
0000
0100
0230
0000
0000
0000
,
0302
0000
0000
0000
0000
0013
0100
1000
,
0200
0000
0000
0001
0302
0000
0000
0000
,
2003
0000
0000
3020
0000
0000
0032
0000
,
0203
0000
0000
0302
0000
0000
2003
0000
,
3010
0100
0000
0100
0010
1000
0100
0010
,
0001
0000
1001
0000
0110
1000
0100
0010
,
0002
0000
0100
0000
0103
0010
0100
0001
,
0200
0000
1000
0000
1000
0000
1300
0001
,
0200
0000
0001
0000
0301
0010
0100
0010
,
0002
1000
1000
1003
,
1000
0001
1000
0001
1000
0000
1001
0000
,
0001
0100
0001
0100
0001
0000
0101
0000
,
0100
0010
0001
0010
0100
1000
0100
0010
,
0110
0000
0100
0010
0000
0000
0000
1000
,
0010
0100
0001
0100
0010
1000
0001
0100
,
0020
0000
1000
0000
1030
0100
0010
0001
,
0200
0001
0320
1000
,
0230
0000
0001
0000
0001
0000
0301
0010
,
0100
0001
0100
1000
0100
0010
0001
0100
,
0002
0000
1000
0000
1003
0010
1000
0010
,
2000
0001
3020
0100
,
0032
1000
2003
0010
,
3010
0010
0100
0001
1000
0000
1001
0000
,
0100
0001
0100
0010
0100
0010
0001
0100
,
0001
0010
0001
0100
0010
0000
1010
0000
,
0001
0100
0001
0010
0100
1000
0010
1000
,
0100
0010
0100
0001
0010
0000
1010
0000
,
0010
0001
0100
0001
0010
0100
1000
0100
,
0010
0001
0100
0001
0100
0000
0101
0000
,
1001
0000
0011
0000
1010
0000
1000
0010
,
1000
0100
0010
0001
0100
0000
0010
0000
,
0001
1000
0001
0100
0010
0000
0001
0000
,
1000
0010
1000
0001
0100
0000
0010
0000
,
1000
0001
0100
0010
0100
0000
0001
0000
,
0100
0010
0100
0001
0100
0000
0001
0000
,
0100
0010
1000
0010
0100
0000
0001
0000
,
1000
0010
1000
0010
1000
0001
1000
0001
,
1000
0000
0000
0000
1000
0001
1000
0000
1001
0000
0000
0000
1010
0000
0000
0000
,
0210
0001
1000
0302
,
0100
0103
0101
1010
,
0102
0100
1000
0023
,
0100
0130
0110
0101
,
1000
0010
1000
0010
1000
0001
1000
0001
,
1000
0010
1000
0010
1000
0010
0001
0010
,
0100
1000
0100
0010
0001
0010
0100
0001
,
0200
0302
2000
3003
,
2000
0000
0000
0000
0000
3100
0010
0001
,
0020
0000
0000
0100
0230
0000
0000
0000
,
0302
0000
0000
0000
0000
0013
0100
1000
,
0200
0000
0000
0001
0302
0000
0000
0000
,
2003
0000
0000
3020
0000
0000
0230
0000
,
0302
0000
0000
2003
0000
0000
3020
0000
,
0130
0010
0000
0010
0100
1000
0100
0010
,
0001
0000
0001
0000
0101
0001
0100
0001
,
0200
0000
0010
0000
0310
0001
0010
0001
,
0020
0000
1000
0000
1030
0001
1000
0001
,
2000
0000
0001
0000
3001
0100
0001
0100
,
0002
0000
1000
0000
1003
0010
1000
0010
,
1000
0010
1000
0010
0001
0010
0001
0010
,
0100
1000
0100
0010
0001
0010
0100
0001
,
0100
0001
0100
0000
0010
0000
1000
0000
0100
0010
0100
0000
0010
0000
0100
0000
,
0001
0010
0100
1000
0000
0000
1000
0010
,
0100
0001
0100
0010
1000
0001
0010
0100
,
0002
0000
1000
0000
1003
0100
0010
0001
,
0200
0010
0302
0100
,
2003
0000
0010
0000
3010
0000
1000
0010
,
0100
0001
0010
0100
0010
1000
0001
0100
,
0020
0000
1000
0000
1030
0100
0001
0100
,
0002
1000
0203
0010
,
0302
0010
0203
0010
,
0310
0100
0001
0100
0001
0000
0101
0000
,
1000
0010
1000
0010
1000
0010
1000
0100
,
0010
0100
0010
1000
0100
0000
0101
0000
,
0001
0100
0001
0100
0010
0100
0010
0100
,
0001
0010
0001
0100
0001
0000
0101
0000
,
0010
0100
0010
1000
0010
0100
0010
0000
,
0100
0001
0100
0010
0001
0100
0010
0001
,
0100
0010
1000
0010
0100
0010
0100
0000
,
0100
0010
0100
0000
0010
0000
0001
0000
0100
0000
0001
0000
0001
0000
0010
0000
,
0200
0000
0000
0000
,
0010
0000
0010
0000
0310
0100
0001
0100
,
0001
0000
0000
1001
0000
0000
0000
0000
;
