#TITLE:BEcause;
#SUBTITLE:;
#ARTIST:Dreamcatcher;
#TITLETRANSLIT:;
#SUBTITLETRANSLIT:;
#ARTISTTRANSLIT:;
#GENRE:;
#CREDIT:;
#BANNER:;
#BACKGROUND:;
#LYRICSPATH:;
#CDTITLE:;
#MUSIC:BEcause.ogg;
#OFFSET:-1.583940;
#SAMPLESTART:45.340000;
#SAMPLELENGTH:13.913000;
#LASTBEATHINT:224.991501;
#SELECTABLE:YES;
#BPMS:0.000000=84.995003
,16.000000=169.990005
,48.000000=169.970001
,80.000000=84.995003
,88.000000=169.990005
,100.000000=42.498001
,101.000000=84.995003
,117.000000=169.990005
,148.000000=169.001999
,149.000000=84.995003
,181.000000=42.498001
,188.500000=42.880001
,189.000000=84.995003
,221.000000=42.500000
,221.500000=40.798000
,221.875000=42.500000
,222.125000=40.798000
,222.375000=42.500000
,222.750000=36.428001
,222.875000=35.174000
,223.000000=34.000000
,223.250000=36.428001
,223.500000=27.569000
,223.625000=24.285999
,223.750000=21.500000
;
#STOPS:
;
#BGCHANGES:;
#KEYSOUNDS:;
#ATTACKS:;

//---------------dance-single - ----------------
#NOTES:
     dance-single:
     :
     Medium:
     11:
     0.407064,0.604113,0.126477,0.282713,0.212035,383.000000,366.000000,17.000000,38.000000,0.000000,0.000000,0.407064,0.604113,0.126477,0.282713,0.212035,383.000000,366.000000,17.000000,38.000000,0.000000,0.000000:
// measure 0
0000
0000
0000
0000
,  // measure 1
0000
0000
0000
0000
,  // measure 2
0000
0000
0000
0000
,  // measure 3
0000
0000
0000
0000
0000
0000
0000
0101
,  // measure 4
1000
0000
1100
0000
0100
1000
0001
0100
,  // measure 5
0000
0100
0001
0000
0000
1000
0100
0000
,  // measure 6
0010
0000
0110
0000
0100
1000
0001
0100
,  // measure 7
0000
0010
1000
0100
0000
0100
0010
0000
,  // measure 8
0001
0000
0110
0000
1000
0001
0100
0010
,  // measure 9
0000
0010
1000
0001
0000
0010
0100
0000
,  // measure 10
0010
0000
0011
0000
1000
0001
0100
0010
,  // measure 11
0000
1000
0010
0100
0000
0010
1000
0000
,  // measure 12
0001
0000
0100
0001
0010
0000
0100
0020
,  // measure 13
0000
0031
1000
0000
0001
0100
0001
0000
,  // measure 14
1000
0010
0001
0000
0010
0100
0010
1000
,  // measure 15
0000
0001
0010
0100
1000
0001
1000
0000
,  // measure 16
0001
0000
0100
0001
0010
0000
0100
0020
,  // measure 17
0000
0031
1000
0000
0001
0100
0010
0000
,  // measure 18
1000
0100
0001
0000
0100
0010
0100
1000
,  // measure 19
0000
0001
0100
0010
1000
0001
1000
0000
,  // measure 20
0001
0000
0000
1000
0001
0000
0000
0100
0000
0010
1000
0000
0001
1000
0000
0100
,  // measure 21
1000
0100
0000
1000
0100
0000
0010
0001
0000
0010
0001
0000
1000
0000
0001
0001
,  // measure 22
0100
0010
0100
0000
0010
1000
0010
0000
,  // measure 23
1000
0100
0010
0001
1000
0001
1000
0000
,  // measure 24
0001
0100
0010
1000
0100
0010
0001
0000
,  // measure 25
0000
0000
0000
0000
1002
0000
0103
0000
0010
1000
0000
0100
0000
0100
0010
0000
,  // measure 26
0001
0000
1000
0000
0200
0000
0000
0000
0310
0000
0001
2000
0000
0000
3001
0000
,  // measure 27
0001
0100
0010
0000
0110
0000
0100
0001
1000
0000
0100
0000
0020
0000
0000
0000
,  // measure 28
0031
0100
0202
0303
0220
0330
1001
1000
,  // measure 29
0001
0010
0100
0000
1002
0000
0000
0000
0013
0000
0000
0000
0001
0000
0100
0000
,  // measure 30
0010
2000
0000
0100
3100
0000
0010
0001
,  // measure 31
0100
0001
0020
0000
0100
0000
0031
0100
,  // measure 32
0010
2000
0100
0000
0000
0000
3001
0010
,  // measure 33
0100
0000
2001
0000
3010
0000
1000
0100
,  // measure 34
0010
0002
0000
0100
0103
0000
0010
1000
,  // measure 35
0100
1000
0020
0000
0100
0000
1030
0100
,  // measure 36
0010
0002
0000
0100
0103
0000
0011
0010
,  // measure 37
0000
0000
0100
1000
0010
1000
0100
1000
,  // measure 38
0100
1000
0001
0010
1000
0010
0001
1000
,  // measure 39
0001
0000
0010
0001
0010
0001
1000
0010
,  // measure 40
0100
0010
1000
0100
0010
0001
1000
0001
,  // measure 41
1000
0010
0001
1000
0100
0001
0010
0000
,  // measure 42
0100
1000
0010
0001
0010
0100
0002
0000
,  // measure 43
1003
0100
0020
0000
0031
0100
0020
0000
,  // measure 44
2030
3200
0000
0000
,  // measure 45
0000
0000
0310
0000
0001
1000
0100
1000
0001
1000
0010
1000
0000
0001
0100
0001
,  // measure 46
1000
0001
0010
0001
0000
0100
0010
1000
0001
1000
0100
1000
0001
0010
0100
0010
,  // measure 47
0002
0000
0103
0000
0001
0000
1000
0000
0100
0010
0001
0100
0000
0010
0000
1000
,  // measure 48
0000
0000
0001
0010
0100
0000
1000
0000
0001
0100
0010
2000
0000
0001
0000
3002
,  // measure 49
0000
0000
0013
0000
0001
0000
1000
0000
0010
0100
0001
0010
0000
0100
0000
1000
,  // measure 50
0000
0000
0001
0100
0010
0000
1000
0000
0001
0010
0100
1000
0010
0000
0000
0000
,  // measure 51
0100
0001
1000
0000
1001
0000
0000
0001
0020
0000
0230
0000
0000
0000
1300
0000
,  // measure 52
0001
0100
0010
0000
2000
0000
0000
0000
3010
0000
0100
0002
0000
0000
0013
0100
,  // measure 53
1000
0001
0100
0000
0110
0000
0001
0010
0001
0000
0100
0000
0020
0000
1030
0000
,  // measure 54
0001
0000
0010
0100
2000
0000
3010
0000
0002
0000
0013
0000
0220
0000
0330
0000
,  // measure 55
0001
0000
0010
0000
0100
0000
0000
0000
2100
0000
0000
0000
0000
0000
0000
3020
0000
0000
0000
0000
0000
0000
0000
0000
0230
0000
0000
0000
0000
0000
0000
0000
,  // measure 56
0301
0000
0000
0000
;

//---------------dance-single - ----------------
#NOTES:
     dance-single:
     :
     Hard:
     13:
     0.537792,1.083237,0.416629,0.587745,0.453829,506.000000,450.000000,56.000000,79.000000,0.000000,0.000000,0.537792,1.083237,0.416629,0.587745,0.453829,506.000000,450.000000,56.000000,79.000000,0.000000,0.000000:
// measure 0
0000
0000
0000
0000
,  // measure 1
0000
0000
0000
0000
,  // measure 2
0000
0000
0000
0000
,  // measure 3
0000
0000
0000
0000
0000
0000
0010
0010
,  // measure 4
1000
0000
0001
0010
0100
0010
0001
0000
,  // measure 5
1000
0001
0100
0010
0000
1000
0010
0000
,  // measure 6
0100
0000
1010
1000
0100
0010
1000
0010
,  // measure 7
0000
0001
0100
0010
0000
1000
0001
0010
,  // measure 8
0100
0000
0101
0001
0100
0010
0001
1000
,  // measure 9
0000
0001
0100
0010
0000
1000
0001
0010
,  // measure 10
0000
0100
0110
0010
0001
0010
1000
0010
,  // measure 11
0000
0001
1000
0000
0001
0100
0010
1000
,  // measure 12
0001
0000
0000
0101
0000
0000
0100
0000
0001
0000
0000
0000
0001
0000
0020
0000
,  // measure 13
0000
0130
0001
0000
0100
1000
0001
0000
,  // measure 14
1000
0010
0100
1000
0100
0001
0010
0200
,  // measure 15
0000
0000
1300
0000
0100
0000
0010
0001
0010
0000
0001
0000
1000
0000
0000
0000
,  // measure 16
0010
0000
0000
0110
0000
0000
0100
0000
0010
0000
0000
0000
1000
0000
0200
0000
,  // measure 17
0000
0310
1000
0000
0010
0001
1000
0000
,  // measure 18
0010
0010
1000
0001
0100
1000
0100
0010
,  // measure 19
0000
0010
1000
0100
0001
0100
1000
0000
,  // measure 20
1001
0001
0010
0110
0100
0010
0001
1000
0020
0000
0130
0000
0110
0000
1001
0000
,  // measure 21
0001
0100
0000
0001
0011
0000
0100
1000
0000
0010
0210
0000
0010
0000
0301
0100
,  // measure 22
0110
0010
1000
0100
0010
1000
0010
0002
,  // measure 23
0000
2003
0000
3020
0000
0130
0010
1000
,  // measure 24
0001
0001
0100
0100
1000
0100
0001
0000
,  // measure 25
2000
0000
0000
0000
3001
0010
0100
0000
1001
0000
0000
0000
1000
0000
0010
0000
1000
0000
0100
0000
0010
0000
0001
0000
0000
0000
0010
0000
1000
0000
0010
0000
,  // measure 26
0001
0010
0100
0000
2100
0100
0000
3010
0200
0000
0302
0010
0000
0013
0110
0000
,  // measure 27
1000
0001
0100
0000
0110
0000
0001
0010
0001
0100
1000
0001
0020
0000
1030
0000
,  // measure 28
0110
0000
0001
0010
0220
0000
0330
1000
2200
0000
3300
0001
0102
0000
1003
0000
,  // measure 29
0001
0010
0100
0000
2001
0000
0000
0000
3010
0000
0000
0000
1000
0000
0100
0000
,  // measure 30
0010
0012
0000
1003
0010
0010
0100
1000
,  // measure 31
0100
0001
0210
0000
0310
0000
1000
0100
,  // measure 32
0010
0002
0100
0000
0000
0000
1003
0010
,  // measure 33
0100
0000
1002
0000
0013
0000
0001
0010
,  // measure 34
0100
2100
0000
3001
0100
0100
0010
0001
,  // measure 35
0010
1000
0210
0000
0310
0000
1000
0100
,  // measure 36
0010
0012
0000
0100
0103
0001
1000
1000
,  // measure 37
0001
0100
0020
2030
0100
3002
0023
0000
,  // measure 38
0230
2300
0010
3002
0100
2003
3020
0000
,  // measure 39
0130
0000
0010
1000
0200
0000
0000
0000
0310
0000
0001
0000
0101
0000
0000
0000
,  // measure 40
1100
2010
3002
0023
,  // measure 41
0230
0320
0032
2003
0100
3002
0023
0000
,  // measure 42
0230
2300
0010
3002
0100
2003
3020
0000
,  // measure 43
0130
0000
0010
1000
0200
0000
0000
0000
0310
0001
0001
0100
0020
0000
0030
2000
,  // measure 44
0100
0000
0000
3001
0020
0000
0000
0000
0000
0000
0000
0000
0000
0000
0000
0000
,  // measure 45
0000
0000
0130
0000
1000
0000
0001
0000
0100
0000
0010
1000
0100
1000
0001
1000
0100
1000
0010
0000
0000
1000
0100
0010
0002
0000
0013
0001
0100
0001
1000
0001
,  // measure 46
0100
0000
0001
0000
0010
0000
0000
0000
0200
0000
0000
0000
0000
0310
0001
1000
0002
0000
0000
0000
0103
0000
0010
0000
1000
0000
0100
0000
0010
0000
0001
0000
0100
0000
0010
0000
1000
0000
0000
0000
0010
0000
1000
0000
0001
0000
0010
0000
0100
0000
0000
0000
1000
0000
0001
0000
1000
0000
0100
0000
0010
0000
0001
0000
,  // measure 47
0200
0000
0310
0000
0101
0000
1010
0000
1100
0010
0001
0110
0000
1100
0000
0101
,  // measure 48
0000
0000
0001
0100
0110
0000
1010
0000
0001
0010
0100
2000
0000
0001
0000
3020
,  // measure 49
0000
0000
0130
0000
0101
0000
1100
0000
1010
0100
0001
0011
0000
0110
0000
1100
,  // measure 50
0000
0000
0001
0100
0110
0000
1010
0000
0001
0100
0010
1000
0200
0000
0000
0000
,  // measure 51
1300
0010
0100
0000
1001
0000
0000
0001
0020
0000
0032
0100
0000
0103
1000
0100
,  // measure 52
0001
0100
0010
0000
2010
0010
0000
3100
0020
0000
0032
0100
0000
0103
0020
2030
,  // measure 53
3002
0023
0230
0300
0110
0000
1000
0010
1000
0100
0001
1000
0020
0000
0031
0000
,  // measure 54
0110
0000
0010
0001
0201
0000
0301
0010
0210
0000
1300
0010
0210
0000
0310
1000
,  // measure 55
0001
0000
0010
0000
0100
0000
0000
0000
2001
0000
3010
0000
1000
0010
0001
0120
0000
1030
0000
0001
0000
0000
0001
0010
0210
0000
1300
0000
0001
0100
0020
0000
,  // measure 56
1030
0000
0000
0000
;

//---------------dance-single - ----------------
#NOTES:
     dance-single:
     :
     Easy:
     7:
     0.226383,0.328840,0.029759,0.208315,0.000000,213.000000,209.000000,4.000000,28.000000,0.000000,0.000000,0.226383,0.328840,0.029759,0.208315,0.000000,213.000000,209.000000,4.000000,28.000000,0.000000,0.000000:
0000
0000
0000
0000
,
0000
0000
0000
0000
,
0000
0000
0000
0000
,
0000
0000
0000
0000
,
1000
0001
0000
0100
,
0001
1000
0000
0100
,
1000
0100
0010
0001
,
0100
0010
0100
0000
,
0001
1000
0000
0010
,
1000
0001
0000
0010
,
0001
0100
0010
1000
,
0010
0001
0010
0000
,
1000
0000
1000
0000
0001
0000
0000
0010
,
0000
0010
0000
0010
,
0001
0001
0100
0010
,
1000
0001
1000
0000
,
0100
0000
0100
0000
0010
0000
0000
0001
,
0000
0001
0000
1000
,
0001
0001
0100
0010
,
1000
0001
0001
0001
,
0020
0001
0230
1000
,
0310
0000
0010
0000
0001
0000
0001
0001
,
1000
1000
0001
0001
,
0100
0100
0010
0010
,
1000
0000
0100
0000
1000
0001
1000
0000
,
0000
0000
0101
0000
1000
0000
0001
0010
,
0100
0000
2000
0000
3020
0000
0130
0100
,
0001
1000
0001
0010
0100
1000
0002
0000
,
0103
0000
0020
0000
0230
0000
0310
0010
,
1000
0001
0001
0010
,
0000
0100
0000
0000
0100
0000
1000
0000
,
0001
1000
1000
0010
,
0000
0100
0000
0000
0100
0000
0001
0000
,
1000
0100
0100
0010
,
0000
0001
0000
0000
1000
0000
0001
0000
,
0100
0010
0010
1000
,
0000
0001
0000
0000
1000
0000
0100
0000
,
0000
0020
0000
0032
,
0000
2003
0000
3020
,
0000
0230
0000
0302
,
0000
0023
0000
0230
,
0000
1300
0100
0001
,
0100
1000
0001
0200
,
0310
2000
0000
3002
,
0023
0230
0000
0000
,
0000
0000
1300
0100
1000
0010
0000
0100
,
0001
0010
0000
0100
1000
0010
0100
0001
,
2000
3001
1000
1000
0010
0100
0000
0100
,
0001
0000
0001
1000
0001
0010
0000
0010
,
0100
0000
1000
0100
0010
0001
0000
0001
,
1000
0000
0001
0100
0010
1000
0100
0000
,
0010
0100
0110
0000
0002
2003
3000
0010
,
0100
0010
2000
0000
3200
0000
0310
0001
,
1000
0001
1000
0010
0100
0001
2000
0000
,
3100
0000
0020
0130
0200
0310
0110
0000
,
0001
1000
1001
0000
0000
0000
0000
0000
;
