#TITLE:BAPTIZE;
#SUBTITLE:;
#ARTIST:RIZARDI;
#TITLETRANSLIT:;
#SUBTITLETRANSLIT:;
#ARTISTTRANSLIT:;
#GENRE:Rawstyle;
#CREDIT:;
#BANNER:BAPTIZE-bn.png;
#BACKGROUND:BAPTIZE-bg.png;
#LYRICSPATH:;
#CDTITLE:cdtitle.png;
#MUSIC:BAPTIZE.ogg;
#OFFSET:-1.492000;
#SAMPLESTART:94.500000;
#SAMPLELENGTH:12.000000;
#SELECTABLE:YES;
#BPMS:0.000000=160.000000
;
#STOPS:192.000000=5.644000
;
#BGCHANGES:;
#KEYSOUNDS:;
#ATTACKS:;

//---------------dance-single - ----------------
#NOTES:
     dance-single:
     Heavy:
     Hard:
     9:
     0.549510,0.755253,0.123381,0.152411,0.297565,530.000000,513.000000,17.000000,21.000000,0.000000,0.000000,0.549510,0.755253,0.123381,0.152411,0.297565,530.000000,513.000000,17.000000,21.000000,0.000000,0.000000:
// measure 0
0000
0000
0000
0000
,  // measure 1
0000
0000
0000
0000
,  // measure 2
0000
0000
0000
0000
,  // measure 3
0000
0000
0000
0000
,  // measure 4
0000
0000
0000
0000
,  // measure 5
0000
0000
0000
0000
,  // measure 6
0000
0000
0000
0000
,  // measure 7
0000
0000
0000
0000
,  // measure 8
1000
0100
1000
0100
,  // measure 9
0010
0001
0100
0010
,  // measure 10
1000
0100
0010
0100
,  // measure 11
1000
0001
0100
0010
,  // measure 12
1000
0000
0000
0000
0100
0000
0001
0010
0001
0000
0000
0000
0100
0000
0000
0000
,  // measure 13
1000
0000
0000
0000
0001
0000
1000
0100
0010
0000
0000
0000
1000
0000
0000
0000
,  // measure 14
1000
0100
0010
0001
1000
0001
0100
0010
1000
0100
0001
0100
1000
0010
0100
0001
,  // measure 15
1000
0000
0001
0000
,  // measure 16
0100
0000
0000
0000
0000
0000
0000
0000
0000
0000
0000
0000
0100
0000
0000
0000
0000
0000
0000
0000
0000
0000
0000
0010
,  // measure 17
0000
0000
0000
0000
0000
0000
0000
0000
0000
0000
0000
0000
0000
0000
0000
0000
1000
0000
0000
0000
0000
0000
0000
0000
0000
0000
0000
0000
0000
0000
0000
0000
0000
0010
0000
0000
0000
0000
0000
0000
0000
0000
0000
0000
0000
0000
0100
0000
,  // measure 18
0000
0000
0000
0000
1000
0000
0000
0000
0000
0100
0000
0000
0000
0001
0000
0100
0000
0000
0000
1000
0000
0000
0010
0000
,  // measure 19
0000
0000
0000
0000
0000
0000
0000
0000
0100
0000
0000
0000
0000
0000
0000
0000
0000
0000
0000
0000
0000
0000
0000
0000
0010
0000
0000
0000
0000
0000
0000
0000
0000
0000
0000
0000
0000
0000
0000
0000
0001
0000
0000
0000
0000
0000
0000
0000
0000
0000
0000
0000
0000
0000
0000
0000
1000
0000
0000
0000
0000
0000
0000
0000
0000
0000
0000
0000
0000
0000
0000
0000
0000
0000
0000
0000
0000
0000
0010
0000
0000
0000
0000
0000
0000
0000
0000
0000
0000
0000
1000
0000
0000
0000
0000
0000
0000
0000
0000
0000
0000
0000
0010
0000
0000
0000
0000
0000
0000
0000
0000
0000
0000
0000
0000
0000
0000
0000
0000
0000
4000
0000
0000
0000
0000
0000
0000
0000
0000
0000
0000
0000
0000
0000
0000
0000
0000
0000
0000
0000
0000
0000
0000
0000
0000
0000
0000
0000
0000
0000
0000
0000
0000
0000
0000
0000
0000
0000
0000
0000
0000
0000
0000
0000
0000
0000
0000
0000
0000
0000
0000
0000
0000
0000
0000
0000
0000
0000
0000
0000
0000
0000
0000
0000
0000
0000
0000
0000
0000
0000
0000
0000
,  // measure 20
0000
0000
0000
0000
,  // measure 21
0000
0000
0000
3000
,  // measure 22
1000
0000
1000
0000
0200
0300
0200
0300
,  // measure 23
0001
0000
0001
0000
0020
0030
0020
0030
,  // measure 24
1000
0000
0100
0000
0020
0030
0200
0300
,  // measure 25
0001
0000
0100
0000
0020
0030
0200
0300
,  // measure 26
1000
1000
0100
0100
,  // measure 27
0010
0010
0001
0001
,  // measure 28
1000
0100
0010
0100
0001
0010
0100
0010
,  // measure 29
1000
0000
0001
0000
0100
0010
0100
0010
,  // measure 30
1001
0000
0100
0000
0000
0100
0010
0000
1001
0000
0010
0000
0000
0100
0010
0000
,  // measure 31
1001
0000
0000
0000
0100
0010
0100
0010
0200
0000
0300
0000
0002
0000
0003
0000
,  // measure 32
1000
0001
0100
0010
1000
0000
0000
0000
0100
0000
0000
0000
1000
0000
0010
0000
,  // measure 33
0001
0000
0000
0000
0010
0000
0000
0000
0100
0000
0001
0000
1000
0010
0001
0100
,  // measure 34
1000
0010
1000
1000
1000
0000
0010
0000
,  // measure 35
0100
0011
0100
1100
0001
0001
0010
0010
,  // measure 36
1000
0100
0010
0000
0001
0000
0001
0000
1000
0010
1000
0001
1000
0000
0000
0000
,  // measure 37
0100
0010
0100
0001
1000
0000
0100
0010
0001
0000
0000
1100
0000
0000
0001
0000
,  // measure 38
1000
0000
0010
0100
0001
0000
0010
0100
,  // measure 39
1000
0001
0100
0010
0100
0010
1000
0001
1100
0000
0000
0000
0011
0000
0000
0000
,  // measure 40
1000
0100
0010
0001
0100
0010
1000
0010
,  // measure 41
0001
0000
1000
0000
0100
0000
1000
0000
0010
0000
0100
0000
0010
0000
0001
1000
,  // measure 42
0010
1000
0001
0100
0010
0001
0100
1000
,  // measure 43
0010
0101
0010
1001
0100
1000
0010
0100
,  // measure 44
0001
0001
0001
1000
0010
0100
0010
0001
,  // measure 45
0100
0100
0100
0001
1000
1000
0001
0001
,  // measure 46
1000
0000
0100
0011
0000
0000
0100
0000
0010
0000
0100
1001
0000
0000
0100
0000
,  // measure 47
0010
0001
1000
0100
1000
0100
0010
0100
,  // measure 48
1001
0000
0000
0000
1000
0000
0000
0000
0000
0000
0100
0010
0100
0000
0000
0000
,  // measure 49
0000
0000
0000
0000
1000
0000
0000
0000
0000
0000
0010
0001
0010
0000
0000
0000
,  // measure 50
0000
0000
0000
0000
0100
0000
0000
0000
0000
0000
0001
0010
0001
0000
0000
0000
,  // measure 51
0000
0000
0000
0000
1000
0000
0000
0000
0000
0000
0010
0001
0100
0000
0000
0000
,  // measure 52
0000
0000
1000
0001
0100
0010
1000
0010
,  // measure 53
0100
0001
1000
0100
0010
0001
1000
0001
,  // measure 54
0100
0000
0010
0000
1000
0100
0010
0001
1000
0001
0100
0010
1000
0100
0010
0100
,  // measure 55
1000
0001
0100
0001
1000
0000
0000
0000
0000
0000
0010
0100
0001
0000
0000
0000
,  // measure 56
0000
0000
0000
0000
1001
0000
0010
0000
0000
0010
0100
0000
1001
0000
0010
0000
,  // measure 57
0000
0010
0100
0000
1000
0100
0010
0001
1000
0001
0100
0010
2000
0000
3000
0000
,  // measure 58
0002
0003
1000
0100
0010
0001
1000
0001
,  // measure 59
0100
0010
1000
0100
0010
0100
0001
0010
,  // measure 60
0001
0100
1000
0001
0010
0001
1000
0010
,  // measure 61
0100
0010
1000
0100
1000
0001
0100
0010
,  // measure 62
1000
0001
1000
0010
0100
0001
0010
0100
,  // measure 63
0001
0010
0000
0100
1000
0000
0001
0000
0100
0000
0010
0000
1000
0000
0001
0000
,  // measure 64
1000
0010
0100
0010
1000
0001
0100
0010
,  // measure 65
1000
0001
0100
0010
1000
0000
0001
0000
1000
0000
0000
0000
0010
0000
0000
0000
,  // measure 66
0100
0000
1000
1000
0001
0001
1000
0100
,  // measure 67
0001
0010
1000
0001
0100
0010
1000
0001
,  // measure 68
0100
0010
1000
0001
0010
0001
0100
0010
,  // measure 69
1000
0001
0020
0130
2000
3010
0002
0013
,  // measure 70
0200
0310
1000
0100
0010
0001
1000
0010
,  // measure 71
0001
0010
0000
0010
0100
0000
1000
0000
0001
0000
1000
0000
0010
0000
0100
0000
,  // measure 72
0001
0000
0010
0000
1000
0010
1000
0000
0000
0000
0010
0000
0001
0100
0001
0000
,  // measure 73
1000
0100
0010
0100
1001
0000
0000
0000
0000
0000
0000
0000
0000
0000
0000
0000
,  // measure 74
0000
1000
1000
0001
,  // measure 75
0001
0010
1000
0100
0010
0001
1000
0100
,  // measure 76
1000
0000
0010
0000
0100
0000
0001
0000
0010
0000
0001
0100
1000
0000
0010
0000
,  // measure 77
0100
0000
1000
0001
1000
0000
0010
0000
0100
0000
0010
0000
0001
0000
0100
0000
,  // measure 78
0010
1000
0001
0100
0010
0100
1000
1000
,  // measure 79
1000
0010
0001
0001
0001
0010
0100
0010
,  // measure 80
1000
0000
0001
0000
0100
0000
0010
0000
2000
3010
0100
0001
1000
0010
0001
0000
,  // measure 81
0010
0000
0100
0000
0002
0000
0000
0000
0000
0000
1003
0010
2000
0000
0000
0000
,  // measure 82
0000
0000
3000
0000
0020
0000
0000
0000
0000
0000
0130
0010
0200
0000
0000
0000
,  // measure 83
0000
0300
1001
0000
0000
0000
0000
0000
;
