#TITLE:BANG!;
#SUBTITLE:(lapix Garage Remix);
#ARTIST:Shoichiro Hirata feat. Sana;
#TITLETRANSLIT:;
#SUBTITLETRANSLIT:;
#ARTISTTRANSLIT:;
#GENRE:;
#CREDIT:;
#MUSIC:02 - Shoichiro Hirata Feat. Sana - BANG! (lapix Garage Remix).mp3;
#BANNER:;
#BACKGROUND:;
#CDTITLE:;
#SAMPLESTART:0.000;
#SAMPLELENGTH:0.000;
#SELECTABLE:YES;
#OFFSET:1.105;
#BPMS:0.000=145.000
,258.000=72.500
,272.000=145.000
;
#STOPS:132.000=0.207
,163.500=0.207
,195.000=0.207
,226.500=0.207
,276.000=0.207
;
#BGCHANGES:;
#FGCHANGES:;

//--------------- dance-single - about-blank ----------------
#NOTES:
     dance-single:
     about-blank:
     Challenge:
     13:
     0,0,0,0,0:
0000
0000
0000
0000
,
0000
0000
0000
0000
,
0000
0000
0000
0000
,
0000
0000
0000
0000
,
0000
0000
0000
0000
0000
0000
1000
0001
,
0201
0000
1000
0000
0301
0000
0001
1000
,
0010
0002
0000
2003
0000
0000
3100
0001
,
1000
0000
0000
1000
0000
0000
0010
0000
1000
0000
0001
0000
0101
0000
0000
0000
,
0000
0010
0001
1000
1100
0000
1000
0100
,
0020
0000
1000
0000
0031
0000
0001
1000
,
0010
0002
0000
2003
0000
0000
3100
0001
,
1000
0000
0000
0010
1000
0000
0001
0000
1000
0000
0100
0000
0001
0000
0100
0000
,
1000
0001
0010
1000
0010
0000
0001
1000
,
1020
0000
0001
0000
1030
0000
0001
0100
,
0020
0001
0000
1030
0000
0000
0001
0010
,
0100
0000
0000
0100
1000
0000
0010
0000
0100
0000
0001
0000
1001
0000
0000
0000
,
0000
1000
0100
0010
0001
0100
0110
0000
,
1002
0100
0010
0103
,
2001
0100
0010
3100
,
0012
1003
2010
3001
,
2000
3100
0002
0103
2000
3001
1001
0000
,
0210
1000
0010
1300
,
0120
0001
0100
0031
,
2001
3100
1002
0103
,
0001
1000
0001
0100
0010
1000
0010
0000
,
0100
0001
0100
0001
1000
0100
1000
0100
,
0010
0001
0010
0001
0100
0010
0100
0010
,
1000
0100
0010
0001
1000
0010
0100
0001
,
0010
0100
0001
0100
1000
0100
0010
0100
,
1000
1000
0001
1000
0010
0010
0100
0001
,
0100
0100
0001
0010
0001
0001
1000
0001
,
0100
0010
0100
0010
0100
0010
0100
0010
1000
0001
1000
0001
1000
0001
1000
0001
,
0000
1000
0001
0100
0110
1000
1001
0000
,
0002
0003
0010
0000
0100
1000
0100
0000
0010
0000
0001
0000
0100
0001
0100
0000
,
0010
0000
1000
0000
0001
1000
0001
0000
0010
0000
0100
0000
0100
0000
1000
0100
,
0000
0000
0001
0000
0100
0000
1000
0000
0100
0000
0110
0000
0000
0000
0001
0100
,
0000
0000
0110
0000
0000
0000
1000
0100
0000
0000
0110
0000
0000
0000
0010
0001
,
0000
0000
1100
0000
0000
0000
0010
1000
0000
0000
0101
0000
0000
0000
1000
0100
,
1000
0000
0010
0000
1000
0000
0001
0100
0001
0000
1000
0000
0010
0000
1000
0100
,
0000
0100
0010
0000
0001
0000
1000
0000
0100
0000
0002
0000
0000
0000
0103
0010
,
0000
0000
1001
0000
0000
0000
0010
0100
0000
0000
1001
0000
0000
0000
2000
3000
,
0010
0100
0010
0000
1000
0000
0010
0000
0001
0000
0010
0000
1000
0000
0001
0000
,
0100
0010
0100
0000
0001
0000
0100
0000
1000
0000
0100
0000
0001
1000
0000
0000
,
1000
0100
0010
0000
0001
0000
0100
0000
2020
0000
3030
0000
1000
0100
0000
0000
,
0022
0000
0033
0000
0001
0100
0000
0000
2020
0000
3030
0000
0001
0000
1000
0000
,
0001
0010
0001
0000
0200
0000
0301
0000
0020
0000
0031
0000
1000
0000
0001
0000
,
1000
0100
1000
0000
0020
0000
1030
0000
0200
0000
1300
0000
0010
0000
0100
0000
,
0001
0010
0100
0000
0002
0000
0103
0000
2000
0000
3100
0000
0010
0000
0001
0000
,
1000
0010
1000
0010
0100
0001
0100
0001
1000
0000
0000
0000
0220
0330
0001
0000
,
1000
0100
0001
0100
1000
0001
0020
1000
,
1030
0001
0200
1000
1300
0010
1000
0001
,
1000
0100
0010
0100
1000
0020
0001
0000
,
1030
0200
0001
1300
1000
0010
0100
0001
,
0100
0010
1000
0001
0200
0000
1300
0100
,
0002
0000
1003
0100
0001
1000
0010
1000
,
0010
0000
0001
0000
0010
0000
0001
0000
0010
0000
0100
0000
1000
0010
1000
0000
,
0001
0010
0001
0000
1000
0000
1001
0000
0000
0000
0002
0000
1003
0000
0010
0000
,
0100
0001
0010
0001
0100
2000
0100
3100
,
0010
2000
0010
3010
1000
0100
0010
0001
,
0100
0001
1000
0010
1000
0002
0010
0013
,
1000
0002
0100
0103
1000
0010
0100
0001
,
1000
0100
1000
0010
0200
0001
0000
0301
,
0010
1000
0010
0001
0100
0010
1000
0010
,
0001
1000
0100
0001
0010
0100
2000
0000
,
0001
0000
3001
0000
0000
0002
0023
2030
,
3000
0000
0002
0000
0203
0000
2300
0000
3000
0000
0001
0100
0001
1000
0010
0000
,
0000
0001
0010
1000
0010
0100
0001
0000
0000
0000
2000
0000
3200
0000
0302
0000
,
0003
0000
2000
0000
3020
0000
0032
0000
1003
0100
0010
0001
1001
1001
1001
1001
,
0000
0000
0001
0000
0100
0010
0100
0010
1000
0100
0010
0001
1000
0000
0010
0000
,
2000
3010
0100
0001
1000
0100
0010
0100
,
1000
0001
0100
1000
0100
0010
0100
0001
,
0010
0100
1000
0001
0100
0010
1000
0001
,
0010
1000
0010
0001
0000
1001
0001
1000
,
0100
0010
0100
1000
0010
0100
0001
0010
,
1000
0001
0100
1000
0100
0010
0001
1000
,
0100
0010
0100
0000
0001
0000
0100
0000
0010
0000
0011
0000
0000
0000
1000
0000
,
0001
0000
0100
0000
0010
0000
1000
0001
1000
0000
0100
0000
0010
0000
0001
0000
,
0100
0001
0100
0010
1000
0010
0100
0001
,
0100
1000
0100
0010
1000
0100
0010
0001
,
0010
1000
0010
0001
0100
0010
0100
0001
,
1000
0010
1000
0001
0000
1000
0100
0001
,
0100
1000
0100
0010
0001
0100
0010
1000
,
0010
0001
1000
0100
0001
0010
0100
0010
,
0000
0010
0001
0000
1000
0000
1010
0000
0001
0000
0101
0000
0000
0000
0000
0000
,
1000
0100
0010
0011
1000
1100
0000
2002
,
3003
0000
0000
0000
;
