#TITLE:As I Told U;
#SUBTITLE:;
#ARTIST:Kim Sung Jae;
#TITLETRANSLIT:;
#SUBTITLETRANSLIT:;
#ARTISTTRANSLIT:;
#GENRE:;
#CREDIT:;
#MUSIC:As I Told U.mp3;
#BANNER:bn.png;
#BACKGROUND:bg.png;
#CDTITLE:;
#SAMPLESTART:15.672;
#SAMPLELENGTH:15.310;
#SELECTABLE:YES;
#OFFSET:1.144;
#BPMS:0.000=119.530;
#STOPS:64.000=0.502;
#BGCHANGES:;
#FGCHANGES:;

//--------------- dance-single - ----------------
#NOTES:
     dance-single:
     :
     Beginner:
     1:
     0,0,0,0,0:
0000
0000
0000
0000
,
0000
0000
0000
0000
,
0000
0000
0000
0000
,
0000
0000
0000
0000
,
0000
0000
0000
0000
,
1000
0000
0000
0000
,
0010
0000
0000
0000
,
0100
0000
0000
0000
,
0001
0000
0000
0000
,
1000
0000
1000
0000
,
1000
0000
0000
0000
,
0001
0000
0001
0000
,
0001
0000
0000
0000
,
0010
0000
0100
0000
,
0010
0000
0010
0000
,
0001
0000
0000
0000
,
1001
0000
0000
1000
,
0000
0010
0000
0100
,
0000
0000
0000
0001
,
0000
0010
0000
0100
,
0000
0000
0000
2000
,
0000
3000
0000
0002
,
0000
0003
0000
0100
,
0000
0100
0000
0100
,
0000
0000
0000
0001
,
0000
0100
0000
0010
,
0000
0000
0000
1000
,
0000
0100
0000
0010
,
0000
0000
0000
0002
,
0000
0003
0000
2000
,
0000
3000
0000
0010
,
0000
0010
0000
0010
,
0000
0000
0000
1001
,
0000
0000
0000
1000
,
0000
0001
0000
0100
,
0000
0000
0000
0100
,
0000
0000
0000
1001
,
0000
0000
0000
0001
,
0000
1000
0000
0100
,
0000
0010
0000
0100
,
0000
0000
0000
1000
,
0000
1000
0000
0001
,
0000
0000
0000
0001
,
0000
0001
0000
1000
,
0000
0000
0000
0010
,
0000
0100
0000
0010
,
0000
1000
0000
0002
,
0000
0003
0000
1001
;

//--------------- dance-single - ----------------
#NOTES:
     dance-single:
     :
     Easy:
     5:
     0,0,0,0,0:
0000
0000
0000
0000
,
0000
0000
0000
0000
,
0000
0000
0000
0000
,
0000
0000
0000
0000
,
0000
0000
0000
0000
,
1000
0100
0010
0000
,
0100
0010
0001
0000
,
0100
0010
1000
0000
,
0001
0001
1000
1000
,
0100
0110
0010
0000
,
0002
2003
3002
0003
,
1000
0010
0100
0001
,
0010
0100
2000
3000
,
2100
0000
3001
0000
,
0102
0000
1003
0000
,
0010
0100
0001
1000
,
1100
0000
0000
1000
,
1001
0001
0000
0100
,
0010
0100
0000
0001
,
1000
0100
0100
0010
,
0001
1000
0000
0020
,
0100
0130
0000
0200
,
0302
1003
0000
2200
,
3300
2200
3300
0001
,
0001
1000
1000
0010
,
0110
0100
0000
0001
,
1000
0001
0000
1000
,
0100
1000
1000
0001
,
0100
0010
0000
2000
,
0001
3001
0000
0002
,
0203
0310
0000
2020
,
3030
2002
3003
0010
,
0010
0100
0100
1000
,
0001
1000
0000
1000
,
0010
1000
0010
0100
,
0000
0100
0101
0001
,
0000
1000
1100
0001
,
1000
0100
0000
0010
,
0100
1000
0001
0100
,
0000
0010
0010
1000
,
1000
0001
0001
0010
,
0110
0100
0000
2000
,
3002
2003
3000
0001
,
0100
0010
1000
0100
,
0010
0002
0003
0012
,
0000
1003
0000
2010
,
0000
3001
0000
1000
,
0100
0001
0100
1001
;

//--------------- dance-single - ----------------
#NOTES:
     dance-single:
     :
     Medium:
     7:
     0,0,0,0,0:
0000
0000
0000
0000
,
0000
0000
0000
0000
,
0000
0000
0000
0000
,
0000
0000
0000
0000
,
0000
0000
0000
0000
,
1000
0000
0100
0010
0001
0000
0100
0000
,
0010
0000
1000
0010
0100
0000
0001
0000
,
1000
0000
0100
0001
0100
0000
1000
0000
,
0001
0100
1000
0000
1000
0100
0001
0000
,
1000
0000
1100
0000
0010
0001
0100
0000
,
2000
3100
0002
0003
,
1000
0100
1000
0000
0010
0100
0001
0000
,
0020
0130
2000
3000
,
0002
1003
2000
3010
,
0200
0301
0002
0013
,
2000
3020
0032
1003
,
1001
0000
0000
2000
0000
3010
0100
0000
,
0101
0000
1000
0001
1000
0000
0001
0000
,
0010
0100
1000
0000
0000
0000
0001
0000
,
1001
0000
0010
0100
0001
0000
1000
0000
,
0100
0010
0001
0000
0000
0000
2000
0000
,
0010
0002
3003
0002
,
0010
2000
3003
2000
,
3020
0000
0032
0000
0023
0000
0130
0001
,
1000
0000
0001
0010
0100
0000
1000
0000
,
1100
0000
0010
0001
1000
0000
0001
0100
,
0001
0100
0010
0000
0000
0000
1000
0000
,
0010
0000
0100
0010
0100
0000
0001
0010
,
1000
0010
0100
0000
0000
0000
2000
0000
,
0100
0002
3003
0002
,
0100
2000
3003
0200
,
0320
0000
1030
0010
0001
0000
1000
0100
,
1000
0000
0001
0100
0001
0000
1000
0000
,
0010
0000
0100
0010
1000
0000
0001
0000
,
0010
0000
0100
0000
1000
0000
0001
0100
,
0001
0100
0010
0000
0000
0000
1000
0010
,
0001
0000
0010
0100
0001
0000
1000
0000
,
0100
0000
0010
0001
1000
0000
0010
0000
,
0100
1000
0100
0001
,
0000
1000
0001
1001
,
0000
0000
1000
0100
0001
0000
0100
0000
,
0011
0000
1000
0001
1000
0000
0020
0000
,
0130
0001
2000
0000
3000
0000
0001
0010
,
0100
0000
1000
0001
1000
0000
0020
0000
,
0130
0001
2000
0000
3000
0000
0200
0000
,
0001
0320
1000
0230
,
0001
2300
0010
3002
,
0103
2000
3100
1001
;

//--------------- dance-single - ----------------
#NOTES:
     dance-single:
     :
     Hard:
     11:
     0,0,0,0,0:
0000
0000
0000
0000
,
0000
0000
0000
0000
,
0000
0000
0000
0000
,
0000
0000
0000
0000
,
0000
0000
0000
0000
,
1000
0000
0000
0000
0100
0000
0010
0000
0001
0000
0000
0100
0000
0000
0010
0000
,
1000
0000
0000
0000
0010
0000
0100
0000
0001
0000
0000
0010
0000
0000
0100
0000
,
1000
0000
0010
0100
0010
0000
1000
0000
,
0001
0100
1000
0100
0001
0100
1000
1000
,
0100
0010
0101
0000
1000
0100
0010
0001
,
0100
0000
0000
0010
0000
0000
0100
0000
0002
0000
0000
0000
0003
0000
0010
0000
,
0001
0100
1000
0100
0010
1000
0001
0010
,
0100
0000
0000
1000
0000
0000
0001
0000
0200
0000
0000
0000
0300
0000
0010
0000
,
0100
0000
0000
0001
0000
0000
0010
0000
0100
0000
0000
0001
0000
0000
0100
0000
,
1000
0000
0000
0010
0000
0000
0100
0000
1000
0000
0000
0100
0000
0000
0001
0000
,
2000
0100
0001
3010
,
0101
0000
0001
0010
1000
0010
0001
0000
,
1100
0000
0010
0000
0001
0000
0100
0010
0000
0000
0100
0000
0001
0000
0010
0000
,
0100
1000
0001
0001
0000
0100
0110
0000
,
0001
0000
1000
0000
0100
0000
1000
0010
0000
0000
0100
0000
0001
0000
0010
0000
,
0001
0000
1000
0100
0000
0000
1000
0000
0010
0000
0100
0000
1000
0000
0000
0100
,
0000
0000
0001
0000
0002
0000
0000
0000
1003
0000
0000
0000
0010
0000
0000
0100
,
0000
0000
0001
0000
0010
0000
0000
0100
0000
0000
1000
0000
1000
0000
0000
0000
,
0001
0100
0010
0000
0110
0000
1000
0001
,
1000
0001
0010
1000
0010
0001
0100
0000
,
1010
0000
0100
0000
0001
0000
0010
0100
0000
0000
0010
0000
0001
0000
1000
0000
,
0010
0100
0001
0001
0000
1000
1001
0000
,
0100
0000
0010
0000
0100
0000
0001
1000
0000
0000
0100
0000
0001
0000
0100
0000
,
1000
0000
0010
0100
0000
0000
0100
0000
0001
0000
0010
0000
1000
0000
0000
0010
,
0000
0000
0001
0000
0002
0000
0000
0000
1003
0000
0000
0000
0010
0000
0000
0100
,
0000
0000
0001
0000
0001
0000
0000
0010
0000
0000
0100
0000
2000
0000
0000
0000
,
3010
0000
0100
0000
0001
0000
0000
0100
0000
0000
1000
0000
0100
0000
0010
0000
,
0100
0010
0001
0010
1000
0001
0010
0100
,
1000
0000
0010
0000
0100
0000
0010
0000
0000
0000
1000
0000
1001
0000
0000
0010
,
0000
0000
0100
0000
1000
0000
0000
0001
0000
0000
0100
0000
0010
0000
0000
0000
,
0100
0000
0001
0000
0010
0000
0000
1100
0000
0000
1100
0000
0001
0000
0000
0000
,
1000
0010
0100
0100
1001
0000
0010
0100
,
1000
0000
0010
0000
0100
0000
0001
0000
0000
0000
0001
0000
1001
0000
0000
0100
,
0000
0000
0010
0000
1000
0000
0000
0100
0000
0000
0010
0000
0011
0000
0000
0000
,
1000
0000
0010
0000
1000
0000
0000
0001
0000
0000
0100
0000
0010
0000
0100
0000
,
0010
1000
0100
0001
0100
1000
0001
0100
,
1010
0000
0000
0000
1000
0000
0100
0000
0010
0000
0001
0000
1000
0000
0000
0010
,
0000
0100
0200
0000
0310
1000
0100
0001
,
0100
0000
0010
0000
0001
0000
0100
0000
0010
0000
1000
0000
0001
0000
0000
0010
,
0000
0000
0100
0000
2000
0000
0000
0000
3001
0000
0100
0000
0010
0000
0000
1000
,
0000
0000
0100
0000
0100
0000
0000
0010
0000
0000
0001
0000
0001
0000
0000
0100
,
0000
0000
1000
0000
1000
0000
0000
0100
0000
0000
0001
0000
0100
0000
0010
0000
,
0100
0010
1000
0001
1000
0100
0011
0000
;
