#VERSION:0.83;
#TITLE:あお;
#SUBTITLE:;
#ARTIST:JENNY;
#TITLETRANSLIT:Blue;
#SUBTITLETRANSLIT:;
#ARTISTTRANSLIT:;
#GENRE:DRUM'N'BASS;
#ORIGIN:;
#CREDIT:;
#BANNER:aoi-bn.png;
#BACKGROUND:aoi-bg.png;
#PREVIEWVID:;
#JACKET:aoi-jacket.png;
#CDIMAGE:;
#DISCIMAGE:;
#LYRICSPATH:;
#CDTITLE:cdtitle.png;
#MUSIC:blue.ogg;
#OFFSET:-0.004013;
#SAMPLESTART:54.670681;
#SAMPLELENGTH:13.333000;
#SELECTABLE:YES;
#BPMS:0.000=180.000;
#STOPS:256.000=0.667;
#DELAYS:;
#WARPS:;
#TIMESIGNATURES:0.000=4=4;
#TICKCOUNTS:0.000=4;
#COMBOS:0.000=1;
#SPEEDS:0.000=1.000=0.000=0;
#SCROLLS:0.000=1.000;
#FAKES:;
#LABELS:0.000=Song Start;
#BGCHANGES:;
#KEYSOUNDS:;
#ATTACKS:
;

//---------------dance-single - ----------------
#NOTEDATA:;
#CHARTNAME:;
#STEPSTYPE:dance-single;
#DESCRIPTION:;
#CHARTSTYLE:;
#DIFFICULTY:Hard;
#METER:16;
#RADARVALUES:0.849206,0.954333,0.340194,0.268574,0.537148,664.000000,626.000000,38.000000,30.000000,0.000000,0.000000,0.000000,0.000000,0.000000,0.849206,0.954333,0.340194,0.268574,0.537148,664.000000,626.000000,38.000000,30.000000,0.000000,0.000000,0.000000,0.000000,0.000000;
#CREDIT:TonyAkita;
#NOTES:
// measure 0
0000
0000
0000
0000
,  // measure 1
0000
0000
0000
0000
,  // measure 2
0000
0000
0000
0000
,  // measure 3
0000
0000
0000
0000
,  // measure 4
2000
0000
0001
3002
0000
0100
0203
0000
,  // measure 5
0301
0100
0010
0000
0001
0010
1000
0001
,  // measure 6
0002
0000
1000
2003
0000
3100
0200
0000
,  // measure 7
0301
0000
0100
0000
1000
0000
0100
0000
0010
0000
0001
0000
1000
0010
0100
0000
,  // measure 8
0001
0100
1000
0100
0001
0010
1000
0000
,  // measure 9
0010
0000
0100
0000
0010
0000
0001
0010
0000
0100
1000
0000
1100
0000
0000
0000
,  // measure 10
1000
0100
0001
0100
1000
0010
0001
0000
,  // measure 11
0010
0000
0100
0000
0010
0000
1000
0010
0000
0100
0001
0000
0101
0000
0000
0000
,  // measure 12
0001
0100
0010
0100
1000
0100
0001
0000
,  // measure 13
0100
0000
0010
0000
1000
0000
0001
0010
0000
1000
0010
0000
0011
0000
0000
0000
,  // measure 14
1000
0100
0010
0100
0001
0100
1000
0000
,  // measure 15
0100
0000
0010
0000
0001
0000
1000
0010
0000
0001
0010
0000
1010
0000
0000
0000
,  // measure 16
0002
0000
0010
0023
0000
0100
0130
0000
,  // measure 17
1000
0100
0000
0010
0100
0000
0001
0100
1000
0100
0010
0000
0011
0000
0000
0000
,  // measure 18
2000
0000
0010
3020
0000
0100
0130
0000
,  // measure 19
0001
0100
0000
0010
0100
0000
1000
0100
0001
0100
0010
0000
1010
0000
0000
0000
,  // measure 20
2000
0000
0001
3002
0000
0100
0103
0000
,  // measure 21
1000
0100
0000
0001
0100
0000
0010
0100
0010
1000
0010
0000
0101
0000
0000
0000
,  // measure 22
0002
0000
1000
2003
0000
0100
3100
0000
,  // measure 23
0001
0100
0000
1000
0100
0000
0010
0100
0010
0001
0010
0000
1100
0000
0000
0000
,  // measure 24
0002
0000
0000
1003
,  // measure 25
0010
0000
0100
0000
1000
0000
0100
0001
0000
0001
0010
0000
0100
0000
1000
0000
,  // measure 26
0100
0000
0001
0000
0100
0000
0010
0001
0000
0001
1000
0000
0010
0000
0100
0000
,  // measure 27
1000
0000
0100
0000
0001
0000
1000
0100
0000
0100
0010
0000
0001
0000
1000
0000
,  // measure 28
0010
1000
0000
0010
0100
0000
0010
0001
0000
0010
0100
0000
1010
0000
0001
0000
,  // measure 29
0010
0000
0100
0000
0001
0000
0100
1000
0000
1000
0010
0000
0100
0000
1000
0000
,  // measure 30
0100
0000
0001
0000
0100
0000
0010
1000
0000
1000
0001
0000
0010
0000
0100
0000
,  // measure 31
0001
0000
0100
0000
1000
0000
0001
0100
0000
0100
0010
0000
1000
0000
0001
0000
,  // measure 32
0010
0001
0000
0010
0100
0000
0010
1000
0000
0010
0100
0000
0011
0000
1000
0000
,  // measure 33
0010
0100
0010
0000
0001
0000
0010
0100
0001
0000
0001
0000
0000
0000
1000
0000
,  // measure 34
0100
0010
0100
0000
0001
0000
0100
0010
0100
0000
1000
0000
0001
0000
0001
0000
,  // measure 35
0010
0100
0010
0000
1000
0000
0010
0100
1000
0000
1000
0000
0000
0000
0001
0000
,  // measure 36
0100
0010
0100
0000
1000
0000
0100
0010
0100
0000
0001
0000
1000
0000
1000
0000
,  // measure 37
0001
0010
0001
0000
0010
0000
0100
1000
0001
0000
0001
0000
0000
0000
0100
0000
,  // measure 38
0010
1000
0010
0000
0100
0000
0010
0001
0010
0000
0100
0000
0001
0000
0001
0000
,  // measure 39
1000
0010
1000
0000
0010
0000
0100
0001
1000
0000
1000
0000
0000
0000
0100
0000
,  // measure 40
0010
0001
0010
0001
0010
0000
1000
0010
1000
0010
1000
0000
0110
0000
0001
0000
,  // measure 41
1000
0100
0001
0100
1000
0010
0100
0001
,  // measure 42
0010
0000
0100
0000
0010
0000
0001
0010
0100
1000
0100
0000
1100
0000
0000
0000
,  // measure 43
0001
0100
1000
0100
0001
0010
0100
1000
,  // measure 44
0010
0000
0100
0000
0010
0000
1000
0010
0100
0001
0100
0000
0101
0000
0000
0000
,  // measure 45
0100
0001
0010
0001
0100
0010
1000
0001
,  // measure 46
0010
0000
1000
0000
0010
0000
0001
0010
0100
1000
0100
0000
1100
0000
0000
0000
,  // measure 47
0100
1000
0010
1000
0100
0010
0001
1000
,  // measure 48
0010
0000
0001
0000
0010
0000
1000
0010
0100
0001
0100
0000
0101
0000
0000
0000
,  // measure 49
0002
0000
1000
2003
0000
0010
3010
0000
,  // measure 50
0101
0000
1000
0100
1000
0000
1100
0000
0001
0100
0001
0000
0110
0000
0000
0000
,  // measure 51
2000
0000
0001
3002
0000
0010
0013
0000
,  // measure 52
1100
0000
1000
0100
1000
0100
1000
0000
0000
0000
0110
0000
0000
0000
0000
0000
,  // measure 53
0002
0000
0010
0023
0000
0100
0130
0000
,  // measure 54
0000
0000
1100
0000
0001
0100
0001
0000
0101
0000
0000
0000
0110
0000
0000
0000
,  // measure 55
1000
0010
0100
0001
0010
0100
1000
0001
,  // measure 56
2000
0000
0000
0000
0000
0000
0000
0000
0000
0000
3000
0000
0010
0100
0010
0100
,  // measure 57
0001
0000
0100
0000
1000
0000
0100
0001
0000
0001
0010
0000
0100
0000
1000
0000
,  // measure 58
0100
0000
0001
0000
0100
0000
0010
0001
0000
0001
1000
0000
0010
0000
0100
0000
,  // measure 59
1000
0000
0100
0000
0001
0000
1000
0100
0000
0100
0010
0000
0001
0000
1000
0000
,  // measure 60
0010
0100
0000
0001
1000
0000
0100
0010
0000
0001
1000
0000
1001
0000
0001
0000
,  // measure 61
1000
0000
0100
0000
0001
0000
0100
1000
0000
1000
0010
0000
0100
0000
0001
0000
,  // measure 62
0100
0000
1000
0000
0100
0000
0010
1000
0000
1000
0001
0000
0010
0000
0100
0000
,  // measure 63
0001
0000
0100
0000
1000
0000
0001
0100
0000
0100
0010
0000
1000
0000
0001
0000
,  // measure 64
2002
0000
3003
0000
0110
0000
0000
0000
1000
0001
1000
0000
1001
0000
1000
0010
,  // measure 65
0100
0000
1000
0000
0100
0000
0001
0000
1000
0100
1000
0000
1100
0000
0001
0010
,  // measure 66
0001
0000
0011
0000
1000
0000
1000
0000
0001
1000
0001
0000
1001
0000
0001
0010
,  // measure 67
0100
0000
0001
0000
0100
0000
1000
0000
0001
0100
0001
0000
0101
0000
1000
0010
,  // measure 68
1000
0000
1010
0000
0001
0000
0001
0000
1000
0100
0010
0000
0110
0000
0001
0100
,  // measure 69
0010
0000
0001
0000
0010
0000
1000
0000
0010
0100
0001
0000
0101
0000
1000
0100
,  // measure 70
0010
0000
0011
0000
1000
0000
1000
0000
0001
0010
0100
0000
0110
0000
1000
0010
,  // measure 71
0100
0000
1000
0000
0100
0000
0001
0000
0100
0010
1000
0000
1010
0000
0001
0010
,  // measure 72
0100
0000
1100
0000
0001
1000
0001
1000
0002
0000
0010
0000
0000
0000
0013
0000
,  // measure 73
0000
0001
1000
0000
0000
0000
1000
0000
2000
0000
0010
0000
0000
0000
3010
0000
,  // measure 74
0000
1000
0001
0000
0000
0000
0001
0000
0002
0000
0100
0000
0000
0000
0103
0000
,  // measure 75
0000
0001
1000
0000
0000
0000
1000
0000
2000
0000
0100
0000
0000
0000
3100
0000
,  // measure 76
0000
1000
0001
0000
0000
0000
0001
0000
0010
0000
1000
0000
0010
0000
0001
0000
,  // measure 77
0010
0100
0010
0000
0100
0000
1000
0000
0010
0000
0001
0000
0010
0000
1000
0000
,  // measure 78
0010
0100
0010
0000
0100
0000
0001
0000
1000
0000
0100
0000
1000
0000
0010
0000
,  // measure 79
0100
0001
0100
0000
0001
0000
1000
0000
0001
0000
0100
0000
0001
0000
0010
0000
,  // measure 80
0100
1000
0001
0000
2000
0000
0002
0000
0000
0000
0000
0000
0000
0000
0000
0000
,  // measure 81
0000
0000
0000
0000
,  // measure 82
3003
0000
0000
0000
;

//---------------dance-single - ----------------
#NOTEDATA:;
#CHARTNAME:;
#STEPSTYPE:dance-single;
#DESCRIPTION:;
#CHARTSTYLE:;
#DIFFICULTY:Medium;
#METER:10;
#RADARVALUES:0.539706,0.611622,0.196954,0.384956,0.000000,422.000000,400.000000,22.000000,43.000000,0.000000,0.000000,0.000000,0.000000,0.000000,0.539706,0.611622,0.196954,0.384956,0.000000,422.000000,400.000000,22.000000,43.000000,0.000000,0.000000,0.000000,0.000000,0.000000;
#CREDIT:TonyAkita;
#NOTES:
0000
0000
0000
0000
,
0000
0000
0000
0000
,
0000
0000
0000
0000
,
0000
0000
0000
0000
,
1000
0000
1000
0002
0000
0000
0013
0000
,
0001
0000
1000
0000
0010
0100
0001
0000
,
0001
0000
0001
2000
0000
0000
3010
0000
,
0100
0010
0100
0010
0100
0000
1001
0000
,
0001
0000
0100
0010
0000
0100
0001
0000
,
1000
0100
0010
0000
0100
1000
0001
0000
,
1000
0000
0010
0100
0000
0010
1000
0000
,
0001
0010
0100
0000
0010
0001
1000
0000
,
0001
0000
0100
1000
0000
0100
0001
0000
,
0100
0010
1000
0000
0001
0010
0100
0000
,
1000
0000
0100
0001
0000
0100
1000
0000
,
0001
1000
0001
1000
0001
0000
1001
0000
,
0002
0000
0000
2003
0000
0000
3010
0000
,
1010
0000
1001
0000
0001
1000
0010
0000
,
2000
0000
0000
3002
0000
0000
0013
0000
,
0011
0000
1001
0000
1000
0001
0010
0000
,
0002
0000
0000
0203
0000
0000
0310
0000
,
1010
0000
1001
0000
0001
0010
0100
0000
,
2000
0000
0000
3200
0000
0000
0310
0000
,
0011
0000
1001
0000
1000
0010
0100
0001
,
0200
0000
0000
0310
,
1000
0000
0001
0000
0010
0001
0010
0000
,
0001
0000
1000
0000
0010
1000
0010
0000
,
0100
0000
0001
0000
1000
0001
1000
0000
,
0001
0010
0001
1000
0010
1000
0100
0010
,
0001
0000
1000
0000
0100
1000
0100
0000
,
1000
0000
0001
0000
0100
0001
0100
0000
,
0010
0000
1000
0000
0001
1000
0001
0000
,
1000
0100
1000
0001
0100
0001
0010
0100
,
2000
0000
3001
0002
0000
1003
0000
1000
,
0010
0100
0001
1000
0100
0010
0001
1000
,
0002
0000
1003
2000
0000
3001
0000
0001
,
0010
0100
1000
0001
0100
0010
1000
0001
,
2000
0000
3010
0020
0000
1030
0000
1000
,
0001
0010
0001
1000
0001
1000
0100
0010
,
0002
0000
0013
0020
0000
0031
0000
0001
,
1000
0010
1000
0001
1000
0001
0100
0010
,
1000
0000
0100
0010
0000
0100
1000
0000
,
0001
0100
0010
0000
0100
0001
1000
0000
,
0001
0000
0010
0100
0000
0010
0001
0000
,
1000
0010
0100
0000
0010
1000
0001
0000
,
1000
0000
0100
0001
0000
0100
1000
0000
,
0100
0010
0001
0000
1000
0010
0100
0000
,
0001
0000
0100
1000
0000
0100
0001
0000
,
1000
0001
1000
0001
1000
0000
1001
0000
,
0002
0000
0000
2003
0000
0000
3010
0000
,
1010
0000
0000
1001
0000
0000
1010
0000
,
2000
0000
0000
3002
0000
0000
0013
0000
,
0011
0000
0010
0100
0000
1100
0000
0000
,
0002
0000
0000
0203
0000
0000
0310
0000
,
0000
0101
0000
0000
1001
0000
1100
0000
,
2000
0000
0000
3200
0000
0000
0310
0000
,
2002
0000
0000
3003
,
0001
0000
1000
0000
0010
0100
0010
0000
,
1000
0000
0001
0000
0010
0100
1000
0000
,
0001
0000
1000
0000
0001
0100
0010
0000
,
1000
0010
1000
0001
0010
0001
0100
0010
,
1000
0000
0001
0000
0010
0100
0010
0000
,
0001
0000
1000
0000
0010
0100
0001
0000
,
0100
0000
0010
0000
1000
0001
1000
0000
,
2002
3003
0110
0000
0001
0100
0010
1000
,
0001
0010
0100
0010
0001
0001
0001
1000
,
1000
1000
0010
0100
0001
0010
0100
1000
,
0001
0100
0010
0100
0001
0001
0001
1000
,
1000
1000
0100
0010
0001
0100
1000
0100
,
0001
1000
0100
0010
0001
0010
0001
1000
,
0010
1000
0100
0010
0001
0010
1000
0010
,
0001
1000
0010
0100
0001
0100
0001
1000
,
0100
1000
0010
0100
0002
0000
0000
2003
,
0000
3010
0200
0301
,
0001
1000
0001
0000
2000
0000
0000
3002
,
0000
0013
0200
1300
,
1000
0001
1000
0000
0002
0000
0000
0203
,
0000
0310
0020
1030
,
0001
1000
0001
0000
2000
0000
0000
3200
,
0000
0310
0020
0031
,
1000
0001
1000
0001
0000
0000
0000
0000
;

//---------------dance-single - ----------------
#NOTEDATA:;
#CHARTNAME:;
#STEPSTYPE:dance-single;
#DESCRIPTION:;
#CHARTSTYLE:;
#DIFFICULTY:Easy;
#METER:7;
#RADARVALUES:0.390072,0.504472,0.259622,0.089525,0.000000,305.000000,276.000000,29.000000,10.000000,0.000000,0.000000,0.000000,0.000000,0.000000,0.390072,0.504472,0.259622,0.089525,0.000000,305.000000,276.000000,29.000000,10.000000,0.000000,0.000000,0.000000,0.000000,0.000000;
#CREDIT:TonyAkita;
#NOTES:
0000
0000
0000
0000
,
0000
0000
0000
0000
,
0000
0000
0000
0000
,
0000
0000
0000
0000
,
1000
0000
0000
0001
0000
0000
0010
0000
,
0020
0000
0000
0030
,
0001
0000
0000
1000
0000
0000
0010
0000
,
0010
0010
0100
0100
,
0001
0100
1000
0100
,
0010
0000
0000
1010
0000
0000
0000
0000
,
1000
0100
0001
0100
,
0010
0000
0000
0011
0000
0000
0000
0000
,
0010
0001
1000
0010
,
0100
0000
0000
1010
0000
0000
0000
0000
,
0010
1000
0001
0010
,
0100
0000
0000
0011
0000
0000
1001
0000
,
1000
0001
0010
0001
,
1000
0000
0001
0000
0100
0100
0100
0000
,
0001
1000
0010
1000
,
0001
0000
1000
0000
0100
0100
0100
0000
,
0010
0001
0010
0100
,
1000
0000
0001
0000
0100
0100
0100
0000
,
0010
1000
0010
0100
,
0001
0000
1000
0000
0100
0100
0100
0000
,
0020
0000
0000
0030
,
0001
0000
1000
0000
0000
1000
0000
0000
,
0010
0000
0000
0010
0000
0000
1000
0000
,
1000
0000
0001
0000
0000
0001
0000
0000
,
0010
0100
0001
0100
,
1000
0000
0001
0000
0000
0001
0000
0000
,
0100
0000
0000
0100
0000
0000
0001
0000
,
0001
0000
1000
0000
0000
1000
0000
0000
,
0100
0010
1000
0010
,
0001
1000
0001
0000
,
1000
0010
1000
0000
0001
0010
0001
0000
,
1000
0001
1000
0000
,
0001
0100
0001
0000
1000
0100
1000
0000
,
0100
0010
0001
0000
,
1000
0010
1000
0000
0001
1000
0001
0000
,
0100
0010
1000
0000
,
0001
0010
0001
0000
1000
0001
1000
0000
,
0001
0100
1000
0100
,
0010
0000
0000
1010
0000
0000
0000
0000
,
1000
0100
0001
0100
,
0010
0000
0000
0011
0000
0000
0000
0000
,
0010
0001
1000
0010
,
0100
0000
0000
1010
0000
0000
0000
0000
,
0010
1000
0001
0010
,
0100
0000
0000
0011
0000
0000
1001
0000
,
1000
0001
0010
0001
,
1001
0000
0000
1010
0000
0000
0011
0000
,
0001
1000
0010
1000
,
1001
0000
0110
0000
0000
1001
0000
0000
,
0001
0100
0010
1000
,
0000
1010
0000
0000
1001
0000
0011
0000
,
1000
0100
0010
0001
,
2002
0000
0000
3003
,
0001
1000
0100
1000
,
0010
0000
1000
0000
0001
0001
0001
0000
,
1000
0001
0100
0001
,
0010
0010
0010
0000
0100
0100
0100
0000
,
1000
0001
0100
0001
,
0010
0000
0001
0000
0100
0100
0100
0000
,
0010
1000
0001
1000
,
1001
0110
1000
0100
,
0001
0000
0100
0000
0010
0001
0011
0000
,
1000
0010
1010
0000
0001
0000
0100
0000
,
1000
0000
0100
0000
0010
1000
1010
0000
,
0001
0010
0011
0000
1000
0000
0001
0000
,
1000
0000
0010
0000
0100
0001
0101
0000
,
1000
0100
1100
0000
0001
0000
1000
0000
,
0001
0000
0100
0000
0010
1000
0010
1000
,
0010
1010
0002
0000
,
0003
1000
2000
0000
,
0000
3000
0020
0000
,
0030
0100
0200
0000
,
0000
0300
0001
1000
,
0001
0010
0200
0000
,
0000
0300
1000
0001
,
1000
0010
0200
0000
,
0000
0000
0300
0000
;

//---------------dance-single - ----------------
#NOTEDATA:;
#CHARTNAME:;
#STEPSTYPE:dance-single;
#DESCRIPTION:;
#CHARTSTYLE:;
#DIFFICULTY:Beginner;
#METER:4;
#RADARVALUES:0.235322,0.324303,0.250669,0.107430,0.000000,184.000000,156.000000,28.000000,12.000000,0.000000,0.000000,0.000000,0.000000,0.000000,0.235322,0.324303,0.250669,0.107430,0.000000,184.000000,156.000000,28.000000,12.000000,0.000000,0.000000,0.000000,0.000000,0.000000;
#CREDIT:TonyAkita;
#NOTES:
0000
0000
0000
0000
,
0000
0000
0000
0000
,
0000
0000
0000
0000
,
0000
0000
0000
0000
,
1000
0000
0001
0000
,
0020
0000
0030
0000
,
1000
0000
0001
0000
,
0100
0100
0100
0000
,
0001
0000
1000
0000
,
1001
0000
0000
0000
,
1000
0000
0001
0000
,
1001
0000
0000
0000
,
0100
0000
0010
0000
,
0110
0000
0000
0000
,
0010
0000
0100
0000
,
0110
0000
0000
0000
,
0001
0001
0001
0001
,
0001
0000
0000
0000
,
1000
1000
1000
1000
,
1000
0000
0000
0000
,
0010
0010
0010
0010
,
0010
0000
0000
0000
,
0100
0100
0100
0100
,
0100
0000
0000
0000
,
0020
0000
0000
0000
,
0030
0000
1000
0000
,
0001
0000
1000
0000
,
0100
0000
0010
0000
,
1001
0000
0110
0000
,
0001
0000
1000
0000
,
0001
0000
1000
0000
,
0100
0000
0010
0000
,
1001
0000
0110
0000
,
0001
0001
0001
0000
,
1000
0000
0010
0000
,
1000
1000
1000
0000
,
0001
0000
0010
0000
,
0100
0100
0100
0000
,
1000
0000
0001
0000
,
0100
0100
0100
0000
,
0001
0000
1000
0000
,
1000
1000
1000
1000
,
1000
0000
0000
0000
,
0001
0001
0001
0001
,
0001
0000
0000
0000
,
0010
0010
0010
0010
,
0010
0000
0000
0000
,
0100
0100
0100
0100
,
0100
0000
0000
0000
,
1000
0000
0001
0000
,
1001
0000
0110
0000
,
0001
0000
1000
0000
,
1001
0000
0110
0000
,
0010
0000
0100
0000
,
0110
0000
1001
0000
,
0100
0000
0010
0000
,
0220
0000
0330
0000
,
1000
0000
0001
0000
,
1000
0000
0001
0000
,
0100
0000
0010
0000
,
1001
0000
0110
0000
,
0001
0000
1000
0000
,
0001
0000
1000
0000
,
0100
0000
0010
0000
,
1001
0000
0010
0010
,
0010
0000
1001
0000
,
0110
0000
0100
0100
,
0100
0000
1001
0000
,
0110
0000
0001
0001
,
0001
0000
1001
0000
,
0110
0000
1000
1000
,
1000
0000
1001
0000
,
0110
0000
0002
0000
,
0003
0000
2000
0000
,
3000
0000
0020
0000
,
0030
0000
0200
0000
,
0300
0000
0001
0000
,
1000
0000
2002
0000
,
3003
0000
1000
0000
,
0001
0000
2002
0000
,
0000
0000
3003
0000
;
