#VERSION:0.83;
#TITLE:American Idiot;
#SUBTITLE:;
#ARTIST:Green Day;
#TITLETRANSLIT:;
#SUBTITLETRANSLIT:;
#ARTISTTRANSLIT:;
#GENRE:;
#ORIGIN:;
#CREDIT:;
#BANNER:banner.png;
#BACKGROUND:American Idiot-bg.png;
#PREVIEWVID:;
#JACKET:jacket.png;
#CDIMAGE:;
#DISCIMAGE:;
#LYRICSPATH:;
#CDTITLE:;
#MUSIC:American Idiot.ogg;
#OFFSET:-0.336722;
#SAMPLESTART:26.135937;
#SAMPLELENGTH:12.000000;
#SELECTABLE:YES;
#BPMS:0.000=186.000;
#STOPS:271.000=2.258;
#DELAYS:;
#WARPS:;
#TIMESIGNATURES:0.000=4=4;
#TICKCOUNTS:0.000=4;
#COMBOS:0.000=1;
#SPEEDS:0.000=1.000=0.000=0;
#SCROLLS:0.000=1.000;
#FAKES:;
#LABELS:0.000=Song Start;
#BGCHANGES:;
#KEYSOUNDS:;
#ATTACKS:
;

//---------------dance-single - ----------------
#NOTEDATA:;
#CHARTNAME:;
#STEPSTYPE:dance-single;
#DESCRIPTION:;
#CHARTSTYLE:;
#DIFFICULTY:Beginner;
#METER:2;
#RADARVALUES:0.080282,0.149453,0.000000,0.000000,0.000000,69.000000,69.000000,0.000000,0.000000,0.000000,0.000000,0.000000,0.000000,0.000000,0.080282,0.149453,0.000000,0.000000,0.000000,69.000000,69.000000,0.000000,0.000000,0.000000,0.000000,0.000000,0.000000,0.000000;
#CREDIT:;
#NOTES:
// measure 0
0000
0000
0000
0000
,  // measure 1
0000
0000
0000
0000
,  // measure 2
0000
0000
0000
0000
,  // measure 3
0000
0000
0000
0000
,  // measure 4
1000
0000
0000
0000
,  // measure 5
1000
0000
0000
0000
,  // measure 6
0001
0000
0000
0000
,  // measure 7
0000
0000
0000
0000
,  // measure 8
0001
0000
0000
0000
,  // measure 9
0001
0000
0000
0000
,  // measure 10
1000
0000
0000
0000
,  // measure 11
0000
0000
0000
0000
,  // measure 12
0100
0000
0000
0000
,  // measure 13
0100
0000
0000
0000
,  // measure 14
0010
0000
0000
0000
,  // measure 15
0000
0000
0000
0000
,  // measure 16
0010
0000
0000
0000
,  // measure 17
0010
0000
0000
0000
,  // measure 18
0100
0000
0000
0000
,  // measure 19
0000
0000
0000
0000
,  // measure 20
1000
0000
0000
0000
,  // measure 21
0000
0000
0000
0000
,  // measure 22
0010
0000
0000
0000
,  // measure 23
0000
0000
0000
0000
,  // measure 24
0100
0000
0000
0000
,  // measure 25
0000
0000
0000
0000
,  // measure 26
0001
0000
0000
0000
,  // measure 27
0000
0000
0000
0000
,  // measure 28
0010
0000
0000
0000
,  // measure 29
0000
0000
0000
0000
,  // measure 30
0100
0000
0000
0000
,  // measure 31
0000
0000
0000
0000
,  // measure 32
1000
0000
0000
0000
,  // measure 33
0000
0000
0000
0000
,  // measure 34
0001
0000
0001
0000
,  // measure 35
0001
0000
0000
0000
,  // measure 36
1000
0000
0000
0000
,  // measure 37
0010
0000
0000
0000
,  // measure 38
0100
0000
0000
0000
,  // measure 39
0001
0000
0000
0000
,  // measure 40
0010
0000
0000
0000
,  // measure 41
0100
0000
0000
0000
,  // measure 42
1000
0000
0000
0000
,  // measure 43
0001
0000
0000
0000
,  // measure 44
0100
0000
0000
0000
,  // measure 45
0000
0000
0000
0000
,  // measure 46
0010
0000
0000
0000
,  // measure 47
0000
0000
0000
0000
,  // measure 48
1000
0000
0000
0000
,  // measure 49
0000
0000
0000
0000
,  // measure 50
0001
0000
0001
0000
,  // measure 51
0001
0000
0000
0000
,  // measure 52
0010
0000
0000
0000
,  // measure 53
0000
0000
0000
0000
,  // measure 54
0100
0000
0000
0000
,  // measure 55
0000
0000
0000
0000
,  // measure 56
1000
0000
0000
0000
,  // measure 57
0000
0000
0000
0000
,  // measure 58
0001
0000
0000
0000
,  // measure 59
1000
0000
0000
0000
,  // measure 60
0001
0000
0000
0000
,  // measure 61
1000
0000
0000
0000
,  // measure 62
0010
0000
0000
0000
,  // measure 63
0010
0000
0000
0000
,  // measure 64
0100
0000
0000
0000
,  // measure 65
0100
0000
0000
0000
,  // measure 66
0001
0000
0000
0000
,  // measure 67
0001
0000
0000
0000
,  // measure 68
0000
0001
0000
0000
,  // measure 69
0000
0000
0000
0000
,  // measure 70
0000
1000
0000
0000
,  // measure 71
0000
0000
0000
0000
,  // measure 72
0000
0010
0000
0000
,  // measure 73
0000
0010
0000
0000
,  // measure 74
0000
0100
0000
0000
,  // measure 75
0000
0000
0000
0000
,  // measure 76
0000
0001
0000
0000
,  // measure 77
0000
0000
0000
0000
,  // measure 78
0000
0010
0000
0000
,  // measure 79
0000
0000
0000
0000
,  // measure 80
0000
0100
0000
0000
,  // measure 81
0000
0100
0000
0000
,  // measure 82
0000
1000
0000
0000
,  // measure 83
0000
1000
0000
0000
,  // measure 84
0000
0001
0000
0000
,  // measure 85
0000
0001
0000
0000
,  // measure 86
0000
1000
0000
0000
,  // measure 87
0000
1000
0000
0000
,  // measure 88
0000
0010
0000
0000
,  // measure 89
0000
0010
0000
0000
,  // measure 90
0000
0100
0000
0000
,  // measure 91
0000
0100
0000
0100
;

//---------------dance-single - ----------------
#NOTEDATA:;
#CHARTNAME:;
#STEPSTYPE:dance-single;
#DESCRIPTION:;
#CHARTSTYLE:;
#DIFFICULTY:Easy;
#METER:6;
#RADARVALUES:0.309494,0.410996,0.065157,0.024434,0.000000,266.000000,258.000000,8.000000,3.000000,0.000000,0.000000,0.000000,0.000000,0.000000,0.309494,0.410996,0.065157,0.024434,0.000000,266.000000,258.000000,8.000000,3.000000,0.000000,0.000000,0.000000,0.000000,0.000000;
#CREDIT:;
#NOTES:
0000
0000
0000
0000
,
0000
0000
0000
0000
,
1000
0000
1000
0000
,
0001
0001
0001
0000
,
1000
1000
0001
0001
,
1000
1000
0001
1001
,
1000
0000
1000
0000
,
0001
0000
0001
0000
,
0100
0100
0010
0010
,
0100
0010
0100
0110
,
0010
0000
0010
0000
,
0100
0000
0100
0000
,
0001
0001
0010
0010
,
0100
0100
1000
1100
,
1000
0000
1000
0000
,
0001
0000
0001
0000
,
1000
1000
0100
0100
,
0010
0010
0001
0011
,
0001
0000
0001
0000
,
1000
0000
1000
0000
,
0001
1000
0001
0000
,
0100
0100
0010
0000
,
1000
0001
1000
0000
,
0100
0100
0010
0000
,
0001
0001
1000
0000
,
0010
0010
0100
0000
,
0002
0000
0010
0000
,
0100
0000
1003
0000
,
1000
1000
0001
0000
,
0100
0100
0010
0000
,
0010
0010
0100
0000
,
0001
0001
1000
0000
,
1000
0100
1000
1000
,
0001
0010
0001
0000
,
2000
0000
0010
0000
,
0100
0000
3001
0000
,
0001
1000
0100
0000
,
1000
0001
0100
0000
,
0010
1000
0100
0000
,
0010
0001
0100
0000
,
0001
1000
0010
0000
,
1000
0001
0010
0000
,
0001
1000
0100
0000
,
1000
0001
0100
0000
,
0001
0000
0001
0000
,
0010
0010
0010
0000
,
0100
0000
0100
0000
,
1000
1000
1000
0000
,
0001
0000
0001
0000
,
0100
0100
0100
0000
,
0010
1000
0100
0010
,
0001
0100
0010
0000
,
1000
0000
1000
0000
,
0100
0100
0100
0000
,
0010
0000
0010
0000
,
0001
0001
0001
0000
,
0100
0000
0100
0000
,
0010
0000
0010
0000
,
1000
1000
0001
0001
,
1000
0001
1000
1001
,
0001
0001
1000
1000
,
0001
1000
0001
1001
,
1000
0000
1000
0000
,
0100
0100
0100
0000
,
0010
0000
0010
0000
,
0001
0001
0001
0000
,
0100
0000
0100
0000
,
0010
0010
0010
0000
,
0000
1000
0000
1000
,
0000
0100
0010
0001
,
0000
0001
0000
0001
,
0000
0100
0010
1000
,
0000
0001
0010
0100
,
1000
0010
0100
0001
,
0000
0020
0000
1000
,
0000
0001
0000
0130
,
0000
0010
0000
1000
,
0000
0001
0010
0100
,
0000
1000
0000
0001
,
0000
1000
0010
0100
,
0000
0001
0001
1000
,
1000
0100
0100
0100
,
0000
1000
0000
0001
,
0000
0100
0010
0100
,
0110
0100
0001
1000
,
0000
0100
1000
0001
,
0000
0010
0001
1000
,
0000
0010
1000
0001
,
0000
0010
0001
0100
,
0000
0010
1000
0100
,
0000
1000
0010
0100
,
0001
0010
0100
1001
;

//---------------dance-single - ----------------
#NOTEDATA:;
#CHARTNAME:;
#STEPSTYPE:dance-single;
#DESCRIPTION:;
#CHARTSTYLE:;
#DIFFICULTY:Medium;
#METER:10;
#RADARVALUES:0.504964,0.485723,0.358362,0.114024,0.000000,434.000000,390.000000,44.000000,14.000000,0.000000,0.000000,0.000000,0.000000,0.000000,0.504964,0.485723,0.358362,0.114024,0.000000,434.000000,390.000000,44.000000,14.000000,0.000000,0.000000,0.000000,0.000000,0.000000;
#CREDIT:;
#NOTES:
0000
0000
0000
0000
,
0000
0000
0000
1001
,
1000
0000
0100
0010
0000
0001
0000
0100
,
0000
0100
0010
0000
0100
0000
0001
0000
,
2000
0100
0010
0001
,
0010
0100
3001
1001
,
0001
0000
0100
1000
0000
0100
0000
0010
,
0000
0010
1000
0000
0001
0000
1001
0000
,
0002
0100
0010
1000
,
0010
0100
1003
1001
,
1000
0000
0100
0001
0000
0100
0000
0010
,
0000
0010
0001
0000
1000
0000
1001
0000
,
0200
0001
1000
0010
,
0001
1000
0301
0110
,
1000
0000
0001
0100
0000
0010
0000
0100
,
0000
0001
1000
0000
0110
0000
1001
0000
,
0020
1000
0001
0100
,
1000
0001
1030
0110
,
0001
0000
1000
0100
0000
0010
0000
0100
,
0000
1000
0001
0000
0011
0000
1100
0000
,
0001
0000
1000
0000
0010
0100
0000
0001
,
0000
1000
0000
0100
0010
0000
0011
0000
,
1100
0000
0001
1000
0010
0000
0100
0001
,
0000
0001
1000
0000
0100
0000
0100
0000
,
0110
0000
0010
0000
0100
0000
1000
0020
,
0000
0230
0000
0302
0000
2003
0000
0000
,
3100
0000
0000
0100
0010
0000
0001
1000
,
0000
1000
0001
0000
0100
0000
0010
0000
,
1010
0000
0001
0000
1000
0100
0000
1000
,
0000
0010
0000
0010
0100
0000
0101
0000
,
1001
0000
0001
0000
1000
0000
0100
0010
,
0000
0010
0100
0000
0100
1000
0000
0000
,
1010
0000
0101
0000
0001
1000
0000
0100
,
0000
0100
0000
1000
0000
1000
0000
0000
,
0002
0100
0010
2003
,
0010
0100
3001
1001
,
0001
0000
1000
0100
0000
1000
0000
0010
,
0000
0010
1000
0000
0110
0000
1001
0000
,
1000
0000
0001
0100
0000
0001
0000
0010
,
0000
0010
0001
0000
0110
0000
1001
0000
,
0001
0000
0010
0100
0000
1000
0000
0010
,
0000
0100
0001
0000
1010
0000
0101
0000
,
1000
0000
0100
0010
0000
0001
0000
0100
,
0000
0010
1000
0000
0101
0000
1010
0000
,
0001
0000
0010
0000
0100
0000
1000
0010
,
0000
0010
0000
0100
0001
0000
1000
0000
,
0001
0000
1000
0000
0100
0000
0010
0001
,
0000
0001
0000
1000
0000
1000
0000
0000
,
0010
0000
0010
0000
0100
0000
0100
0001
,
0000
0001
0000
1000
0000
0000
1000
0000
,
0100
0000
0010
0001
0000
0010
0001
0000
,
0100
0010
0000
0100
0010
0000
0110
0000
,
1001
0000
1000
0000
0010
0000
0100
0001
,
0000
0001
0000
1000
0100
0000
0100
0000
,
1000
0000
0010
0000
0100
0000
0001
1000
,
0000
0100
0000
0010
0000
0001
0000
0000
,
0100
0000
0010
0000
1000
0000
0010
0100
,
0000
0100
0000
0001
0000
0001
0000
0000
,
1000
0100
0010
0001
,
0100
0010
0100
1001
,
0001
0010
0100
1000
,
0010
0100
0010
1001
,
2000
0100
0010
0001
,
0010
0100
3001
1000
,
0002
0100
0010
1000
,
0010
0100
1003
0001
,
0200
1000
0010
0001
,
0010
1000
0001
0310
,
0110
0000
1001
0000
0001
0000
0010
0100
,
0000
1000
0000
0010
0000
0100
0001
0000
,
1000
0001
1000
0100
,
0010
0100
0000
1000
0001
0000
0100
0010
,
0000
0010
0100
0001
,
0010
0100
0000
0100
0000
1000
0000
0001
,
0000
0000
0100
0000
0000
0010
0100
0000
,
0100
0001
0000
0001
1000
0000
0001
0000
,
1000
0000
1001
0000
0001
0000
0010
0100
,
0000
1000
0000
0010
0000
0010
0100
0000
,
0001
1000
0100
0010
,
0100
1000
0000
1000
0001
0000
0100
0010
,
0000
0000
0010
0000
0100
0000
0001
0010
,
0000
0100
0000
0100
0000
1000
0000
0001
,
0000
1000
0100
0010
,
0100
1000
0000
1000
0001
0000
0011
0000
,
1100
0000
0001
0100
0000
0010
0000
0100
,
0000
0001
0000
1000
0001
0000
0110
0000
,
1001
0000
1000
0100
0000
0010
0000
0100
,
0000
1000
0000
0001
1000
0000
0110
0000
,
1001
0000
0001
0100
0000
0010
0000
1000
,
0000
0100
0000
0010
0001
0000
0110
0000
,
1001
0002
0100
1000
,
0010
0000
1003
0100
0010
0000
1001
0000
;

//---------------dance-single - ----------------
#NOTEDATA:;
#CHARTNAME:;
#STEPSTYPE:dance-single;
#DESCRIPTION:;
#CHARTSTYLE:;
#DIFFICULTY:Hard;
#METER:13;
#RADARVALUES:0.637605,0.672539,0.423518,0.268771,0.016289,548.000000,496.000000,52.000000,33.000000,0.000000,0.000000,0.000000,0.000000,0.000000,0.637605,0.672539,0.423518,0.268771,0.016289,548.000000,496.000000,52.000000,33.000000,0.000000,0.000000,0.000000,0.000000,0.000000;
#CREDIT:;
#NOTES:
0000
0000
0000
0000
,
0000
0000
0000
1001
,
1000
0100
0010
0001
0000
0100
0010
0100
,
0000
0001
1000
0000
0110
0000
1001
0000
,
0002
0010
0100
1000
,
0100
0010
1003
1001
,
1000
0100
0001
0100
0000
0010
0001
1000
,
0000
1000
0001
0000
0110
0000
1001
0000
,
2000
0010
0100
0001
,
0100
0010
3001
1001
,
0001
0100
1000
0100
0000
0010
1000
0001
,
0000
0001
1000
0000
0110
0000
1001
0000
,
0002
0100
1000
0010
,
1000
0100
1003
0110
,
1000
0010
0001
0010
0000
0100
0001
1000
,
0000
1000
0001
0000
0110
0000
1001
0000
,
2000
0100
0001
0010
,
0001
0100
3001
0110
,
1000
0010
0001
0010
0000
0100
0001
1000
,
0000
1000
0001
0000
0110
0000
1001
0000
,
0001
0000
1000
0100
0010
0001
0000
0100
,
0000
0100
0000
0010
0100
0000
0110
0000
,
1001
0000
0001
0010
1000
0000
0010
0100
,
0000
0100
1000
0000
0001
1000
0001
0000
,
1010
0000
0001
0010
1000
0010
0001
0200
,
0000
0320
0000
2030
0000
3002
0000
0003
,
1100
0000
0000
0001
1000
0000
1000
0010
,
0000
0010
0100
0000
0001
0000
0001
0000
,
0011
0000
0010
0100
1000
0001
0000
0100
,
0000
0100
0000
0010
0100
0000
1010
0000
,
0101
0000
0001
0000
1000
0000
0100
0001
,
0000
0001
0100
0010
0001
1000
0001
0000
,
1010
0000
0101
0000
0001
1000
0000
0020
,
0000
0230
0000
0302
0000
2003
0000
3000
,
0001
0000
0010
0000
0100
0000
1000
0000
0010
0000
0100
0000
0001
0000
1000
0001
,
1000
0100
0010
0001
0100
0000
1001
0000
,
0001
0100
1000
0100
0000
0010
1000
0001
,
0000
0001
1000
0000
0110
0000
1001
0000
,
1000
0100
0001
0100
0000
0010
0001
1000
,
0000
1000
0001
0000
0110
0000
1001
0000
,
1000
0010
0100
0001
0000
0010
0100
1000
,
0000
1000
0001
0000
1100
0000
0011
0000
,
1000
0010
0100
0001
0000
1000
0100
0010
,
0000
0010
0001
0000
1010
0000
0101
0000
,
0001
1000
0001
1000
0100
0010
0000
0002
,
0000
0203
0000
0310
1000
0000
1000
0000
,
1000
0001
1000
0001
1000
0100
0000
0020
,
0000
0230
0000
2300
0000
3020
0000
0030
,
0100
0010
0100
0010
1000
1000
0001
1000
,
0000
0010
0000
0010
0000
0100
0001
1000
,
0100
1000
0010
0100
1000
0100
0001
1000
,
0100
0001
1000
0010
0001
0200
0000
0300
,
1001
1000
0100
0100
1000
0010
1000
0010
,
0000
0010
0000
0100
0001
0000
1000
0000
,
1000
0010
0100
0100
0001
0100
0001
0020
,
0000
0230
0000
2300
0000
3002
0000
1003
,
0001
0010
0100
1000
0010
0100
0001
2000
,
0000
3002
0000
0203
0000
0020
0000
0330
,
1000
0000
0100
0000
0010
0000
0001
0000
0100
0000
0010
0000
1000
0000
0001
1000
,
0001
0010
0100
1000
0010
0100
0001
0000
,
0001
0000
0100
0000
0010
0000
1000
0000
0100
0000
0010
0000
0001
0000
1000
0001
,
1000
0010
0100
0001
0010
0100
1000
0000
,
0001
0100
1000
0100
0010
1000
0001
0010
,
0000
0010
0100
0000
0010
0001
1000
0000
,
0001
0000
0100
0000
1000
0100
0010
1000
,
0000
0001
0000
0010
0100
1000
0001
0000
,
0100
0000
0010
1000
0100
0000
0010
0001
,
0000
0001
0000
0100
0010
1000
0002
0003
,
0110
0000
1001
0000
0001
0010
0100
1000
,
0000
0010
0000
0010
0000
0100
0001
0000
,
1010
0000
0101
0000
1000
0100
0010
0000
,
0010
0001
0000
0001
1000
0000
0010
0100
,
0001
0000
1100
0000
0001
0010
0100
1000
,
0010
0200
0000
2300
0000
3200
0000
0302
,
0000
0000
1003
0000
0000
1000
0100
0000
,
0010
0001
0000
0001
0100
0000
0010
0010
,
0100
0000
1001
0000
0001
1000
0010
0100
,
0000
0001
0000
0001
0000
1000
0100
0000
,
1010
0101
1000
0100
,
0001
0100
0000
1000
0001
0100
1000
0100
,
0001
0000
1010
0000
0101
0000
0001
0010
,
0000
0100
0000
0100
0000
1000
0000
0001
,
1000
0001
1000
0010
0001
0010
1000
0100
,
1000
0000
0001
1000
0001
0000
0100
0000
1000
0000
0100
0000
0001
0000
0000
0000
,
1001
0000
1000
0100
0001
0100
0000
1000
,
0001
1000
0000
1000
0001
0000
1010
0000
,
0101
0000
0001
0010
1000
0010
0000
0001
,
1000
0001
0000
0001
1000
0000
0101
0000
,
1010
0000
1000
0100
0010
0001
0000
0100
,
0010
1000
0000
1000
0001
0000
0110
0000
,
1001
0002
0010
0100
,
1000
0000
0103
0010
0100
0100
1001
0000
;
