#TITLE:All That;
#SUBTITLE:feat. Channel Tres;
#ARTIST:Emotional Oranges;
#TITLETRANSLIT:;
#SUBTITLETRANSLIT:;
#ARTISTTRANSLIT:;
#GENRE:CITRUS FUNK;
#CREDIT:;
#BANNER:All That.png;
#BACKGROUND:All That-bg.png;
#LYRICSPATH:;
#CDTITLE:;
#MUSIC:All That.ogg;
#OFFSET:0.005000;
#SAMPLESTART:43.636002;
#SAMPLELENGTH:17.848999;
#SELECTABLE:YES;
#BPMS:0.000000=110.000000
;
#STOPS:111.500000=0.273000
;
#BGCHANGES:;
#KEYSOUNDS:;
#ATTACKS:;

//---------------dance-single - mikeintyo----------------
#NOTES:
     dance-single:
     mikeintyo:
     Hard:
     14:
     0.604033,0.668168,0.032032,0.104104,0.736737,528.000000,524.000000,4.000000,13.000000,0.000000,0.000000,0.604033,0.668168,0.032032,0.104104,0.736737,528.000000,524.000000,4.000000,13.000000,0.000000,0.000000:
// measure 0
0000
0000
0000
0000
,  // measure 1
0000
0000
0000
0000
,  // measure 2
0000
0000
0000
0000
,  // measure 3
0000
0000
0000
0000
0000
0000
0000
0000
0000
0000
0000
0000
0000
0000
0000
0000
0000
0000
0000
0000
0000
0000
0000
0001
,  // measure 4
0000
0000
0000
1000
0000
0000
0010
0000
0000
0100
0000
0000
0001
0000
0100
0010
0000
0000
1000
0000
0000
1000
0000
0001
,  // measure 5
0000
0000
0100
0000
0000
0010
0000
0000
1000
0000
0000
0100
0000
0000
0001
0000
0000
0100
0000
0000
1000
0000
0000
0010
,  // measure 6
0100
0000
0000
0001
0000
0000
1000
0000
0000
0001
0000
0000
0010
0000
0001
0010
0000
0000
0100
0000
0000
1000
0000
0010
,  // measure 7
0000
0000
0100
0000
0000
0001
0000
0000
0100
0000
0000
1000
0000
0000
0100
0010
0000
0100
0001
0000
0000
0010
0000
0000
,  // measure 8
0100
0000
0000
1000
0000
0000
0001
0000
0000
1000
0000
0000
0100
0000
0000
0010
0000
0000
0001
0000
0000
0100
0000
0010
,  // measure 9
0000
0000
1000
0000
0000
0100
0000
0000
0001
0000
0000
0100
0000
0000
1000
0000
0000
0100
0010
0000
0100
0002
0000
0000
,  // measure 10
0000
0000
0000
0103
0000
0000
1000
0000
0000
0010
0000
0000
0100
0000
0010
0100
0000
0000
0001
0000
0000
1000
0000
0100
,  // measure 11
0000
0000
0010
0100
0000
0000
1000
0000
0000
0010
0000
0100
0000
0000
0001
0100
0000
0000
0102
0000
0000
0000
0000
0000
,  // measure 12
1003
0000
0000
0001
0000
0000
0200
0000
0000
0000
0000
0000
0310
0000
0000
1000
0000
0000
0100
0000
0000
0010
0000
0100
,  // measure 13
0000
0000
1000
0100
0000
0000
0010
0000
0000
0001
0000
0100
0000
0000
0010
1000
0000
0000
0200
0000
0000
0000
0000
0000
,  // measure 14
1300
0000
0000
0100
0000
0000
0010
0000
0000
0100
0000
0000
0001
0000
0100
1000
0000
0000
0010
0000
0000
0100
0000
0001
,  // measure 15
0000
0000
0001
1000
0000
0000
0010
0000
0000
0100
0000
0001
0000
0000
0001
1000
0000
0000
2000
0000
0000
0000
0000
0000
,  // measure 16
3100
0000
0000
0010
0000
0000
0001
0000
0000
0010
0000
0000
0100
0000
0000
1000
0000
0000
0001
0000
0000
1000
0000
0010
,  // measure 17
0000
0000
0010
0100
0000
0000
0001
0000
0000
1000
0000
0100
0000
0000
0100
1000
0000
0001
0000
0000
1000
0010
0000
0000
,  // measure 18
0100
0000
0000
0001
0000
0000
0010
0000
0000
0100
0000
0000
0010
0000
0100
1000
0000
0000
0010
0000
0000
0100
0000
0001
,  // measure 19
0000
0000
0100
0010
0000
0000
1000
0000
0000
0100
0000
0010
0000
0000
0100
1000
0000
0000
0001
0000
0000
0100
0000
0000
,  // measure 20
0010
0000
0000
1000
0000
0000
0001
0000
0100
0010
0000
0000
1000
0000
0000
0001
0000
0000
0100
0000
0000
0010
0000
0100
,  // measure 21
0000
0000
0001
0100
0000
0000
0010
0000
1000
0100
0000
0010
0000
0000
0100
1000
0000
0000
0010
0000
0000
0000
0000
0010
,  // measure 22
0000
0000
0010
0100
0000
0000
0001
0000
0100
0010
0000
0000
1000
0000
0000
0100
0000
0000
0010
0000
0000
0100
0000
1000
,  // measure 23
0000
0000
0100
1000
0000
0000
0010
0000
0100
0001
0000
0100
0000
0000
0100
1000
0000
0100
0000
0000
0100
0010
0000
0000
,  // measure 24
1000
0000
0000
0010
0000
0000
0100
0000
0000
0001
0000
0000
0010
0000
0100
0010
0000
0000
0001
0000
0000
0100
0000
1000
,  // measure 25
0000
0000
0001
0010
0000
0000
1000
0000
0100
0001
0000
0000
1000
0000
0010
0001
0000
0010
0000
0000
0000
0100
0000
0000
,  // measure 26
1000
0000
0100
0001
0000
0000
1000
0000
0010
0001
0000
0000
0100
0000
0010
0100
0000
0000
0001
0000
0000
0100
0000
0010
,  // measure 27
0000
0000
1000
0001
0000
0000
0010
0000
0100
1000
0000
0000
1010
0000
0000
1000
0000
0000
1010
0000
0000
2001
0000
0000
,  // measure 28
3001
0000
0000
0010
0000
0100
1000
0000
0000
1000
0000
0000
0001
0000
0000
0100
0000
0000
0010
0000
0100
0000
0000
0001
,  // measure 29
0100
0000
0000
0010
0000
1000
0100
0000
0000
0010
0000
0100
1000
0000
0000
2000
0000
0000
0000
0000
0000
3100
0000
0000
,  // measure 30
0010
0000
0001
0010
0000
0000
0100
0000
0000
0100
0000
1000
0100
0000
0000
0010
0000
0000
0100
0000
1000
0000
0000
0010
,  // measure 31
1000
0000
0000
0001
0000
0000
0100
0000
0010
0000
0000
0100
0001
0100
0010
2000
0000
0000
3100
0000
0000
0010
0000
0000
,  // measure 32
0100
0000
0000
0001
0000
0000
0200
0000
0000
0320
0000
0000
0031
0000
0000
0100
0000
0000
0010
0000
1000
0000
0000
0010
,  // measure 33
0100
0000
0000
0010
0000
0000
0100
0000
0001
0000
0000
0100
0010
0000
1000
0000
0000
0000
0200
0000
0000
0310
0000
0010
,  // measure 34
0001
0000
0001
0100
0000
0000
0010
0000
1000
0100
0000
0010
0000
0000
0001
0010
0000
0000
0100
0000
1000
0000
0000
0010
,  // measure 35
1000
0000
0000
0001
0000
0000
0100
0000
1000
0000
0000
0100
0001
0000
0000
0010
0000
0000
0100
0000
0000
1000
0000
0000
,  // measure 36
0010
0000
0000
0100
0000
0000
0001
0000
0000
0001
0000
0010
0100
0000
0000
1000
0000
0000
0100
0000
1000
0000
0000
0100
,  // measure 37
0010
0000
0000
0001
0000
0010
0100
0000
1000
0000
0000
0010
0100
0000
0000
0010
0000
0000
1000
0000
0000
0010
0000
0000
,  // measure 38
0100
0000
0000
0010
0000
0000
0001
0000
0000
0010
0000
0100
0001
0000
0000
0010
0000
0000
0100
0000
0010
0000
0000
0100
,  // measure 39
0010
0000
0000
0000
0000
0000
0001
0000
0000
0000
0000
0000
0010
0000
0000
0000
0010
0000
0100
0000
0000
0000
0100
0000
1000
0000
0000
0000
0000
0000
2000
0000
0000
0000
0000
0000
0000
0000
0000
0000
0000
0000
3100
0000
0000
0010
0000
0000
,  // measure 40
0001
0000
0000
0010
0000
0000
0100
0000
0000
0000
0000
0000
0100
0000
0000
0010
0000
0000
0100
0000
0000
1000
0000
0000
0100
0000
0000
0010
0000
0000
0001
0000
0000
0000
0000
0000
0010
0000
0000
0000
0001
0000
0010
0000
0000
0000
0001
0000
,  // measure 41
0100
0000
0001
1000
0000
0001
0100
0000
0001
0010
0000
0001
0000
0000
0010
0100
0000
0000
1000
0000
0100
1000
0000
0010
,  // measure 42
1000
0000
0001
1000
0000
0010
1000
0000
0100
1000
0000
0100
0000
0000
0010
0100
0000
0000
1000
0000
0001
0100
0000
0000
,  // measure 43
0001
0000
0000
0010
0000
0100
0010
0000
1000
0010
0000
0100
0010
0000
0001
0010
0000
0000
0001
0000
0000
1000
0000
0000
,  // measure 44
0100
0000
0000
1000
0000
0000
0010
0000
0000
0100
0000
0001
0100
0000
0000
0010
0000
0000
1000
0000
0100
0000
0000
1000
,  // measure 45
0100
0000
0000
0001
0000
0100
1000
0000
0000
0010
0000
0100
0001
0000
0000
0020
0000
0000
0130
0000
0010
0000
0000
0001
,  // measure 46
0010
0000
0000
1000
0000
0010
0001
0000
0000
0100
0000
0010
1000
0000
0000
0001
0000
0000
0100
0000
1000
0000
0000
0100
,  // measure 47
0001
0000
0000
0010
0000
0100
0010
0000
0000
0001
0000
1000
0001
0000
0000
0100
0000
0010
0100
0000
0000
0001
0000
0000
,  // measure 48
0100
0000
0000
0010
0000
0000
1000
0000
0000
0100
0000
1000
0010
0000
0000
0100
0000
0000
0001
0000
0100
0000
0000
0100
,  // measure 49
0010
0000
0000
1000
0000
0010
0100
0000
0001
0000
0000
0100
0010
0000
1000
0000
0000
0100
0010
0000
0100
0000
0000
1000
,  // measure 50
0100
0000
0000
0010
0000
0001
0010
0000
0000
0100
0000
1000
0100
0000
0000
0010
0000
0000
0001
0000
0100
0000
0000
0010
,  // measure 51
0100
0000
0000
0001
0000
0100
0100
0000
0000
1000
0000
0100
0100
0000
0000
0001
0000
0100
1000
0000
0100
0001
0000
0000
,  // measure 52
0100
0000
0000
0010
0000
0000
0100
0000
0000
0001
0000
0100
0100
0000
0000
1000
0000
0000
0001
0000
1000
0000
0000
0010
,  // measure 53
0010
0000
0000
0001
0000
0010
0010
0000
0000
1000
0000
0100
1000
0000
0001
0000
0000
0100
0010
0000
0000
1000
0000
0000
,  // measure 54
0001
0000
0000
1000
0000
0000
0010
0000
0000
0100
0000
0000
0010
0000
0000
1000
0000
0000
0100
0000
1000
0000
0000
0010
,  // measure 55
0010
0000
0000
0001
0000
0100
0100
0000
0000
1000
0000
0000
0000
0000
0000
0001
0000
0000
0000
0000
0000
0000
0000
0000
;
