#VERSION:0.83;
#TITLE:Alismonitos Lethaeus;
#SUBTITLE:;
#ARTIST:Silentroom;
#TITLETRANSLIT:;
#SUBTITLETRANSLIT:;
#ARTISTTRANSLIT:;
#GENRE:;
#CREDIT:;
#MUSIC:Alismonitos Lethaeus.ogg;
#BANNER:Alismonitos Lethaeus-bn.png;
#BACKGROUND:Alismonitos Lethaeus-bg.png;
#CDTITLE:;
#SAMPLESTART:40.428;
#SAMPLELENGTH:15.000;
#SELECTABLE:YES;
#OFFSET:1.256;
#BPMS:0.000=190.000;
#STOPS:;
#BGCHANGES:;
#FGCHANGES:;

//--------------- dance-single - ----------------
#NOTEDATA:;
#STEPSTYPE:dance-single;
#DESCRIPTION:;
#DIFFICULTY:Medium;
#METER:10;
#RADARVALUES:0,0,0,0,0;
#CREDIT:Talkion;
#NOTES:
0000
0000
0000
0000
,
0000
0000
0000
0000
,
0000
0000
0000
0000
,
0000
0000
0000
0000
,
0000
0000
0000
0000
,
0000
0000
0000
0000
,
0000
0000
0000
0000
,
0000
0000
0000
0000
,
0000
0000
0000
0000
,
1000
0100
0001
0000
,
0100
1000
0001
0000
,
1000
0010
0001
0000
,
0010
1000
0001
0020
,
0130
0010
1000
0000
,
0010
0001
1000
0000
,
0001
0200
1000
0310
,
0100
0000
0010
0100
0001
0000
1000
0000
,
0200
0000
0000
0310
0200
0000
0000
0000
,
2300
0000
0000
0000
,
3002
0000
0000
0013
0002
0000
0000
0000
,
2003
0000
0000
0000
,
3020
0000
0000
0130
0020
0000
0000
0000
,
2030
0000
0000
0000
,
3002
0000
0000
0103
0002
0000
0000
0000
,
2003
0000
0100
0100
,
3001
0100
0010
1000
,
0001
0001
0010
0001
,
1000
0100
0010
0001
,
1000
1000
0010
1000
,
0001
0100
0010
0000
1000
0000
0001
0000
,
0010
0100
1000
0000
0001
0000
0100
0000
,
0010
0100
0010
0100
0010
0100
0002
0000
,
1003
0100
0010
0001
,
1000
0000
0000
2000
0000
3020
0000
0032
,
0000
0023
0000
0230
0000
0302
0000
2003
,
0100
0000
0000
3002
0000
0203
0000
2300
,
0000
3200
0000
0320
0000
2030
0000
3002
,
0000
0010
0000
2003
0000
3200
0000
0302
,
0000
0203
0000
0320
0000
0032
0000
2003
,
0010
0000
3010
0100
0001
0000
0101
0000
,
1010
0000
1000
0000
0001
0010
0100
0000
,
1000
2000
0001
0000
0000
3020
0000
0032
,
0000
0023
0000
0230
0000
0302
0000
2003
,
0010
0000
0000
3002
0000
0023
0000
2030
,
0000
3020
0000
0230
0000
2300
0000
3002
,
0000
0010
0000
2003
0000
3020
0000
0032
,
0000
0023
0000
0230
0000
0302
0000
0000
,
1003
0000
0001
0010
0000
1000
0010
0000
,
0001
0010
0000
1000
0010
0000
0001
0000
,
2000
0100
3002
0000
,
0100
0000
0103
1200
,
0000
0000
1000
0000
,
0010
0000
0310
0201
,
0000
0000
0001
0000
,
0010
0000
0310
1200
,
0000
0000
1000
0000
,
0010
0000
0001
0300
,
0021
0000
0001
0000
,
0100
0000
0130
1020
,
0000
0000
1000
0000
,
0100
0000
0100
0030
,
1002
0000
1000
0000
,
0010
0000
0013
1020
,
0000
0000
1000
0000
,
0100
0000
0100
2030
,
3002
0000
0000
0013
0002
0000
0000
0000
,
0000
0000
0000
0000
,
0000
0000
0000
0000
,
0000
0000
0000
0000
,
0003
0000
0000
0000
,
0000
0000
0000
0000
,
0000
0000
0000
0000
,
0000
0000
0000
0000
,
1000
0010
0001
0010
,
1000
0001
0010
0001
,
1000
0100
0001
0100
,
1000
0001
0100
0001
,
1000
0100
1000
0000
0001
0100
0001
0000
,
1000
0100
1000
0000
0001
0100
0001
0000
,
1000
0100
1000
0100
0010
0001
0010
0001
,
0000
0000
0000
0000
,
1001
0000
1000
0010
0000
1010
0000
0110
,
0000
0011
0000
0110
0000
1010
0000
1000
,
0001
0000
1000
0100
0000
1100
0000
0110
,
0000
0101
0000
0110
0000
1100
0000
1000
,
0000
0001
0000
0001
0000
0101
0000
0110
,
0000
1100
0000
0110
0000
0101
0000
0001
,
1000
0000
0010
0100
0001
0000
0101
0000
,
1010
0000
1000
0001
0010
0100
1000
0000
,
0001
0002
1000
0000
0000
0203
0000
2300
,
0000
3002
0000
0023
0000
2030
0000
3002
,
0100
0000
0000
2003
0000
3200
0000
0302
,
0000
2003
0000
3020
0000
0032
0000
2003
,
0000
0100
0000
3002
0000
0203
0000
2300
,
0000
3002
0000
0023
0000
2030
0000
0000
,
3001
0000
1000
0100
0000
0001
0100
0000
,
1000
0100
0000
0001
0100
0000
1000
0000
,
0001
0010
1000
0000
,
0010
0001
1000
0000
,
0001
0100
1000
0000
,
0100
0001
1000
0200
,
0310
0100
0001
0000
,
0100
1000
0001
0000
,
1000
0010
0000
1000
0010
0000
0100
0000
,
0001
0000
1000
0001
1000
0001
0010
0000
,
0001
0010
0110
0000
,
1000
0010
0101
0000
,
1000
0100
0110
0000
,
0001
0100
1010
0002
,
1003
0100
0110
0000
,
0001
0100
1010
0000
,
0001
0000
1000
0100
1000
0000
0001
0000
,
0100
0100
0020
0000
,
0030
0000
0000
0000
;

//--------------- dance-single - ----------------
#NOTEDATA:;
#STEPSTYPE:dance-single;
#DESCRIPTION:;
#DIFFICULTY:Hard;
#METER:13;
#RADARVALUES:0,0,0,0,0;
#OFFSET:1.256;
#BPMS:0.000=190.000;
#STOPS:;
#SPEEDS:0.000=1.000=0.000=0,
260.000=0.500=16.000=0,
292.000=1.000=32.000=0
;
#SCROLLS:0.000=1.000;
#CREDIT:Talkion;
#NOTES:
0000
0000
0000
0000
,
0000
0000
0000
0000
,
0000
0000
0000
0000
,
0000
0000
0000
0000
,
0000
0000
0000
0000
,
0000
0000
0000
0000
,
0000
0000
0000
0000
,
0000
0000
0000
0000
,
0000
0000
0000
0000
,
1000
0000
0200
0000
0310
0000
0001
1000
,
0100
1000
0002
0000
0103
0000
0010
0000
,
1000
0000
0020
0000
0130
0000
0001
1000
,
0010
1000
0002
0000
0013
0000
0100
0100
,
1000
0000
0002
0000
0103
0000
0010
1000
,
0001
1000
0020
0000
0130
0000
0001
0000
,
1000
0000
0100
0020
0001
0000
0130
0000
,
2000
0000
3010
0010
0100
0001
1000
0000
,
2001
0000
0000
0000
0000
0000
3100
0010
0002
0000
0000
0000
0000
0000
0000
0000
,
0203
0000
0000
0000
,
0320
0000
0000
0000
0000
0000
1030
0001
0020
0000
0000
0000
0000
0000
0000
0000
,
0230
0000
0000
0000
,
2300
0000
0000
0000
0000
0000
3010
0100
0002
0000
0000
0000
0000
0000
0000
0000
,
1003
0000
0001
0010
0100
0010
1000
0010
,
0200
0000
0000
0000
0000
0000
1300
0001
0200
0000
0000
0000
0000
0000
0000
0000
,
0320
0000
1000
0130
,
0001
0000
0000
0100
0000
0000
0010
0000
0110
0000
0000
0000
1001
0000
0000
0000
,
1000
0000
0001
0010
0100
0000
1000
0000
0001
0000
0000
0000
0101
0000
0000
0000
,
1000
0000
0000
0010
0000
0000
0100
0000
0110
0000
0000
0000
1001
0000
0000
0000
,
0001
0000
1000
0100
0010
0000
0001
0000
1000
0000
0000
0000
1010
0000
0000
0000
,
0001
0010
0100
0000
1000
0010
0100
0000
,
0001
0100
0010
0000
1000
0100
0010
0000
,
0001
0000
0010
0000
0100
0000
1000
0000
0001
0000
0100
0000
0010
0100
0010
0100
,
0001
1000
0100
0010
0001
1000
0002
0000
,
0203
0000
0300
0100
0020
1000
0000
0100
,
0000
0001
0000
1030
0021
0001
0000
0100
,
0100
0000
0000
0031
1020
1000
0000
0100
,
0000
0001
0000
1030
0021
0001
0000
0130
,
1000
0001
1000
0010
0200
0001
0000
0010
,
0000
1000
0000
0301
1200
1000
0000
0010
,
0310
0001
1000
0001
0100
0010
1000
0010
,
0002
0000
0013
0100
0001
0000
1002
0000
,
0013
0020
0100
0030
1020
1000
0000
0100
,
0000
0001
0000
1030
0021
0001
0000
0100
,
0100
0000
0000
0031
1020
1000
0000
0100
,
0000
0001
0000
1030
0011
0001
1000
0100
,
0020
0001
0030
0001
1020
1000
0000
0100
,
0000
0001
0000
1030
0021
0001
0000
0031
,
1000
0100
0100
0001
0100
0100
1000
0100
,
0100
0001
0100
0100
0020
0000
0032
0000
,
2003
0100
3002
0000
,
0100
0000
0103
1200
,
0000
0000
1000
0000
,
0010
0000
0310
0201
,
0000
0000
0001
0000
,
0010
0000
0310
1200
,
0000
0000
1000
0000
,
0010
0000
0001
0300
,
0021
0000
0001
0000
,
0100
0000
0130
1020
,
0000
0000
1000
0000
,
0100
0000
0100
0030
,
1002
0000
1000
0000
,
0010
0000
0013
1020
,
0000
0000
1000
0000
,
0100
0000
0100
2030
,
3002
0000
0000
0000
0000
0000
0013
0100
2000
0000
0000
0000
0000
0000
0000
0000
,
0000
0000
0000
0000
,
0000
0000
0000
0000
,
0000
0000
0000
0000
,
3000
0000
0000
0000
,
0000
0000
0000
0000
,
0000
0000
0000
0000
,
0000
0000
0000
0000
,
0001
0100
1000
0010
,
0001
0100
0010
1000
,
0001
0010
1000
0100
,
0001
0010
0100
1000
,
0001
0100
0010
1000
0100
1000
0001
0010
,
0100
1000
0010
1000
0001
0100
0010
1000
,
0001
0000
1000
0010
1000
0000
0001
0010
0001
0000
1000
0010
1000
0000
0001
1000
,
0100
0100
0100
0100
,
1001
0000
1000
0010
0100
0001
0100
0010
,
0100
1000
0100
0001
0100
0010
0100
1000
,
0100
0001
1000
0100
0010
0001
0010
0100
,
0010
1000
0010
0001
0010
0100
0010
1000
,
0010
0010
0001
0100
0010
1000
0010
0100
,
0010
0001
0010
1000
0010
0100
0010
0001
,
0010
1000
0001
0010
0100
1000
0100
0010
,
0100
0001
0100
1000
0002
0100
2003
0000
,
3010
0020
1000
0030
0021
0001
0000
0100
,
0000
0000
1000
0000
0000
0000
0031
0000
1010
0000
0000
0000
1000
0000
0010
0200
,
0001
0000
0000
0301
1200
1000
0000
0010
,
0000
0000
0001
0000
0000
0000
1300
0000
1100
0000
0000
0000
1000
0000
0001
0100
,
0020
1000
0000
1030
0021
0001
0000
0100
,
0000
0000
1000
0000
0000
0000
0031
0000
1010
0000
0000
0000
1000
0000
0010
0100
,
0001
0100
0100
1000
0100
0100
0001
0100
,
0100
0000
1000
0000
0100
0000
0100
0000
0010
0000
1000
0000
0001
0000
0010
0100
,
1000
0000
0200
0000
0310
0000
0001
1000
,
0010
1000
0002
0000
0103
0000
0010
0000
,
1000
0000
0020
0000
0130
0000
0001
1000
,
0100
1000
0002
0000
0013
0000
0100
0100
,
1000
0000
0002
0000
0103
0000
0010
1000
,
0001
1000
0020
0000
0130
0000
0001
0000
,
1000
0100
0100
0010
0001
0100
0100
0020
,
1030
0001
1000
1000
0100
0100
0100
0020
,
0031
0000
0020
0000
0130
0000
1000
0001
,
0010
0001
2000
0000
3010
0000
0100
0000
,
0001
0000
0200
0000
0310
0000
1000
0001
,
0100
0001
2000
0000
3100
0000
0010
0010
,
0001
0000
2000
0000
3010
0000
0100
0001
,
1000
0001
0200
0000
0310
0000
1000
1000
,
0001
0000
0010
0200
1000
0000
0310
0000
,
0011
1010
0021
0000
,
0030
0000
0000
0000
;

//--------------- dance-single - ----------------
#NOTEDATA:;
#STEPSTYPE:dance-single;
#DESCRIPTION:;
#DIFFICULTY:Challenge;
#METER:15;
#RADARVALUES:0,0,0,0,0;
#OFFSET:1.256;
#BPMS:0.000=190.000;
#STOPS:;
#SPEEDS:0.000=1.000=0.000=0,
260.000=0.500=16.000=0,
292.000=1.000=32.000=0
;
#SCROLLS:0.000=1.000;
#CREDIT:Talkion;
#NOTES:
0000
0000
0000
0000
,
0000
0000
0000
0000
,
0000
0000
0000
0000
,
0000
0000
0000
0000
,
0000
0000
0000
0000
,
0000
0000
0000
0000
,
0000
0000
0000
0000
,
0000
0000
0000
0000
,
0000
0000
0000
0000
,
1000
0000
0200
0000
0310
0000
0001
1000
,
0100
1000
0002
0000
0103
0000
0010
0000
,
1000
0000
0020
0000
0130
0000
0001
1000
,
0010
0000
1000
0000
0002
0000
0000
0000
0013
0000
0000
0000
0100
0000
1000
0100
,
1000
0000
0002
0000
0103
0000
0010
1000
,
0001
1000
0020
0000
0130
0000
0001
0000
,
1000
0000
0100
0020
0001
0000
0130
0000
,
1000
0001
1000
0001
0100
0000
0200
0000
0010
0000
0000
0000
0302
0000
0000
0000
,
2003
0000
0000
0000
0000
0000
3100
0010
0002
0000
0000
0000
0000
0000
0000
0000
,
0203
0000
0000
0000
,
0320
0000
0000
0000
0000
0000
1030
0001
0020
0000
0000
0000
0000
0000
0000
0000
,
0230
0000
0000
0000
,
2300
0000
0000
0000
0000
0000
3010
0100
0002
0000
0000
0000
0000
0000
0000
0000
,
1003
0000
0001
0010
0100
0010
1000
0010
,
0200
0000
0000
0000
0000
0000
1300
0001
0200
0000
0000
0000
0000
0000
0000
0000
,
0320
0000
1000
0130
,
0001
0000
0000
0100
0010
0000
1000
0000
0010
0100
0000
0000
0001
0000
0000
0000
,
1000
0000
0001
0010
0001
0000
1000
0000
0010
0100
0000
0000
0001
0000
0000
0000
,
1000
0000
0000
0100
0010
0000
0001
0000
0010
0100
0000
0000
1000
0000
0000
0000
,
0001
0000
1000
0100
1000
0000
0001
0000
0100
0010
0000
0000
1000
0000
0000
0000
,
0001
1000
0010
1000
0001
1000
0100
0010
,
1000
0010
0001
0010
1000
0010
0001
0010
,
0100
1000
0100
0000
1000
0001
1000
0000
0001
0100
0001
0100
0010
1000
0010
1000
,
0001
0100
0010
1000
0100
1000
0002
0000
,
0023
0000
0030
0010
0200
1000
0000
0010
,
0000
0001
0000
1300
M200
0001
0000
0010
,
0010
0000
0000
0301
020M
1000
0000
0010
,
0000
0001
0000
1300
M200
0001
0000
0310
,
1000
0001
0010
0001
002M
1000
0000
0100
,
0000
0001
0000
1030
M020
0001
0000
0100
,
0130
1000
0001
1000
0010
0100
0001
0100
,
2000
0000
3100
0010
1000
0001
0010
0100
,
1000
1000
0002
0000
0023
0100
0000
0001
,
0000
1000
0000
0031
002M
1000
0000
0100
,
0100
0000
0000
1030
M020
0100
0000
0001
,
0000
0000
1000
0000
0000
0000
0031
0000
001M
0000
1000
0000
0001
0010
0001
0010
,
0200
1000
0300
1000
M200
0001
0000
0010
,
0000
1000
0000
0301
020M
1000
0000
0010
,
0310
0000
0001
0010
0100
0000
1000
0000
0001
0010
0100
0000
1000
0000
0001
0100
,
0010
0000
1000
0000
0001
0100
0010
0000
0200
0000
0000
0000
0302
0000
0000
0000
,
2003
0000
0000
3100
0010
0001
2000
0000
0000
0000
0000
0000
,
0100
0000
0000
0000
0000
0000
3001
0000
0000
0000
0000
0000
1000
0000
0001
0000
0100
0000
0020
0000
0000
0001
0000
0000
,
0000
0000
0000
0000
0000
0000
0130
0010
2000
0000
0000
0000
0000
0000
0000
0000
,
0001
0000
0000
0000
0000
0000
3100
0010
0001
1000
0100
1000
,
0002
0000
0000
0100
0000
0000
1003
0000
0000
0001
0100
0010
,
1000
0000
0000
0001
0010
0100
1000
0001
0100
0010
0100
2000
,
0000
0000
0000
0000
0000
0000
0000
0000
3100
0000
0010
0000
0100
0000
0000
0010
0000
0000
1000
0000
0000
0002
0000
0000
,
0000
0000
0000
0000
0000
0000
0013
0000
0100
0000
0010
0000
0100
0000
0000
0002
0000
0000
0000
0000
0000
0000
0000
0000
,
0203
0000
0000
0000
0000
0000
0000
0000
0310
0000
0001
0000
0010
0000
0000
0001
0000
0000
1000
0000
0010
0000
1000
0000
,
0001
0010
0100
1000
0001
0100
0020
0000
0000
1030
0001
0010
,
0100
0000
0000
1000
0000
0000
0001
0000
0010
0000
0001
0000
1000
0000
0010
0000
0100
0000
0001
0000
1000
0000
0100
0000
,
0010
0000
0000
0000
0000
0000
0100
0000
0010
0000
0001
0000
2000
0000
0000
0010
0000
0000
0000
0000
0000
0000
0000
0000
,
3001
0010
0100
0010
0001
1000
0010
0100
0010
0002
0000
0000
,
0000
0000
0000
0000
0000
0000
0000
0000
0000
0000
0000
0000
0013
0000
0000
0000
0100
0000
0000
0000
0010
0000
0000
0000
0100
0000
0000
0000
0001
0000
0000
0000
0000
0000
0000
0000
1000
0000
0000
0001
0000
0000
0020
0000
0000
0000
0000
0000
,
0000
0000
0000
0031
1000
0010
0200
0000
0000
0000
0000
0000
,
0010
0000
0010
0302
,
2003
0000
0000
0000
0000
0000
3100
0010
0002
0000
0000
0000
0000
0000
0000
0000
,
0000
0000
0000
0000
,
0000
0000
0000
0000
,
0000
0000
0000
0000
,
0003
0000
0000
0000
,
0000
0000
0000
0000
,
0000
0000
0000
0000
,
0000
0000
0000
0000
,
1000
0010
0001
0100
,
1000
0010
0100
0001
,
1000
0100
0001
0010
,
1000
0100
0010
0001
,
1000
0010
0100
0001
0010
0001
1000
0100
,
0010
0001
0100
0001
1000
0100
0010
0001
,
1000
0000
0001
0100
0001
0000
1000
0100
1000
0000
0001
0100
0001
0000
1000
0001
,
0010
0010
0010
0010
,
2100
0000
3001
0100
0040
1000
0000
0100
,
0000
0001
0000
1000
0000
0100
0000
0031
,
0010
1000
0001
0010
0400
1000
0000
0010
,
0000
0001
0000
1000
0000
0010
0000
0301
,
0100
0100
1000
0010
0400
0001
0000
0010
,
0000
1000
0000
0001
0000
0010
0000
1300
,
0100
0001
1000
0100
0040
0001
0000
0100
,
0000
1000
0000
0031
0110
1000
0020
0000
,
0130
0200
0001
0300
020M
1000
0000
0010
,
0000
0000
0001
0000
0000
0000
1300
0000
M100
0000
0001
0000
1000
0100
1000
0100
,
0020
0000
0000
0031
002M
1000
0000
0100
,
0000
0000
0001
0000
0000
0000
1030
0000
M010
0000
0001
0000
1000
0010
1000
0010
,
0200
0001
0300
0001
020M
1000
0000
0010
,
0000
0000
0001
0000
0000
0000
1300
0000
M100
0000
0001
0000
1000
0100
1000
0100
,
0010
0000
0100
0010
0001
0000
1000
0000
0100
0010
0001
0000
1000
0000
0010
0100
,
0001
0000
1000
0000
0010
0100
0001
0000
1000
0000
0001
0000
0010
0000
0100
0010
,
0001
0000
0020
0000
0130
0000
1000
0001
,
0100
0001
2000
0000
3010
0000
0100
0000
,
0001
0000
0200
0000
0310
0000
1000
0001
,
0010
0000
0001
0000
2000
0000
0000
0000
3100
0000
0000
0000
0010
0000
0001
0010
,
0001
0000
2000
0000
3010
0000
0100
0001
,
1000
0001
0200
0000
0310
0000
1000
0000
,
0001
0010
0010
0100
1000
0010
0010
0200
,
0301
1000
0001
0001
0010
0010
0010
0200
,
1300
0000
0200
0000
0310
0000
0001
1000
,
0100
1000
0002
0000
0103
0000
0010
0000
,
1000
0000
0020
0000
0130
0000
0001
1000
,
0010
0000
1000
0000
0002
0000
0000
0000
0013
0000
0000
0000
0100
0000
1000
0100
,
1000
0000
0002
0000
0103
0000
0010
1000
,
0001
0000
1000
0000
0020
0000
0000
0000
0130
0000
0000
0000
0001
0000
1000
0001
,
1000
0000
0100
0020
0001
0000
0130
0000
,
1100
0000
0000
0000
0101
0000
0000
0000
0001
0000
1000
0100
1000
0100
1000
0100
;
