#TITLE:Alice, Who The F..k Is Alice?;
#SUBTITLE:;
#ARTIST:The Steppers;
#TITLETRANSLIT:;
#SUBTITLETRANSLIT:;
#ARTISTTRANSLIT:;
#GENRE:;
#CREDIT:;
#MUSIC:Alice (Who The F..k Is Alice).ogg;
#BANNER:Alice (Who The F..k Is Alice).png;
#BACKGROUND:Alice (Who The F..k Is Alice)-bg.png;
#CDTITLE:cdtitle.png;
#SAMPLESTART:38.501;
#SAMPLELENGTH:15.000;
#SELECTABLE:YES;
#OFFSET:1.615;
#BPMS:0.000=147.882;
#STOPS:;
#LASTBEATHINT:1.515790;
#BGCHANGES:0.000=1.000=0.000=0=0=0=StretchNoLoop====,
4.000=Alice (Who The F..k Is Alice).avi=1.000=0=0=1,
99999.000=-nosongbg-=1.000=0=0=0=StretchNoLoop====
;
#FGCHANGES:;

//--------------- dance-single - RaverAce ----------------
#NOTES:
     dance-single:
     RaverAce:
     Beginner:
     5:
     0.142857,0.212917,0.166667,0,0,120,100,20,0,0,0,0.142857,0.212917,0.166667,0,0,120,100,20,0,0,0:
0000
0000
0000
0000
,
0000
0000
0000
0000
,
0000
0000
0000
0000
,
0000
0000
0000
0000
,
0000
0000
0000
0000
,
1001
0000
0000
0000
,
0100
0000
0000
0000
,
0010
0000
0000
0000
,
0100
0100
0100
0000
,
1001
0000
0000
0000
,
0000
0000
0000
0000
,
1001
0000
0000
0000
,
0000
0000
0000
0000
,
1001
0000
0000
0000
,
0000
0000
0000
0000
,
1001
0000
0000
0000
,
0100
0000
0000
0000
,
1000
0000
1000
0000
,
0001
0000
0001
0000
,
0100
0000
0100
0000
,
0010
0000
0010
0000
,
1000
0000
0001
0000
,
0010
0000
0100
0000
,
1000
0000
0001
0000
,
1001
1001
1001
0000
,
1001
0000
0000
0000
,
0000
0000
0000
0000
,
1001
0000
0000
0000
,
0000
0000
0000
0000
,
1001
0000
0000
0000
,
1001
0000
0000
0000
,
0100
0000
0010
0000
,
0001
0000
0001
0000
,
0100
0000
0100
0000
,
0100
0000
0000
0000
,
0010
0000
0010
0000
,
0010
0000
0000
0000
,
1000
0000
0010
0000
,
0100
0000
0001
0000
,
1001
0000
1000
0000
,
0001
0000
1000
0000
,
0010
0010
0010
0000
,
0100
0100
0100
0000
,
0001
0001
0001
0000
,
1000
1000
1000
0000
,
0010
0000
0010
0000
,
0010
0000
0010
0000
,
0100
0000
0100
0000
,
0001
0000
1000
0000
,
1001
0000
0000
0000
,
0000
0000
0000
0000
,
0100
0000
0000
0000
,
0000
0000
0000
0000
,
1000
0000
0001
0000
,
1000
0000
0001
0000
,
1001
0000
1001
0000
,
0100
0000
0000
0000
,
1001
0000
0000
0000
,
0000
0000
0000
0000
,
1001
0000
0000
0000
,
0000
0000
0000
0000
,
1001
0000
0000
0000
,
1001
0000
0000
0000
,
0100
0000
0010
0000
,
1000
0000
1000
0000
,
0100
0000
0100
0000
,
0100
0000
0000
0000
,
0010
0000
0010
0000
,
0010
0000
0000
0000
,
0001
0000
0010
0000
,
0100
0000
1000
0000
,
1001
0000
0001
0000
,
1000
0000
0001
0000
,
1001
0000
0000
0000
;

//--------------- dance-single - RaverAce ----------------
#NOTES:
     dance-single:
     RaverAce:
     Easy:
     9:
     0.394048,0.45625,0.2,0.2,0,331,307,24,24,0,0,0.394048,0.45625,0.2,0.2,0,331,307,24,24,0,0:
0000
0000
0000
0000
,
0000
0000
0000
0000
,
0000
0000
0000
0000
,
0000
0000
0000
0000
,
0000
0000
0000
0000
,
2001
0000
0000
0100
0000
3100
0000
0000
,
1100
0000
1000
0000
0001
1000
0001
0000
,
0102
0000
0000
0103
0001
1000
0000
0000
,
0100
1000
0100
1000
0100
1000
1100
0000
,
1001
0001
0100
0010
,
1000
0010
0100
0001
,
1000
0100
0001
0100
,
1000
0010
0200
0310
,
0100
0001
1000
0100
,
0010
0001
0010
0100
,
1000
0010
0001
0010
,
1000
0010
0100
0001
,
1001
1000
0100
0010
,
0001
0010
0100
1000
,
0001
0100
1000
0100
,
0001
0010
0200
0310
,
0100
1000
0001
0100
,
0010
1000
0010
0100
,
0001
0010
1000
0010
,
1001
1001
1001
0001
,
1001
0000
1000
0000
0010
0010
0000
0010
,
0100
0000
0100
0010
0200
0000
0000
0301
,
0100
0010
0100
0001
,
1000
0001
1000
0001
1000
0000
0100
0000
,
1100
1000
0001
0000
,
0101
0000
0001
0000
2000
0000
0000
3100
,
1000
0200
0000
0000
1300
0002
0000
0000
,
0103
0010
1000
0001
1000
0002
0000
0000
,
1003
0000
1000
0000
1000
0000
0001
1000
,
0000
1000
0001
1000
0002
0000
0000
0103
,
0001
1000
0001
0000
1000
0100
1000
0000
,
0010
0100
0010
0100
0010
0000
0100
0000
,
1001
1000
0001
1000
,
0010
0000
0100
0000
0020
0000
0000
0130
,
0010
0100
0000
0000
0100
0002
0000
0000
,
1003
0001
1000
0001
1000
0000
1001
0000
,
1100
0100
0010
0100
,
1000
0100
0001
0100
,
1000
0010
0100
0001
,
0100
1000
0100
0001
,
0101
0100
0010
0100
,
0001
0100
1000
0100
,
0001
0010
0100
1000
,
0100
0001
0100
1000
,
0002
1000
0000
1000
0000
1000
0000
1000
,
0000
1000
0000
1000
0000
1003
1010
0000
,
2000
0001
0000
0001
0000
0001
0000
0001
,
0000
0001
0000
0001
0000
3001
0011
0000
,
1001
1000
0010
0100
,
0001
0010
0100
1000
,
0001
0100
1000
0100
,
0001
0010
0100
1000
,
1001
0000
0001
0000
0100
0100
0000
0100
,
0010
0000
0010
0100
0020
0000
0000
1030
,
0010
0100
0010
1000
,
0001
1000
0001
1000
0001
0000
0010
0000
,
0011
0001
1000
0000
,
1010
0000
1000
0000
0002
0000
0000
0013
,
0001
0020
0000
0000
0031
2000
0000
0000
,
3010
0100
0001
1000
0001
2000
0000
0000
,
3001
1000
0001
0000
0002
0000
1003
0001
,
0000
0001
1000
0001
2000
0000
0000
3010
,
1000
0001
1000
0000
0001
0010
0001
0000
,
0100
0010
1000
0010
0200
0000
0310
0000
,
1001
0001
1000
0001
,
0100
0000
0010
0000
0200
0000
0000
0310
,
0100
0010
0000
0100
0010
2000
0000
0000
,
3001
1000
0001
1000
0001
0000
1000
0001
,
0011
0000
0000
0000
;

//--------------- dance-single - RaverAce ----------------
#NOTES:
     dance-single:
     RaverAce:
     Medium:
     11:
     0.507143,0.5475,0.25,0.116667,0,426,396,30,14,0,0,0.507143,0.5475,0.25,0.116667,0,426,396,30,14,0,0:
0000
0000
0000
0000
,
0000
0000
0000
0000
,
0000
0000
0000
0000
,
0000
0000
0000
0000
,
0000
0000
0000
0000
,
1000
0010
1000
0000
0010
0100
0010
0000
,
0100
0001
0100
0010
0100
0001
1000
0000
,
0010
1000
0001
0000
0010
0001
1000
0000
,
0010
0100
0010
0100
0001
1000
0100
0000
,
1100
1000
0010
0100
,
0001
0000
0100
0000
0010
1000
0010
0000
,
0100
0001
0010
0100
,
1000
0000
0100
0000
0010
0000
0001
1000
,
0010
0100
0001
0100
,
1000
0100
0001
0010
,
0100
0010
0100
0000
1000
0100
1000
0000
,
0001
1000
0001
1000
0010
0000
0110
0000
,
0101
0001
0010
0100
,
1000
0000
0100
0000
0010
0001
0010
0000
,
0100
1000
0010
0100
,
0001
0000
0100
0000
0010
0000
1000
0001
,
0010
0100
1000
0100
,
0001
0100
1000
0010
,
0100
0010
0100
0000
0001
0100
0001
0000
,
1001
0000
1001
0000
1001
0000
1000
0001
,
1001
1000
0001
1000
0100
2000
0000
3100
,
1000
0100
0010
0001
2000
0000
3001
0010
,
0100
1000
0100
0010
0001
1000
0010
0100
,
0010
0100
0001
0100
0002
0000
1003
0100
,
0010
0100
1000
0000
1001
0000
0001
0100
,
0010
0100
0001
0000
0021
0000
0031
1000
,
0010
0100
0010
0000
0100
0010
0100
0000
,
0001
1000
0100
0010
0001
1000
0010
0000
,
0100
0001
0100
0000
0101
0000
0001
2000
,
0000
3100
1000
0010
0100
0000
0001
0100
,
0010
0100
0001
0100
0010
1000
0010
0100
,
0010
1000
0100
0010
0001
0000
0001
1000
,
0010
0100
0010
0000
0100
0010
0100
0000
,
0001
1000
0100
0000
2100
0000
3001
1000
,
0010
0100
0001
0000
0010
0100
1000
0000
,
0001
1000
0001
1000
0010
0000
0100
0010
,
1001
0000
0001
0000
0100
0000
1000
0100
,
0001
0010
0100
1000
,
0100
0000
0010
0000
0100
0000
1000
0100
,
0001
0000
0100
0000
1000
0010
0100
0000
,
1001
0000
1000
0000
0100
0000
0001
0100
,
1000
0010
0100
0001
,
0100
0000
0010
0000
0100
0000
0001
0100
,
1000
0000
0100
0000
0001
0010
0100
1000
,
2001
0100
0000
0100
0000
0100
0000
0100
,
0000
0100
0000
0100
0000
3100
1100
1000
,
0002
0100
0000
0100
0000
0100
0000
0100
,
0000
0100
0000
0100
0000
0103
0101
0001
,
1000
1001
0000
1100
0000
1001
0000
0101
,
0000
1001
0000
1100
0000
1000
0001
0000
,
0001
1000
1010
0000
1000
0001
0011
0000
,
0001
1000
0010
0100
0001
0000
0001
1000
,
1001
0001
1000
0001
0010
0002
0000
0013
,
0001
0010
0100
1000
0002
0000
1003
0100
,
0010
0001
0010
0100
1000
0001
0100
0010
,
0100
0010
1000
0010
2000
0000
3001
0010
,
0100
0010
0001
0000
1001
0000
1000
0010
,
0100
0010
1000
0000
1200
0000
1300
0001
,
0100
0010
0100
0000
0010
0100
0010
0000
,
1000
0001
0010
0100
1000
0001
0100
0000
,
0010
1000
0010
1000
1010
0000
1000
0002
,
0000
0013
0001
0100
0010
0000
1000
0010
,
0100
0010
1000
0010
0100
0001
0100
0010
,
0100
0001
0010
0100
1000
0000
1000
0001
,
0100
0010
1000
0000
0010
0100
0001
0000
,
1000
0001
0010
0000
0012
0000
1003
0001
,
0100
0010
1000
0000
0100
0010
0001
0000
,
1000
0010
1000
0001
0100
0000
0001
1000
,
1001
0000
0000
0000
;

//--------------- dance-single - RaverAce ----------------
#NOTES:
     dance-single:
     RaverAce:
     Hard:
     13:
     0.677381,0.669167,0.425,0.108333,0.283333,569,518,51,13,0,0,0.677381,0.669167,0.425,0.108333,0.283333,569,518,51,13,0,0:
0000
0000
0000
0000
,
0000
0000
0000
0000
,
0000
0000
0000
0000
,
0000
0000
0000
0000
,
0000
0000
0000
0000
,
1001
0000
1000
0100
0000
0010
0100
0000
1000
0001
0000
0100
0010
0000
1000
0000
,
0001
0000
0010
0001
0000
1000
0010
0000
1000
0001
0000
0010
0001
0000
0100
0000
,
0010
0000
0100
0001
0000
0010
0100
0000
0010
0000
0110
0000
0100
0000
1000
0000
,
0001
0000
0100
0000
1000
0000
0100
0001
1000
0000
0100
0000
0110
0000
0000
0000
,
1100
1000
0001
1000
0010
0100
0001
1000
,
0100
0001
0100
1000
0010
0100
0010
0000
,
0100
0001
0010
0100
1000
0010
0100
0001
,
0100
0000
1000
0000
0100
0000
0001
0000
0010
0000
0000
0100
0010
0000
0001
0000
,
1000
0010
0100
0010
1000
0001
0010
0000
,
0100
1000
0100
0010
0001
1000
1010
0000
,
0110
0000
0010
0000
1000
0001
0000
1000
0100
0000
1000
0001
0000
0100
0010
0000
,
0100
0000
0001
0000
0100
0000
0010
0100
0000
0001
0000
1000
0001
0000
0100
0000
,
0101
0001
1000
0001
0010
0100
1000
0001
,
0100
1000
0100
0001
0010
0100
0010
0000
,
0100
1000
0010
0100
0001
0010
0100
1000
,
0100
0000
0001
0000
0100
0000
1000
0000
0010
0000
0000
0100
0010
0000
1000
0000
,
0001
0100
0010
0100
0001
1000
0100
0010
,
0001
0010
1000
0010
0001
0010
0100
1000
,
1001
0001
1000
0010
0100
0000
0110
0000
,
1001
0000
1001
0000
1001
0000
0001
1000
,
1001
0001
0100
1000
0100
0002
0000
0013
,
0100
1000
0100
0010
0021
0000
0031
0010
,
0100
1000
0100
0001
0100
1000
0100
0010
,
0001
0000
0001
0000
1000
0000
0010
0000
1010
0000
0000
1000
0010
0000
0100
0000
,
0101
0001
0010
0000
0210
0000
0310
0100
,
1000
0100
0001
0100
2000
0000
3001
0100
,
1000
0100
0001
0000
0001
1000
1001
0000
,
1000
0000
0010
0000
0001
0000
0010
0000
1000
0000
0000
0001
1000
0000
0100
0000
,
0110
0010
0001
0000
0102
0000
0013
0210
,
0000
1300
0100
0010
0001
0000
0001
1000
,
0010
0100
0001
0001
1000
0010
0100
0100
,
0001
0000
0010
0000
0100
0000
1000
0000
1010
0000
0000
0010
1000
0000
0001
0000
,
1000
0010
0100
0000
0110
0010
0110
0000
,
0100
0001
1000
0000
1002
0000
0103
0010
,
1000
0001
0010
0000
0001
1000
0010
0000
,
1000
0100
0001
0100
1200
0000
1300
0001
,
0101
0000
0100
0010
0000
1000
0001
0000
1000
0100
0000
0010
0001
0000
1000
0000
,
0100
0000
0010
0100
0000
1000
0100
0000
1000
0001
0000
1000
0010
0000
0100
0000
,
0001
0000
1000
0010
0000
0100
0010
0000
1000
0001
0000
0100
0001
0000
1000
0000
,
0100
0000
0010
0001
0000
1000
0010
0000
0100
0001
0000
0010
0001
0000
1000
0000
,
1100
0000
0100
0010
0000
0001
1000
0000
0001
0100
0000
0010
1000
0000
0001
0000
,
0100
0000
0010
0100
0000
0001
0100
0000
0001
1000
0000
0001
0010
0000
0100
0000
,
1000
0000
0001
0010
0000
0100
0010
0000
0001
1000
0000
0100
1000
0000
0001
0000
,
0100
0000
0010
1000
0000
0001
0010
0000
0100
1000
0000
0010
1000
0000
0010
0000
,
0210
0001
0000
0010
0000
0001
0000
0010
,
0000
0001
0000
0010
0000
0301
0011
0010
,
0200
1000
0000
0010
0000
1000
0000
0010
,
0000
1000
0000
0010
0000
1300
1010
0010
,
0100
0000
0001
0100
0000
0010
0100
0000
0001
0100
0000
0010
0100
0000
0001
0000
,
0010
0000
0100
1000
0000
0100
0010
0000
0100
1000
0000
0100
0010
0000
0100
0000
,
1000
0001
0101
0000
0001
1000
1100
0000
,
1000
0000
0010
0000
0001
0000
0010
0000
1000
0001
0000
0000
0011
0000
0000
0000
,
1001
1000
0100
0001
0100
2000
0000
3010
,
0100
0001
0100
0010
1010
0000
1000
0010
,
0100
0001
0100
1000
0100
0001
0100
0010
,
1000
0000
1000
0000
0001
0000
0010
0000
0011
0000
0000
0001
0010
0000
0100
0000
,
1100
1000
0010
0000
0210
0000
0310
0100
,
0001
0100
1000
0100
0002
0000
1003
0100
,
0001
0100
1000
0000
1000
0001
1001
0000
,
0001
0000
0010
0000
1000
0000
0010
0000
0001
0000
0000
1000
0001
0000
0100
0000
,
0110
0010
1000
0100
0001
0100
1000
0010
,
0100
0001
0100
0010
1000
0100
1100
0000
,
0001
1000
0010
0010
0100
0001
1000
1000
,
0001
0000
0100
0000
1000
0000
0100
0000
0101
0000
0000
0001
1000
0000
0010
0000
,
1010
1000
0100
0000
0110
0010
0110
0000
,
0100
1000
0001
0100
0101
0000
0001
0010
,
1000
0010
0011
0000
0001
1000
0010
0000
,
1010
0000
1000
0000
0001
0000
0100
0000
0101
0000
0000
0001
1000
0000
0100
0000
,
1100
0000
0000
0000
;

//--------------- dance-double - RaverAce ----------------
#NOTES:
     dance-double:
     RaverAce:
     Easy:
     7:
     0.290476,0.395417,0.225,0.075,0,244,217,27,9,0,0,0.290476,0.395417,0.225,0.075,0,244,217,27,9,0,0:
00000000
00000000
00000000
00000000
,
00000000
00000000
00000000
00000000
,
00000000
00000000
00000000
00000000
,
00000000
00000000
00000000
00000000
,
00000000
00000000
00000000
00000000
,
00011000
00000000
00001000
00000000
,
01000000
00000000
00100000
01000000
,
00100000
00000000
01100000
00000000
,
01000000
00100000
01000000
00010000
,
10000000
10000000
01000000
00000000
,
00100000
00100000
00010000
00000000
,
00001000
00001000
00000100
00000000
,
00000010
00000001
00000001
00001000
,
00000001
00000001
00000100
00000000
,
00000010
00000010
00001000
00000100
,
00020000
00000000
00032000
00000000
,
00203000
00000000
00310000
01000000
,
00100000
00100000
00100000
00000000
,
10000000
10000000
00010000
00000000
,
01000000
00001000
00010000
00000000
,
00010000
00000100
00001000
00000100
,
00001000
00000010
00000100
00000001
,
00000010
00000100
00000010
00000001
,
00001000
00000010
00000100
00000000
,
00000110
00000110
00000100
00000000
,
00001001
00001000
00000001
00000000
,
00001000
00000100
00001000
00000000
,
00000100
00010000
00001000
00100000
,
00010000
01000000
00100000
00000000
,
10000000
00100000
01000000
00000000
,
01000000
00100000
10000000
00000000
,
10100000
00000000
10010000
00000000
,
10000000
00010000
10010000
00000000
,
10000000
01000000
10000000
00000000
,
01000000
00100000
00010000
00000000
,
00010000
00100000
01000000
10000000
,
00010000
01000000
00100000
10000000
,
10010000
00010000
01000000
00001000
,
00010000
00000100
00000010
00000001
,
00000100
00000010
00001000
00000001
,
00000011
00000011
00000011
00000001
,
00001001
00001000
00000010
00001000
,
00000100
00010000
00001000
00100000
,
00010000
00100000
01000000
10000000
,
00100000
01000000
00010000
10000000
,
11000000
01000000
10000000
00010000
,
01000000
00001000
00010000
00000100
,
00001000
00000100
00010000
00001000
,
00100000
00010000
01000000
00100000
,
02100000
00000000
00000000
00000000
,
00000000
00000000
00000000
00000000
,
03020000
00000000
00000000
00000000
,
00000000
00000000
00000000
00000000
,
00230000
00001000
00001000
00001000
,
00001000
00001000
00001000
00302000
,
00023000
00030100
00000200
00010300
,
00001000
00010000
00011000
00000000
,
00001100
00001000
00000001
00000000
,
00000001
00000100
00000010
00000000
,
00000010
00001000
00000100
00010000
,
00001000
00100000
00010000
00000000
,
01000000
00100000
10000000
00000000
,
10000000
01000000
00100000
00000000
,
00010000
00000000
10010000
00000000
,
10000000
00010000
01000000
00000000
,
00011000
00011000
00011000
00000000
,
00110000
00110000
00110000
00000000
,
00001000
00000100
00001000
00000100
,
00001000
00000001
00001000
00000000
,
00000100
00010000
00001000
00100000
,
01000000
10000000
00010000
00000000
,
10010000
00000000
10010000
00000000
,
10000000
00010000
01000000
00001000
,
00011000
00000000
00000000
00000000
;

//--------------- dance-double - RaverAce ----------------
#NOTES:
     dance-double:
     RaverAce:
     Medium:
     11:
     0.488095,0.517083,0.266667,0.175,0.066667,410,378,32,21,0,0,0.488095,0.517083,0.266667,0.175,0.066667,410,378,32,21,0,0:
00000000
00000000
00000000
00000000
,
00000000
00000000
00000000
00000000
,
00000000
00000000
00000000
00000000
,
00000000
00000000
00000000
00000000
,
00000000
00000000
00000000
00000000
,
20000000
00000000
00000000
31000000
00000000
01000000
00000000
01000000
,
10000000
00000000
00010000
00000000
01000000
00001000
00010000
00000000
,
00002000
00000000
00013000
00000100
00001000
00000020
00000000
00000130
,
00000001
00000010
00000100
00001000
00000001
00001000
00001001
00000000
,
00000101
00000100
00000010
00000100
,
00000001
00000000
00001000
00000000
00000100
00000000
00000010
00000100
,
00000010
00001000
00000100
00000010
,
00000001
00000000
00000100
00000000
00000010
00000000
00010000
00000100
,
00010000
00001000
00100000
00010000
,
01000000
00100000
10000000
00100000
,
01100000
01000000
00010000
01000000
,
10000000
00000000
01000000
00000000
00010000
00000000
10000000
01000000
,
01100000
00100000
00010000
10000000
,
00100000
01000000
00001000
00010000
,
00000100
00001000
00000010
00000100
,
00000001
00000000
00001000
00000000
00000100
00000000
00000010
00000100
,
00000010
00000100
00010000
00001000
,
00010000
00000000
00000100
00000000
00010000
00000000
00001000
00100000
,
00010000
00100000
01000000
10000000
00010000
00000000
10000000
00000000
,
10010000
00000000
10010000
00000000
10010000
00000000
10000000
00010000
,
10010000
00000000
10000000
00010000
10000000
02000000
00000000
13000000
,
00010000
00000000
01000000
00010000
02000000
00000000
00000000
03001000
,
00020000
00000000
00031000
00010000
00000100
00001000
00000100
00000010
,
00000100
00001000
00000100
00001000
00000001
00000000
00000001
00000100
,
00000010
00001000
00000010
00000000
00000110
00000000
00000100
00000001
,
00001000
00000100
00000010
00000000
00000120
00000000
00000000
00000130
,
00010000
00002000
00000000
00000000
00103000
00020000
00000000
00000000
,
01030000
00100000
01000000
00100000
10000000
00010000
10000000
00000000
,
01000000
10000000
00010000
00000000
01010000
00000000
01000000
00002000
,
00000000
00013000
00001000
00000100
00000020
00000000
00000130
00001000
,
00000001
00001000
00000001
00001000
00000010
00000100
00000010
00000100
,
00000001
00000001
00001000
00000001
00001000
00000000
00000100
00001000
,
00001100
00000100
00010000
00000000
00001000
00100000
00010000
00000000
,
00100000
01000000
10000000
00000000
10010000
00000000
10000000
01000000
,
00010000
01000000
10000000
00000000
00010000
10000000
00010000
00000000
,
01010000
00000000
01010000
00000000
00011000
00000000
00010000
00001000
,
00011000
00000000
00000000
00010000
00000000
00000000
00000100
00000000
00000000
00000010
00000000
00000000
00000001
00000000
00000100
00000000
,
00000010
00000000
00000000
00001000
00000000
00000000
00000100
00000000
00000000
00000010
00000000
00000000
00000100
00000000
00001000
00000000
,
00010000
00000000
00000000
00100000
00000000
00000000
01000000
00000000
00000000
10000000
00000000
00000000
00010000
00000000
01000000
00000000
,
00100000
00000000
00000000
10000000
00000000
00000000
00100000
00000000
00000000
01000000
00000000
00000000
00010000
00000000
10000000
00000000
,
10010000
00000000
00000000
00010000
00000000
00000000
01000000
00000000
00000000
00100000
00000000
00000000
10000000
00000000
00100000
00000000
,
01000000
00000000
00000000
00001000
00000000
00000000
00010000
00000000
00000000
00000100
00000000
00000000
00001000
00000000
00000100
00000000
,
00000010
00000000
00000000
00000001
00000000
00000000
00000100
00000000
00000000
00000010
00000000
00000000
00001000
00000000
00000010
00000000
,
00000100
00000000
00000000
00000001
00000000
00000000
00001000
00000000
00000000
00000100
00000000
00000000
00010000
00000000
00001000
00000000
,
00012000
00010000
00000000
00100000
00000000
00010000
00000000
00100000
,
00000000
00010000
00000000
00100000
00000000
00013000
00011000
00000000
,
00020000
00001000
00000000
00000010
00000000
00001000
00000000
00000010
,
00000000
00001000
00000000
00000010
00000000
00031000
00011000
00000000
,
00110000
00000000
00010000
00000000
01000000
00000000
00100000
01000000
,
00100000
00000000
10000000
00000000
01000000
00000000
00100000
00010000
,
00100000
00001000
00010000
00000000
00001000
00010000
00001000
00000000
,
00000100
00001000
00000100
00001000
00000001
00001000
00000001
00000000
,
00001001
00000000
00000001
00001000
00000001
00000200
00000000
00000301
,
00001000
00000000
00000100
00001000
00000200
00000000
00000000
00010300
,
00002000
00000000
00013000
00001000
01000000
00010000
01000000
00100000
,
01000000
00010000
01000000
00010000
10000000
00000000
10000000
01000000
,
00100000
00010000
00100000
00000000
01100000
00000000
01000000
10000000
,
00010000
01000000
00100000
00000000
01200000
00000000
00000000
01300000
,
00001000
00020000
00000000
00000000
00030010
00002000
00000000
00000000
,
00003100
00000010
00000100
00000010
00000001
00001000
00000001
00000000
,
00000100
00000001
00001000
00000000
00001100
00000000
00000100
00020000
,
00000000
00031000
00010000
01000000
00200000
00000000
01300000
00010000
,
10000000
00010000
10000000
00010000
00100000
01000000
00100000
01000000
,
10000000
10000000
00010000
10000000
00010000
00000000
01000000
00010000
,
01010000
01000000
00001000
00000000
00010000
00000010
00001000
00000000
,
00000010
00000100
00000001
00000000
00001001
00000000
00000001
00000100
,
00001000
00000100
00000001
00000000
00001000
00000001
00001000
00000000
,
00001100
00000000
00001100
00000000
00011000
00000000
00001000
00010000
,
00011000
00000000
00000000
00000000
;

//--------------- dance-double - RaverAce ----------------
#NOTES:
     dance-double:
     RaverAce:
     Hard:
     13:
     0.638095,0.669167,0.283333,0.091667,0.270833,536,502,34,11,0,0,0.638095,0.669167,0.283333,0.091667,0.270833,536,502,34,11,0,0:
00000000
00000000
00000000
00000000
,
00000000
00000000
00000000
00000000
,
00000000
00000000
00000000
00000000
,
00000000
00000000
00000000
00000000
,
00000000
00000000
00000000
00000000
,
00000001
00000000
00000010
00000100
00000000
00001000
00000100
00000000
00010000
00001000
00000000
00100000
00010000
00000000
01000000
00000000
,
00100000
00000000
10000000
00100000
00000000
01000000
00100000
00000000
10000000
00100000
00000000
01000000
00010000
00000000
10000000
00000000
,
01000000
00000000
00100000
00010000
00000000
00001000
00000100
00000000
00000010
00000000
00000110
00000000
00000100
00000000
00001000
00000000
,
00010000
00000000
00100000
00000000
10000000
00000000
00100000
00010000
10000000
00000000
00010000
00000000
00110000
00000000
00000000
00000000
,
10010000
00000000
00010000
01000000
00001000
00000000
00010000
00000100
,
00001000
00000000
00000001
00000100
00000001
00000000
00001000
00000100
,
00000010
00000000
00000100
00001000
00000010
00000000
00010000
00001000
,
00010000
00000000
00000000
00000000
00001000
00000000
00100000
00000000
00010000
00000000
00000000
00100000
01000000
00000000
10000000
00000000
,
00100000
01000000
00010000
00100000
10000000
00100000
00010000
00000000
,
01000000
00001000
00010000
00000100
00001000
00000100
00000010
00000000
,
00000110
00000100
00001000
00000001
00000100
00001000
00000100
00000001
,
00000010
00000000
00000100
00000000
00010000
00000000
00001000
00000000
00100000
00000000
00000000
00001000
00010000
00000000
00000100
00000000
,
00001100
00001000
00000001
00000000
00000001
00001000
00000010
00000000
,
00000010
00001000
00000001
00000010
00001000
00000000
00011000
00000000
,
00010000
01000000
10000000
00000000
10000000
00010000
01000000
00000000
,
00100000
00000000
01000000
00000000
00010000
00000000
01000000
00000000
00100000
00000000
00000000
10000000
00100000
00000000
01000000
00000000
,
00010000
00100000
00001000
00010000
00000100
00001000
00000010
00000000
,
00000100
00000001
00001000
00000100
00010000
00001000
01000000
00010000
,
01000000
00100000
10000000
00100000
01000000
00000000
00001000
00010000
,
00011000
00000000
00011000
00000000
00011000
00000000
00010000
00001000
,
00011000
00010000
00000100
00001000
00000100
00000010
00000000
00000010
,
00000100
00001000
00000001
00000100
00000010
00000000
00000010
00001000
,
00000100
00010000
00001000
01000000
00010000
00100000
01000000
10000000
,
00010000
00000000
01000000
00000000
10000000
00000000
01000000
00000000
00010000
00000000
00000000
00010000
00100000
00000000
00001000
00000000
,
00011000
00010000
00000100
00000000
00001100
00000000
00001000
00000100
,
00010000
00001000
00100000
00000000
00120000
00000000
01030000
00100000
,
10000000
00100000
01000000
00000000
00010000
10000000
01000000
00000000
,
00010000
00000000
01000000
00000000
10000000
00000000
01000000
00000000
00100000
00000000
00000000
00010000
10000000
00000000
00010000
00000000
,
01000000
01000000
00010000
00000000
01020000
00000000
00130000
00200000
,
00000000
00301000
00010000
00000100
00000010
00000000
00000010
00000100
,
00000010
00000010
00001000
00001000
00010000
00010000
00000100
00001000
,
00010000
00000000
00100000
00000000
01000000
00000000
10000000
00000000
00010000
00000000
00000000
10000000
00010000
00000000
01000000
00000000
,
00100000
01000000
00001000
00000000
00001000
00010000
00000100
00000000
,
00000100
00001000
00000010
00000000
00000210
00000000
00000301
00001000
,
00000100
00000001
00000100
00000000
00001000
00000001
00001001
00000000
,
00001000
00000000
00000100
00000000
00000001
00000000
00000100
00000000
00001000
00000000
00000000
00001000
00000010
00000000
00001000
00000000
,
00001010
00000000
00000010
00000100
00000000
00000010
00001000
00000000
00000100
00010000
00000000
00001000
00010000
00000000
00000100
00000000
,
00001000
00000000
00000010
00000100
00000000
00001000
00000100
00000000
00000010
00000100
00000000
00010000
00001000
00000000
00100000
00000000
,
00010000
00000000
00100000
01000000
00000000
10000000
00010000
00000000
01000000
00100000
00000000
10000000
00100000
00000000
01000000
00000000
,
00010000
01000000
00000000
00100000
10000000
00000000
00100000
01000000
00000000
00010000
00000000
00010000
01000000
00000000
00010000
00000000
,
00110000
00000000
00100000
01000000
00000000
00100000
00010000
00000000
01000000
00001000
00000000
00010000
00001000
00000000
01000000
00000000
,
00010000
00000000
00100000
01000000
00000000
00010000
01000000
00000000
00100000
01000000
00000000
00001000
00010000
00000000
00000010
00000000
,
00001000
00000000
00000010
00000100
00000000
00000001
00001000
00000000
00000100
00000010
00000000
00000001
00000010
00000000
00000100
00000000
,
00001000
00000100
00000000
00000010
00000001
00000000
00000010
00000100
00000000
00001000
00000000
00001000
00000100
00000000
00001000
00000000
,
00001020
00000100
00000000
00001000
00000000
00000100
00000000
00001000
,
00000000
00000100
00000000
00001000
00000000
00010030
00011000
00001000
,
00200000
01000000
00000000
00010000
00000000
01000000
00000000
00010000
,
00000000
01000000
00000000
00010000
00000000
00301000
00011000
00010000
,
00000100
00000000
00001000
00000100
00000000
00000010
00000100
00000000
00001000
00000100
00000000
00010000
00001000
00000000
00010000
00000000
,
01000000
00000000
10000000
01000000
00000000
00100000
01000000
00000000
10000000
01000000
00000000
00100000
01000000
00000000
10000000
00000000
,
00010000
10000000
11000000
00000000
10000000
00010000
01010000
00000000
,
00010000
00000000
00100000
00000000
10000000
00000000
00100000
00000000
00010000
10000000
00000000
00000000
10100000
00000000
00000000
00000000
,
10010000
00010000
01000000
00100000
10000000
00100000
00000000
00100000
,
01000000
00010000
00100000
00001000
00010000
00000000
00011000
00001000
,
00010000
00000100
00001000
00001000
00000100
00000010
00000100
00000100
,
00001000
00000000
00000001
00000000
00000100
00000000
00001000
00000000
00000100
00000000
00000000
00000100
00000001
00000000
00000010
00000000
,
00000110
00000100
00001000
00000000
00001200
00000000
00010300
00001000
,
00100000
01000000
10000000
00000000
10020000
00000000
01030000
10000000
,
01000000
00010000
00100000
00000000
01000000
10000000
00100000
00000000
,
10000000
00000000
01000000
00000000
00010000
00000000
01000000
00000000
10000000
00000000
00000000
00010000
01000000
00000000
00001000
00000000
,
00010000
00000010
00010000
00001000
00010000
00000010
00010000
00001000
,
00100000
00010000
00100000
00001000
00100000
00010000
01000000
00000000
,
01000000
00010000
00100000
00100000
00001000
00010000
00000100
00000100
,
00001000
00000000
00000010
00000000
00000100
00000000
00000001
00000000
00000010
00000000
00000000
00000100
00000010
00000000
00000001
00000000
,
00001000
00000001
00000100
00000000
00000110
00000010
00000110
00000000
,
00000100
00000001
00001000
00000000
00001200
00000000
00010300
00001000
,
00100000
01000000
20000000
00000000
30100000
01000000
00020000
00000000
,
01030000
00000000
00001000
00000000
00010000
00000000
00000100
00000000
00001100
00000000
00000000
00001000
00000001
00000000
00000100
00000000
,
00000101
00000000
00000000
00000000
;
