#TITLE:愛は不死鳥の様に;
#SUBTITLE:;
#ARTIST:真紅の薔薇の騎士Prim;
#TITLETRANSLIT:Ai wa fushichou no you ni;
#SUBTITLETRANSLIT:;
#ARTISTTRANSLIT:Prim;
#GENRE:;
#CREDIT:;
#MUSIC:Ai wa fushichou no you ni.ogg;
#BANNER:Ai wa fushichou no you ni.png;
#BACKGROUND:Ai wa fushichou no you ni-bg.png;
#CDTITLE:;
#SAMPLESTART:50.953;
#SAMPLELENGTH:15.000;
#SELECTABLE:YES;
#OFFSET:1.000;
#BPMS:0.000=192.000;
#STOPS:;
#DISPLAYBPM:192.000;
#BGCHANGES:;
#FGCHANGES:;

//--------------- dance-single - forcednature ----------------
#NOTES:
     dance-single:
     forcednature:
     Beginner:
     4:
     0,0,0,0,0:
0000
0000
0000
0000
,
0000
0000
0000
0000
,
0000
0000
0000
0000
,
0000
0000
0000
0000
,
0000
0000
0000
0000
,
0000
0000
0000
0000
,
0100
0000
0100
0000
,
0010
0000
0010
0000
,
1000
0000
0001
0001
,
0001
0000
0100
0000
,
0010
0000
0000
1000
,
0000
0001
0000
0001
,
0000
0010
0000
0000
,
0000
0100
0000
1000
,
0000
0001
0000
0100
,
0000
0010
0000
1000
,
0000
0001
0000
0000
,
1000
0001
0000
0000
,
0100
0010
0000
1000
,
0000
0001
0000
0010
,
0000
0000
0100
0000
,
0010
0000
0001
0000
,
0100
0000
0000
0000
,
0010
0000
0010
0000
,
0010
0000
0000
0000
,
1000
0000
0001
0000
,
0100
0000
0000
0000
,
0001
0000
0000
0000
,
1000
0000
0000
0000
,
0100
0000
0000
0000
,
0010
0000
0000
0000
,
0100
0000
0000
0000
,
0010
0000
0000
0000
,
0001
0000
0000
0000
,
1000
0000
0000
0010
,
0000
0010
0000
0100
,
0000
0000
0000
1000
,
0000
1000
0000
0001
,
0001
0000
0100
0000
,
1000
0000
0000
0000
,
0010
0000
0100
0000
,
0010
0010
0000
0000
,
1000
1000
0000
0001
,
0000
0001
0000
0000
,
0100
0100
0000
0010
,
0000
0010
0000
0000
,
1000
0000
0001
0000
,
0010
0000
0000
0000
,
0001
0000
0001
0000
,
0100
0000
1000
0000
,
0100
0000
0100
0000
,
0010
0000
0000
0000
,
1000
0000
1000
0000
,
0001
0000
0000
0000
,
1001
0000
0000
0000
,
0110
0000
0000
0000
,
1001
0000
0000
0000
,
0100
0000
0010
0000
,
1001
0000
0000
0000
,
1000
0000
1000
0000
,
0001
0000
0000
0000
,
0100
0000
0100
0000
,
0100
0000
0010
0000
,
1000
0000
0000
0000
,
0001
0000
0010
0000
,
0100
0100
0000
0000
,
0000
0000
0000
0000
,
1000
0001
0000
0001
,
0000
0100
0000
0100
,
0000
0010
0000
0010
,
1000
0000
1000
0000
,
0001
0010
0000
0010
,
0000
0100
0000
1000
,
0010
0000
0010
0000
,
0100
0100
0100
0000
,
1001
0000
0010
0000
,
1000
0000
0000
0000
,
0001
0000
0010
0000
,
0100
0000
1000
0000
,
0110
0000
0001
0000
,
1001
0000
0010
0000
,
0100
0100
0100
0000
,
0010
0010
0010
0000
,
1000
0000
0001
0000
,
0100
0100
0000
0000
;

//--------------- dance-single - forcednature ----------------
#NOTES:
     dance-single:
     forcednature:
     Easy:
     8:
     0,0,0,0,0:
0000
0000
0000
0000
,
0000
0000
0000
0000
,
0000
0000
0000
0000
,
0000
0000
0000
0000
,
0000
0000
0000
0000
,
0000
0000
0000
0000
,
1001
0100
0001
0010
,
0100
1000
0001
1001
,
0110
0000
0000
1000
0000
0001
0000
1001
,
0000
0100
0000
0001
0000
0010
0000
0100
,
1000
0010
0100
0001
,
0010
0100
0010
0000
0001
0000
1000
0000
,
0010
1000
0001
0010
,
0100
1000
0100
0000
0010
0000
0001
0000
,
1000
0010
0100
0001
,
0010
0100
0010
0000
0001
0000
1000
0000
,
0010
1000
0001
0010
,
0001
0100
0001
0100
0000
0000
0000
0000
,
1001
0100
0001
1000
,
0100
0010
0100
0000
1000
0000
0001
0000
,
1000
0010
0001
0010
,
0100
0001
0100
0000
0010
0000
1000
0000
,
0110
0000
0000
1001
0000
0000
0100
0000
,
1001
0000
0000
0110
0000
0000
1000
0000
,
0101
1000
1100
0001
,
0110
0001
1000
0100
,
2001
0000
0001
3100
,
1000
0000
0000
0010
0000
0000
0100
0000
,
0001
0010
0001
0100
,
0020
0000
0130
0000
,
0010
1000
0001
0010
,
0100
0100
1000
1000
,
0001
0000
0100
0000
0100
0000
0000
0002
,
0000
0000
0003
0000
1000
0001
1000
0001
,
0100
0001
1000
0010
,
2000
0100
3001
1000
,
1001
1000
0010
0100
,
0002
0100
1003
0001
,
1001
0100
0010
1000
,
0110
0001
1000
0001
,
1100
0001
0101
1000
,
0100
0010
0100
0010
0000
0000
0000
0000
,
1001
0000
0001
0000
0100
0001
0100
0000
,
0010
0000
1000
0000
0100
1000
0100
0000
,
0110
0000
0000
0000
0001
0000
0000
0000
1000
0000
0000
0001
0000
0000
1000
0000
,
0002
0100
0103
0001
,
1001
0100
1000
0010
,
1001
0000
0100
0000
0001
0010
0001
0010
,
0001
0000
0000
1001
0000
0110
0000
1000
,
0000
0010
0000
0001
0000
0110
0000
0000
,
1001
0001
0100
0001
,
1000
0010
1000
0100
,
0010
0001
0010
0000
0100
0000
1000
0000
,
0010
0010
0100
0000
,
1001
1000
0010
1000
,
1001
0001
0010
0001
,
1001
0100
0010
0100
,
0001
0000
1000
0000
0100
0010
0100
0000
,
2002
0000
3003
1000
,
0010
0000
0000
0100
0000
0000
0001
0000
,
0010
0010
0100
0100
,
1001
0000
0100
0010
0000
0110
0000
2002
,
0000
3003
0001
0100
,
1010
1000
0100
0001
,
0011
0100
1000
0010
,
1000
0001
1000
0001
0000
0000
0000
0000
,
0000
0000
0000
0000
,
0110
1000
0001
0010
,
0100
0000
1000
0000
0001
0100
0001
0000
,
1001
0000
0000
0000
1000
0000
0000
0000
0001
0000
0000
0100
0000
0000
0001
0000
,
0200
0010
0310
1000
,
0110
0001
0100
1000
,
0110
1000
0010
0001
,
1001
0000
0000
0110
0000
0001
0000
0100
,
0000
1000
0000
0110
0000
1000
0000
0001
,
1000
0000
0010
0000
1000
0001
1000
0000
,
0100
0010
0001
0100
,
0110
0000
0010
0000
0001
0100
0001
0000
,
0010
0100
1000
0110
,
1001
0000
0100
0000
1000
0001
1000
0000
,
0110
0001
0010
0100
,
1000
0001
1000
0001
0000
0100
0000
0100
,
0000
0010
0000
0010
0000
1000
0001
0020
,
0000
0100
0100
0030
,
0001
1000
0001
1000
0000
0000
0000
0000
;

//--------------- dance-single - forcednature ----------------
#NOTES:
     dance-single:
     forcednature:
     Medium:
     12:
     0,0,0,0,0:
0000
0000
0000
0000
,
0000
0000
0000
0000
,
0000
0000
0000
0000
,
0000
0000
0000
0000
,
0000
0000
0000
0000
,
0000
0000
0000
0000
,
1001
0000
0001
1000
0100
0010
0100
0000
,
1000
0000
0010
0100
0001
0000
0011
0000
,
1100
0000
0000
1001
0000
0110
0000
0101
,
0000
1000
0100
1000
0000
0001
0100
0001
,
0010
0100
1000
0000
0010
0100
0001
0000
,
1000
0010
1000
0010
0000
0100
0001
0000
,
0010
0100
0010
0000
0001
1000
0001
0000
,
1000
0100
0010
0100
0000
1000
0001
0000
,
0100
0010
1000
0100
0010
0000
0110
0000
,
0100
0010
0001
0100
0010
0000
0110
0000
,
1000
0100
0001
0100
1000
0000
0110
0000
,
0001
0100
0010
1000
0000
0000
0000
0000
,
0001
0010
0100
0000
1000
0010
0100
0000
,
0001
1000
0100
1000
0000
0010
0100
0000
,
0001
0010
0100
0000
0010
0001
1000
0000
,
0010
1000
0001
0100
0000
0001
0010
0000
,
0110
0000
0000
1001
0000
0000
0100
0000
,
0110
0000
0000
1001
0000
0000
0010
0000
,
1000
0100
1000
0000
0001
0100
0001
0000
,
0110
1100
0110
0101
,
0110
0001
1000
0100
,
1000
0000
0010
1000
0000
0001
0100
0000
,
0010
1000
0100
0010
,
0001
1000
0001
0000
0100
0000
0010
1000
,
0010
0100
0001
0010
,
0100
0001
0100
0000
1000
0000
0010
0100
,
0010
0000
0001
0000
0010
0000
1000
0002
,
0010
0000
0010
0000
0103
0001
0100
1000
,
0100
0000
0110
0000
0010
1000
0001
0000
,
0010
0100
1000
0000
0001
0100
0010
0000
,
1100
0000
0101
0000
0010
1000
0001
0000
,
0010
0100
1000
0000
0010
0100
0001
0000
,
0011
0000
0100
0000
1000
0010
0001
0000
,
0110
0000
0001
0000
1000
0100
0010
0000
,
1100
0101
1100
0101
,
0100
0100
0010
0010
0000
0000
0000
0000
,
1001
0000
0001
0100
0010
0000
1000
0100
,
0001
0000
0100
0010
0001
0100
0010
0000
,
0110
0000
0000
0000
0001
0000
1000
0000
0010
0000
0000
0100
0000
0000
0001
0000
,
1000
0100
0001
0000
0100
1000
0001
0000
,
0110
0000
0001
0000
1000
0100
0001
0000
,
0110
0000
0001
0000
1000
0010
0001
0010
,
0100
0000
0100
0010
0000
1000
0100
1000
,
0000
0001
0100
0001
0000
0010
0100
0010
,
0002
0100
1000
0010
,
1000
0100
1000
0013
,
0001
0100
1000
0100
,
0001
0000
0010
0000
0100
1000
0010
0000
,
1001
0000
1000
0100
0001
0000
0100
0000
,
1001
0000
0001
0100
1000
0000
0100
0000
,
0010
0100
0001
1000
0000
0100
0010
0001
,
0100
0100
0010
0010
1000
0001
0010
0000
,
0001
0000
0100
0000
1001
0000
0000
0010
,
0000
1000
0100
0000
0010
0000
0000
0001
,
0100
0010
1001
0000
,
0110
0000
0001
1000
0000
0110
0000
1001
,
0000
1000
0100
0000
0010
0001
0010
0000
,
1001
0000
1000
0100
1000
0010
0100
0000
,
0210
1000
0010
0301
,
0100
0100
0010
0010
0000
0000
0000
0000
,
0000
0000
0000
0000
0000
1000
0001
1000
,
0100
0000
0010
0001
0100
0000
0010
0001
,
0010
0000
0100
0010
1000
0001
0010
0000
,
0110
0000
0000
0000
1000
0000
0001
0000
0100
0000
0000
0010
0000
0000
0100
0000
,
0001
0010
0100
0000
1000
0010
0100
0000
,
1001
0000
0001
0000
1000
0010
0100
0000
,
0001
0010
0001
0010
0100
1000
0100
1000
,
0010
0000
0010
0100
0000
0010
1000
0100
,
0000
0010
0001
0100
0000
0010
1000
0001
,
0020
1000
0100
0001
,
0100
1000
0100
0031
,
0210
0001
0010
1000
,
0010
0301
0100
1001
,
0110
0000
0001
0100
1000
0000
0100
0000
,
1001
0000
0001
1000
0100
0010
0001
0000
,
0100
0010
0100
0010
0000
1000
0001
1000
,
0000
0001
0010
0001
0000
1000
0010
2000
,
0000
0000
0000
3001
,
0100
0100
0010
0010
0000
0000
0000
0000
;

//--------------- dance-single - forcednature ----------------
#NOTES:
     dance-single:
     forcednature:
     Hard:
     16:
     0,0,0,0,0:
0000
0000
0000
0000
,
0000
0000
0000
0000
,
0000
0000
0000
0000
,
0000
0000
0000
0000
,
0000
0000
0000
0000
,
0000
0000
0000
0000
,
1001
0000
1000
0100
0010
0001
0100
0000
,
0010
0000
0001
0010
0100
1000
0100
0010
,
1000
0100
0001
0100
0000
0110
0000
1001
,
0000
0001
0100
1000
0000
0001
0010
1000
,
0100
0010
0100
0001
0100
1000
0100
0010
,
0001
1000
0010
0100
0000
0100
1000
0100
,
0010
0001
0010
1000
0001
0010
1000
0010
,
0100
0010
0001
1000
0000
0100
0001
0100
,
0010
0001
0010
1000
0000
0010
0001
0100
,
0010
0100
1000
0100
0000
0010
0001
0010
,
1000
0000
0100
0010
0000
0001
1000
0010
,
0100
1000
0100
0001
0000
0000
0000
0000
,
1000
0100
0001
0100
0010
1000
0010
0001
,
1000
0010
0100
0001
0000
0100
1000
0000
,
0100
0010
0001
0010
1000
0100
0010
1000
,
0001
0100
1000
0001
0000
0100
0010
0100
,
0110
0000
0001
1001
0000
1000
0010
0100
,
0101
0000
0001
0011
0000
1000
0100
1000
,
1010
0000
0101
0000
0001
0010
0100
1000
,
1010
0011
0101
1100
,
1001
0110
1001
0001
,
1000
0000
0010
0100
0000
0001
0010
0100
,
1000
0010
0100
0100
0001
1000
0100
0020
,
0000
0000
0000
0200
0000
0000
0330
0000
,
1000
0100
0001
0100
0010
0001
0000
1000
,
0000
1100
0000
0001
0010
0000
0100
1000
,
0010
0100
1000
0100
0010
0001
0010
2000
,
0000
0000
0000
0000
3000
0000
0000
0000
0001
0100
0001
0000
1000
0100
1000
0000
,
0010
0000
0100
1000
0100
0001
0010
0200
,
0001
0010
1300
0100
,
1001
0000
0001
0010
0100
1000
0010
0200
,
1000
0000
0010
0000
0301
0100
0010
1000
,
1001
0000
0000
0000
0001
0100
0001
0000
0010
0000
0100
0000
1000
0010
1000
0000
,
1001
0000
0000
0000
1000
0100
1000
0000
0010
0000
0100
0000
0001
0010
0001
0000
,
1000
0100
1000
0000
0001
0100
0001
0000
0010
0100
1000
0000
0010
0100
0001
0000
,
1000
0100
0001
0100
0000
0010
0001
0100
,
0010
0000
0001
0010
0100
1000
0001
0010
,
1000
0010
0100
0001
0010
1000
0010
0100
,
1000
0000
0000
0000
0010
0000
0100
0000
0101
0000
0000
1010
0000
0000
1000
0000
,
0001
0010
0001
0000
0100
0000
0000
0000
0010
0000
0001
0000
0010
0000
1000
0000
,
1001
0000
0001
0010
0100
0001
0100
0010
,
1000
0000
0010
0000
0001
0000
0100
0000
0010
1000
0010
1000
0010
0000
0100
0000
,
0001
0010
0100
1100
0000
1000
0001
0101
,
0000
0001
0010
0110
0000
1000
0001
0100
,
0020
0000
0000
0000
1000
0000
0000
0000
0031
0000
0000
0000
1000
0100
0010
0001
,
0100
0000
0000
0100
0001
0000
0010
0000
0100
0000
0000
0100
1000
0000
0010
0000
,
1000
0000
0100
0000
0010
0000
0001
0000
0100
0000
0010
0000
1000
0001
1000
0000
,
0100
0000
0100
0010
0001
0000
0100
0010
,
1010
0000
0000
1000
0001
0000
0100
0000
0010
0000
1000
0000
0001
0010
0001
0010
,
0001
0000
0000
0001
0100
0000
0010
0000
1000
0000
0000
1000
0100
0000
0010
0000
,
0001
0100
1000
0100
0000
0010
1000
0001
,
1000
0100
1000
0100
0010
0001
0010
0000
0001
0100
0010
1000
0001
0000
0010
0000
,
0200
0001
1300
0100
,
0010
0000
0001
1000
0000
0010
0100
0000
,
0001
0010
1000
0010
0100
0000
1000
0001
,
0101
0000
1000
1100
0000
0110
0000
1001
,
0001
0000
0000
0000
1000
0000
0100
0000
0010
0000
0001
0000
1000
0100
1000
0100
,
0010
0000
0000
0000
0001
0000
0100
0000
0010
0000
1000
0000
0001
0100
0001
0100
,
0010
1000
0100
0000
0010
0001
0100
0000
0001
1000
0100
0000
1000
0001
0100
0000
,
0010
0001
0010
1000
0000
0000
0000
0000
,
0000
0000
0000
0000
0000
0001
0010
0100
,
0010
0000
0100
0001
0100
0010
1000
0001
,
0100
1000
0010
0001
0010
0100
0001
0010
,
0100
1000
0100
1000
0001
0100
0001
0100
0010
0000
0000
0110
0000
0000
0001
0000
,
1000
0100
1000
0000
0010
0000
0000
0010
0100
0000
1000
0000
0100
0000
0001
0000
,
1001
0000
1000
0010
0100
1000
0100
0001
,
0010
0001
0010
0001
1000
0010
1000
0010
1000
0001
1000
0001
0010
0000
0100
0000
,
1000
0010
0100
0101
0000
0001
0010
0110
,
0100
1000
0100
0000
0010
0001
0010
0000
0001
0100
0010
0000
1000
0100
0020
0000
,
0001
0000
0000
0000
1000
0000
0000
0000
0130
0000
0000
0000
0100
1000
0001
0100
,
0010
0000
0000
0010
1000
0000
0001
0000
0010
0000
0000
0010
0001
0000
1000
0000
,
0010
0000
0001
0000
0010
0000
0100
0000
0001
0000
0010
0000
0100
1000
0100
0000
,
0010
0000
0001
0100
1000
0000
0100
0010
,
1001
0000
0000
0001
0100
0000
0010
0000
1000
0000
0001
0000
0100
0001
0100
0001
,
0100
0000
0000
0100
0010
0000
1000
0000
0001
0010
0001
0010
0100
0000
1000
0000
,
0001
0100
0010
1010
0000
0001
0010
0110
,
0000
1000
0010
0110
0000
0001
1000
0100
,
0010
0001
0010
0000
0100
1000
0100
0000
1000
0010
0100
0001
0010
0100
1000
0001
,
0100
1000
0100
0001
0000
0000
0000
0000
;

//--------------- dance-double - forcednature ----------------
#NOTES:
     dance-double:
     forcednature:
     Easy:
     8:
     0,0,0,0,0:
00000000
00000000
00000000
00000000
,
00000000
00000000
00000000
00000000
,
00000000
00000000
00000000
00000000
,
00000000
00000000
00000000
00000000
,
00000000
00000000
00000000
00000000
,
00000000
00000000
00000000
00000000
,
00011000
00010000
00000100
00001000
,
00000001
00000100
00000010
00010010
,
00011000
00000000
00000000
00100000
00000000
00010000
00000000
01000000
,
00000000
00100000
00000000
10010000
00000000
01000000
00000000
01000000
,
00100000
10000000
00010000
00100000
,
01000000
00010000
00001000
00000010
,
00000100
00001000
00000001
00000100
,
00001000
00010000
00100000
01000000
,
00010000
00100000
01000000
00010000
,
00001000
00000010
00000100
00001000
,
00000001
00000100
00001000
00010000
,
00100000
01000000
00100000
01000000
00000000
00000000
00000000
00000000
,
10010000
00010000
00100000
00001000
,
00010000
00000010
00001000
00000100
,
00000010
00000001
00000100
00001000
,
00010000
01000000
00010000
00001000
,
00011000
00000000
00010000
00100000
00000000
00000000
01000000
00000000
,
10010000
00000000
10000000
01000000
00000000
00000000
00100000
00000000
,
00011000
00000100
00001100
00000001
,
00000110
00000110
00000110
00000000
,
00002002
00000000
00003003
00000000
,
00000001
00000000
00000000
00000100
00000000
00000000
00001000
00000000
,
00010000
00001000
00100000
00000000
,
00010000
10000000
00100000
00000000
,
10000000
10000000
10000000
00000000
,
01000000
00100000
00010000
00000000
,
01000000
00001000
00010000
00000000
,
00000200
00000000
00000000
00000000
00001300
00000001
00001000
00000000
,
00001001
00000001
00000100
00000010
,
00001000
00010000
01000000
00100000
,
10010000
10000000
01000000
00100000
,
00010000
00001000
00000100
00000010
,
00001001
00000100
00000010
00001000
,
00011000
00100000
01000000
00010000
,
10010000
01000000
00010000
00001000
,
00010000
00001000
00010000
00001000
00000000
00000000
00000000
00000000
,
01001000
01000000
00010000
10000000
,
01000000
00100000
00001000
00010000
,
00011000
00000100
00001000
00000001
,
00000100
00000100
00000010
00001000
,
00000110
00000001
00001000
00000010
,
00011000
00000100
00010000
00001000
,
00100000
00000000
00000000
00010000
00000000
01000000
00000000
00010000
,
00000000
10000000
00000000
00100000
00000000
10000000
00000000
01000000
,
00100000
00001000
00010000
00000100
,
00001000
00000001
00000100
00001000
,
00010000
00000100
00000010
00000001
,
00000100
00000010
00001000
00010000
,
01100000
00100000
10000000
00010000
,
01010000
00001000
00010000
00000100
,
00001100
00000010
00000001
00000010
,
00000200
00001000
00010300
00000100
,
00022000
00000000
00033000
00100000
,
00010000
00000000
00000000
01000000
00000000
00000000
00100000
00000000
,
10000000
01000000
00010000
00000000
,
00011000
00000000
00000100
00001000
00000000
00000010
00000000
00002002
,
00000000
00003003
00000100
00000001
,
00000110
00000100
00001000
00010000
,
00110000
10000000
00010000
01000000
,
00001000
00010000
00001000
00010000
00000000
00000000
00000000
00000000
,
00000000
00000000
00000000
00000000
,
00010100
00001000
00000001
00000100
,
00000010
00001000
00000100
00000010
,
00011000
00000000
00000000
00000000
00100000
00000000
00000000
00000000
01000000
00000000
00000000
10000000
00000000
00000000
01000000
00000000
,
10000000
00100000
00010000
00001000
,
00011000
00000100
00001000
00000010
,
00001001
00000000
00000100
00000000
00010000
00001000
00010000
00000000
,
00011000
00000000
01000000
00010000
00000000
10000000
00000000
00100000
,
00000000
10000000
00000000
01000000
00000000
00010000
00000000
00001000
,
00000100
00000100
00000001
00000010
,
00000100
00010000
00001000
00000100
,
00011000
00100000
00010000
10000000
,
01000000
00010000
00001000
00010000
,
00001100
00000001
00000100
00000010
,
00001001
00000100
00001000
00010000
,
00100000
01000000
00100000
01000000
00000000
00010000
00000000
10000000
,
00000000
01000000
00000000
00010000
00000000
00001000
00000000
00000020
,
00000000
00000000
00000000
00000030
,
00000001
00001000
00000001
00001000
00000000
00000000
00000000
00000000
;

//--------------- dance-double - forcednature ----------------
#NOTES:
     dance-double:
     forcednature:
     Medium:
     12:
     0,0,0,0,0:
00000000
00000000
00000000
00000000
,
00000000
00000000
00000000
00000000
,
00000000
00000000
00000000
00000000
,
00000000
00000000
00000000
00000000
,
00000000
00000000
00000000
00000000
,
00000000
00000000
00000000
00000000
,
00011000
00000100
00001000
00000001
,
00000100
00001000
00010000
01100000
,
10010000
00000000
00000000
01010000
00000000
00011000
00000000
00001100
,
00000000
00010000
01000000
00010000
00000000
00001000
00000100
00001000
,
00010000
00000000
00000100
00000000
00001000
00000010
00000100
00000000
,
00000001
00000010
00000100
00001000
00000000
00000000
00000010
00000000
,
00010000
00100000
01000000
00010000
,
10000000
01000000
00100000
00010000
00000000
01000000
00001000
00000000
,
00010000
00100000
00010000
00000100
,
00001000
00000010
00000100
00000001
00000000
00000100
00001000
00000000
,
00010000
01000000
00100000
00010000
,
10000000
10000000
00100000
00100000
00000000
00000000
00000000
00000000
,
01100000
00010000
10000000
00100000
,
00010000
00001000
00000010
00000100
00000000
00001000
00000001
00000000
,
00000100
00001000
00010000
01000000
,
00100000
00010000
10000000
00100000
00000000
00010000
00001000
00000000
,
00110000
00000000
00000000
00011000
00000000
00000000
00000100
00000000
,
00001010
00000000
00000000
00011000
00000000
00000000
01000000
00000000
,
00110000
00001000
00001010
00010000
,
00000100
00001000
00000010
00000000
00010000
00000000
00100000
00000000
,
10020000
01000000
00030100
00000000
,
00001000
00000000
00010000
00000100
00000000
00001000
00000001
00000000
,
00000100
00000000
00001000
00000000
00010000
00000000
00100000
02000000
,
00000000
10000000
00000000
00020000
00000000
00000000
03030000
00000000
,
00001000
00000000
00010000
00000000
00000100
00000010
00000000
00001000
,
00000000
00010000
00000000
00000010
00000100
00000000
00000001
00000000
,
00000010
00000000
00001000
00000000
00010000
00100000
00010000
00002000
,
00000000
00000000
00000000
00000000
00003010
00001000
00010000
00001000
,
00000100
00000000
00000011
00000000
00000100
00010000
00001000
00100000
,
00010000
10000000
00100000
01000000
,
00011000
00000000
00100000
00000000
00001000
00010000
00000100
00001000
,
00000001
00000100
00001000
00010000
,
01100000
00010000
10000000
01000000
,
00011000
00000100
00001000
00000001
,
00000110
00001000
00011000
00000010
,
00010000
00010000
00001000
00001000
00000000
00000000
00000000
00000000
,
01100000
00000000
10000000
00010000
00100000
00000000
01000000
00000000
,
00010000
00001000
00000010
00000100
00000000
00001000
00000001
00000000
,
00000110
00000000
00000000
00000000
00001000
00000000
00000000
00000000
00010000
00000000
00000000
01000000
00000000
00000000
00100000
00000000
,
00010000
10000000
00100000
00010000
,
00011000
00000000
00000100
00000000
00001000
00000010
00000100
00000000
,
00000011
00000000
00000100
00000000
00010000
00000010
00010000
00100000
,
00010000
00000000
00000000
00011000
00000000
00110000
00000000
00001010
,
00000000
00000100
00010000
00000010
00000000
01000000
00001000
00100000
,
01000000
10000000
00100000
00010000
,
00001000
00000010
00000001
00000100
,
00000010
00010000
00100000
00010000
,
00001000
00000010
00001000
00100000
,
00011000
00000010
00010000
01000000
,
00011000
00100000
00001000
00000100
,
00001000
00010000
01000000
00010000
00000000
00001000
00000010
00001000
,
00020000
00000100
01000000
00031000
,
00010000
00000000
00100000
00000000
10000000
00000000
00000000
01000000
,
00000000
00100000
00001000
00000000
00010000
00000000
00000000
00100000
,
00001000
00000010
00010000
00000000
,
00001100
00000000
00000001
00000010
00000000
00010100
00000000
02001000
,
00000000
00000000
13000000
00000000
01000000
00010000
00100000
00000000
,
01100000
00000000
10000000
00000000
00010000
01000000
00001000
00000000
,
00010000
00001000
00000100
00000010
00001000
00000000
00000001
00000000
,
00000010
00000100
00000010
00000100
00000000
00000000
00000000
00000000
,
00000000
00000000
00000000
00000000
,
00011000
00000000
00100000
01000000
10000000
00000000
00100000
00000000
,
00010000
00001000
00100000
00001000
00000000
00000100
00000001
00000000
,
00000110
00000000
00000000
00000000
00000001
00000000
00000000
00000000
00001000
00000000
00000000
00000100
00000000
00000000
00010000
00000000
,
00001000
00000010
00010000
01000000
,
10010000
00000000
10000000
00000000
00010000
00100000
00001000
00000000
,
00010100
00000000
00001010
00000000
00000001
00000100
00001000
00010000
,
00000100
00000000
00000000
00011000
00000000
00110000
00000000
10010000
,
00000000
01000000
00010000
00001000
00000000
00000100
00001000
00010000
,
00002000
00000010
00010000
01000000
,
00010000
00000100
00010000
00103000
,
00020000
01000000
00001000
00000010
,
00001000
00130000
00010000
00010100
,
01001000
00000000
00010000
00000000
10000000
00100000
01000000
00000000
,
00110000
00000000
00001000
00000000
00010000
00000010
00001000
00000000
,
00000100
00000010
00000100
00000010
00000000
00000001
00000100
00001000
,
00000000
00010000
01000000
10000000
00000000
00100000
01000000
00200000
,
00000000
00000000
00000000
00300000
,
00010000
00001000
00010000
00001000
00000000
00000000
00000000
00000000
;

//--------------- dance-double - forcednature ----------------
#NOTES:
     dance-double:
     forcednature:
     Hard:
     16:
     0,0,0,0,0:
00000000
00000000
00000000
00000000
,
00000000
00000000
00000000
00000000
,
00000000
00000000
00000000
00000000
,
00000000
00000000
00000000
00000000
,
00000000
00000000
00000000
00000000
,
00000000
00000000
00000000
00000000
,
00011000
00000000
01000000
00010000
00100000
01000000
10000000
00000000
,
00100000
00000000
00010000
00001000
00000010
00000100
00001000
00000001
,
00000100
00001000
01000000
00001000
00000000
00011000
00000000
00101000
,
00000000
01000000
10000000
00100000
00000000
00010000
00001000
00000010
,
00000100
00010000
00000100
00000001
00000100
00001000
00000010
00010000
,
00001000
00100000
01000000
00010000
00000000
00001000
00100000
00010000
,
01000000
10000000
01000000
00100000
00001000
00000010
00010000
00001000
,
00000010
00000100
00001000
00000001
00000000
00000100
00001000
00010000
,
00100000
10000000
01000000
00010000
00000000
00001000
00000010
00000001
,
00000100
00001000
00010000
00100000
00000000
01000000
00001000
00010000
,
00000100
00000000
00000010
00001000
00000000
00010000
00100000
10000000
,
01000000
00001000
00000100
00001000
00000000
00000000
00000000
00000000
,
00000010
00010000
00001000
00000010
00000001
00001000
00000010
00010000
,
00100000
00010000
00001000
00100000
00000000
01000000
10000000
00100000
,
00010000
00001000
00000010
00000100
00001000
00000001
00000100
00010000
,
01000000
00010000
00100000
01000000
00000000
10000000
00010000
01000000
,
00100000
00000000
00010000
00001000
00000000
00000010
00000100
00001000
,
00000001
00000000
00000100
00001000
00000000
00010000
00100000
10000000
,
01000000
00000000
00010000
00001000
00000100
00001000
01000000
00001000
,
00100000
00101000
00011000
00010010
,
00001001
00010100
01001000
10000000
,
01000000
00000000
00010000
00001000
00000000
00000100
00000010
00001000
,
00000001
00000010
00001000
00001000
00010000
00100000
01000000
00002000
,
00000000
00000000
00000000
00000020
00000000
00000000
00003030
00000000
,
00001000
00010000
00100000
00010000
00000010
00010000
00000000
00001000
,
00000000
01010000
00000000
10000000
01000000
00000000
00100000
00001000
,
00000100
00001000
00010000
00000100
00000010
00001000
00000010
00000002
,
00000000
00000000
00000000
00000000
00000003
00000000
00000000
00000000
00010000
00000100
00010000
00000000
00001000
01000000
00001000
00000000
,
00010000
00000000
00100000
10000000
01000000
00010000
00000100
00020000
,
00001000
00100000
00030010
00010000
,
00001000
00000000
00000100
00000001
00000010
00000100
00010000
00002000
,
00000100
00000000
00010000
00000000
00003010
00001000
00100000
00010000
,
01000000
00000000
00000000
00000000
00100000
10000000
00100000
00000000
01000000
00000000
00001000
00000000
00010000
00000100
00010000
00000000
,
00001000
00000000
00000000
00000000
00000100
00000001
00000100
00000000
00000010
00000000
00010000
00000000
00001000
01000000
00001000
00000000
,
10000000
01000000
10000000
00000000
00010000
00100000
00010000
00000000
00100000
00001000
00010000
00000000
00000010
00010000
00001000
00000000
,
00000010
00000001
00000100
00001000
00000000
00000100
00010000
01000000
,
00010000
00000000
00100000
00001000
00010000
00100000
00010000
00000100
,
00001000
00000100
00000010
00000001
00000100
00000010
00000100
00001000
,
00010000
00000000
00000000
00000000
01000000
00000000
10000000
00000000
00100000
00000000
00000000
00010000
00000000
00000000
00001000
00000000
,
00010000
00000100
00010000
00000000
00001000
00000000
00000000
00000000
00000010
00000000
00000001
00000000
00000100
00000000
00001000
00000000
,
00010000
00000000
00000010
00010000
01000000
00010000
00001000
00010000
,
00100000
00000000
10000000
00000000
01000000
00000000
00100000
00000000
00001000
00010000
00001000
00010000
00001000
00000000
00000010
00000000
,
00000100
00001000
00000001
00000100
00000000
00001000
00100000
10000000
,
00000000
00100000
00001000
00000100
00000000
00000010
00010000
00001000
,
00000020
00000000
00000000
00000000
00000001
00000000
00000000
00000000
00010030
00000000
00000000
00000000
00000010
00000100
00001000
00000100
,
00010000
00000000
00000000
00010000
00001000
00000000
01000000
00000000
00010000
00000000
00000000
00010000
00100000
00000000
01000000
00000000
,
10000000
00000000
00100000
00000000
00010000
00000000
00001000
00000000
00000100
00000000
00000001
00000000
00001000
00000100
00001000
00000000
,
00000010
00000000
00010000
00001000
00100000
00000000
01000000
10000000
,
10100000
00000000
00000000
10000000
00010000
00000000
00100000
00000000
00001000
00000000
00010000
00000000
00000100
00001000
00000100
00001000
,
00000100
00000000
00000000
00000100
00000010
00000000
00000001
00000000
00000100
00000000
00000000
00000100
00001000
00000000
00010000
00000000
,
00100000
00010000
00000010
00010000
00000000
00001000
00100000
00010000
,
01000000
00010000
01000000
00001000
00010000
00001000
00010000
00000000
00000100
00001000
00000001
00000010
00000100
00000000
00010000
00000000
,
00002000
00000100
01003000
00001000
,
00100000
00000000
00010000
10000000
00000000
00100000
00010000
00000000
,
00001000
00000010
00001000
00100000
00010000
00000000
01000000
00001000
,
00010000
00000000
00000100
00010100
00000000
00101000
00000000
00022000
,
00000000
00000000
00033000
00000000
00000100
00000000
00001000
00000000
00000010
00000000
00000100
00000000
00000001
00000010
00000100
00001000
,
00000010
00000000
00000000
00000000
00010000
00000000
00001000
00000000
01000000
00000000
00010000
00000000
10000000
00100000
01000000
00010000
,
00100000
00010000
00100000
00000000
00001000
00010000
00001000
00000000
00000100
00000001
00000010
00000000
00000100
00001000
00000010
00000000
,
00000100
00001000
01000000
00001000
00000000
00000000
00000000
00000000
,
00000000
00000000
00000000
00000000
00000000
00010000
01000000
10000000
,
00100000
00000000
01000000
00010000
00001000
00000010
00000100
00001000
,
00010000
00000100
00000010
00010000
00100000
00010000
01000000
00100000
,
01000000
00010000
01000000
00001000
00010000
00001000
00010000
00000100
00001000
00000000
00000000
00000010
00000000
00000000
00000100
00000000
,
00000001
00000010
00000001
00000000
00000100
00000000
00000000
00000100
00001000
00000000
00010000
00000000
00100000
00000000
01000000
00000000
,
00010000
00000000
10000000
01000000
00010000
00001000
00000010
00000001
,
00001000
00000100
00001000
00000100
00010000
00001000
00010000
00001000
01000000
00010000
01000000
00010000
00100000
00000000
00001000
00000000
,
00010000
00000010
00000100
00001000
00000000
00010000
01000000
10000000
,
00010000
01000000
00010000
00000000
00100000
00001000
00010000
00000000
00000100
00001000
00000001
00000000
00000100
00000010
00002000
00000000
,
00000100
00000000
00000000
00000000
00000010
00000000
00000000
00000000
00003001
00000000
00000000
00000000
00001000
00000100
00010000
00001000
,
00010000
00000000
00000000
00010000
01000000
00000000
00100000
00000000
00010000
00000000
00000000
00010000
10000000
00000000
00100000
00000000
,
00010000
00000000
00001000
00000000
00000010
00000000
00000100
00000000
00001000
00000000
00000001
00000000
00000100
00000010
00000100
00000000
,
00001000
00000000
00010000
00100000
01000000
00000000
00100000
10000000
,
00010000
00000000
00000000
00010000
00100000
00000000
00001000
00000000
00010000
00000000
00000100
00000000
00001000
00000001
00001000
00000001
,
00001000
00000000
00000000
00001000
00000010
00000000
00010000
00000000
00001000
00100000
00001000
00100000
00010000
00000000
01000000
00000000
,
00100000
10000000
01000000
00100000
00000000
00001000
00010000
00100000
,
00000000
00010000
00000010
00000100
00000000
00000001
00000010
00000100
,
00010000
00001000
00010000
00000000
00001000
01000000
00010000
00000000
00100000
01000000
10000000
00010000
01000000
00001000
00010000
00001000
,
00100000
00010000
00000010
00010000
00000000
00000000
00000000
00000000
;
